#TITLE:Dying Sun;
#SUBTITLE:;
#ARTIST:ディヴェラ;
#TITLETRANSLIT:;
#SUBTITLETRANSLIT:;
#ARTISTTRANSLIT:DIVELA;
#GENRE:;
#CREDIT:;
#BANNER:Dying Sun.png;
#BACKGROUND:Dying Sun-BG.png;
#LYRICSPATH:;
#CDTITLE:;
#MUSIC:Dying Sun.ogg;
#OFFSET:-1.457000;
#SAMPLESTART:26.642000;
#SAMPLELENGTH:24.000000;
#SELECTABLE:YES;
#BPMS:0.000000=162.000000
;
#STOPS:
;
#BGCHANGES:;
#KEYSOUNDS:;
#ATTACKS:;

//---------------dance-single - ----------------
#NOTES:
     dance-single:
     :
     Hard:
     10:
     0.525658,0.865889,0.008439,0.658278,0.219426,436.000000,435.000000,1.000000,78.000000,0.000000,0.000000,0.525658,0.865889,0.008439,0.658278,0.219426,436.000000,435.000000,1.000000,78.000000,0.000000,0.000000:
1000
0010
0100
0001
1000
0100
0010
0001
,
1000
0000
0000
0100
0000
0000
0010
0000
0000
0000
0001
0000
0010
0000
0001
0000
,
0000
0100
0010
0100
0000
1000
0010
1000
,
0001
0000
0000
0100
0000
0000
0010
0000
0000
0000
1000
0000
0100
0000
0010
0000
,
0100
0000
0000
0001
0000
0000
1000
0000
0010
0000
0100
0000
0001
0000
1000
0000
,
0100
0000
0000
1000
0000
0000
0001
0000
0000
0010
0000
0000
0001
0000
0000
0000
,
0001
1000
0100
0010
0000
0100
0010
0000
,
0001
1000
0001
0100
1000
0010
0100
0001
,
1000
0001
0100
1000
0010
0100
0001
1000
,
0001
0010
0001
0100
0010
1000
0100
0010
,
1000
0001
0100
0010
1000
0100
0001
0100
,
0010
1000
0100
0001
1000
0100
0010
0001
,
0100
0010
0001
1000
0010
0001
1000
0100
,
0001
0000
1000
0000
0001
0000
1000
0100
1000
0000
0010
0000
0100
0000
0001
0010
,
0001
0000
0100
0000
0010
0000
1000
0010
1000
0000
0001
0000
1000
0000
0001
0010
,
0001
0010
0001
0010
0001
0010
0100
1000
0100
1000
0100
1000
0100
1000
0100
0000
,
0000
0000
0000
1001
,
2000
0000
3020
0000
,
0230
0000
0302
0000
,
2003
0000
0000
0000
3200
0320
0032
2003
,
3100
0000
0010
0100
0010
0000
0001
0000
1000
0000
0010
0100
0000
0001
0010
0000
,
0200
0000
0320
0000
,
2030
0000
3002
0203
,
0320
0000
0032
0000
,
1003
0000
0100
0010
0001
0010
0100
0000
1000
0100
0010
0001
0010
0100
1000
0000
,
0020
0000
0230
0000
,
0302
0000
2003
0000
,
3200
0000
0000
0000
0302
0023
0230
0320
,
1030
0000
0010
0100
0010
0000
1000
0000
0001
0000
1000
0001
0000
1000
0001
0000
,
2000
0000
3002
0000
,
0203
0000
0320
2030
,
3002
0000
0203
0000
,
0301
0000
1000
0100
0010
0100
1000
0000
0001
0010
0100
1000
0100
0010
0001
0000
,
1000
0000
0100
0000
0010
0000
0001
0000
0100
0000
0010
0000
1000
0000
0001
0010
,
0100
0000
0010
1000
0000
0001
0100
0010
,
1000
0001
0000
0100
0010
0001
1000
0100
,
0010
0000
0100
0010
0000
0001
0100
0010
,
2000
0000
0000
0000
0001
0000
0000
0000
0001
0000
0000
0000
3001
0000
0100
0010
,
0100
0000
0010
1000
0000
0001
0100
0010
,
1000
0001
0000
0100
0010
0001
1000
0100
,
0002
0000
0003
1000
0010
0100
0001
0020
,
1000
0000
0000
0000
1000
0000
0000
0000
1000
0000
0000
0000
1030
0000
0100
0010
,
0100
0000
0001
0010
0000
0100
1000
0010
,
0100
0001
0000
0001
0010
0100
0001
1000
,
0100
0010
1000
0100
0000
0010
0100
0001
,
0010
0000
0002
1000
0000
0000
1000
0000
0000
0000
1000
0000
1003
0000
1000
0010
,
1000
0000
0100
0010
0000
0100
0001
1000
,
0010
0100
0000
0010
0100
1000
0001
0010
,
1000
0000
0000
0001
0010
0100
0010
0002
,
1000
0000
0000
0000
1000
0000
0000
1000
0000
0000
1000
0000
1003
0000
0100
0001
,
0100
0000
0010
1000
0000
0001
0100
0010
,
1000
0001
0000
0100
0010
1000
0100
0001
,
1000
0010
0000
0200
0000
0301
0010
1000
,
0010
0000
0002
0000
1000
0000
0000
1000
0000
0000
1000
0000
1003
0000
0010
1000
,
0010
0000
0100
0001
0000
1000
0100
1000
,
0010
0100
0000
0001
1000
0100
0001
0010
,
0001
0000
0100
0010
1000
0001
0010
0200
,
0001
0000
0000
0000
0001
0000
0000
0001
0000
0000
0001
0000
0301
0000
0000
0000
,
0000
0000
0000
0000
,
2000
0000
3020
0000
,
0230
0000
0302
0000
,
2003
0000
3020
0000
,
2030
0000
3002
0203
0000
0320
2030
3020
,
0230
0000
0302
0000
,
2003
0000
3020
0230
,
0302
0000
2003
0000
,
3010
0000
1000
0100
0010
0100
1000
0000
0001
0010
0100
1000
0100
0010
0001
0000
,
2000
0000
3200
0000
,
0320
0000
0032
0000
,
0203
0000
0320
0000
,
2030
0000
3002
0203
0000
0320
2030
3002
,
0203
0000
0320
0000
,
2030
0000
3002
0000
,
0203
0000
0302
0000
,
1003
0000
0001
0010
0100
0010
0001
0000
1000
0100
0010
0001
0010
0100
1000
0000
,
0002
0000
0000
0000
,
0003
0000
0000
0000
;

//---------------dance-single - ----------------
#NOTES:
     dance-single:
     :
     Medium:
     6:
     0.321905,0.545189,0.000000,0.472610,0.000000,267.000000,267.000000,0.000000,56.000000,0.000000,0.000000,0.321905,0.545189,0.000000,0.472610,0.000000,267.000000,267.000000,0.000000,56.000000,0.000000,0.000000:
// measure 0
1000
0100
1000
0001
,  // measure 1
1000
0100
0010
0001
,  // measure 2
0100
0001
1000
0001
,  // measure 3
0010
0100
0001
0100
,  // measure 4
0100
0010
0001
0010
,  // measure 5
0100
1000
0001
0010
,  // measure 6
0010
0100
0001
0001
,  // measure 7
0010
0010
1000
0100
,  // measure 8
1000
0100
0001
0010
,  // measure 9
0010
0010
0001
0100
,  // measure 10
1000
0100
1000
0010
,  // measure 11
0001
0100
1000
0001
,  // measure 12
0100
0010
0001
1000
,  // measure 13
0010
0000
0010
1000
0100
0000
0100
0001
,  // measure 14
0010
0100
0001
0100
1000
0010
1000
0100
,  // measure 15
0001
0010
1000
0001
0100
0010
1000
0010
,  // measure 16
0000
0000
0000
0010
,  // measure 17
2000
0000
3002
0000
,  // measure 18
0203
0000
0320
0000
,  // measure 19
2030
0000
3100
0010
,  // measure 20
0100
0001
1000
0100
,  // measure 21
0200
0000
0302
0000
,  // measure 22
2003
0000
3020
0000
,  // measure 23
0032
0000
0023
0000
,  // measure 24
1030
0100
0010
0100
1000
0010
0001
1000
,  // measure 25
0002
0000
0203
0000
,  // measure 26
0320
0000
2030
0000
,  // measure 27
3200
0000
0310
0100
,  // measure 28
1000
0001
0010
0100
,  // measure 29
2000
0000
3020
0000
,  // measure 30
0230
0000
0302
0000
,  // measure 31
0023
0000
0230
0000
,  // measure 32
0310
1000
0001
1000
0010
0100
0100
0010
,  // measure 33
1000
0000
0001
0000
0100
0000
1000
0010
,  // measure 34
0100
0001
1000
0100
,  // measure 35
1000
0010
0001
1000
,  // measure 36
0001
0100
0010
0100
,  // measure 37
2000
0000
0000
0000
0000
0000
3000
0010
,  // measure 38
0100
0001
1000
0100
,  // measure 39
1000
0100
0001
1000
,  // measure 40
0020
0000
0030
0000
0001
0000
0010
0002
,  // measure 41
0000
0000
0000
0000
0000
0000
0003
1000
,  // measure 42
0100
0010
0100
1000
,  // measure 43
0100
0010
0001
0010
,  // measure 44
0100
1000
0001
0100
,  // measure 45
0001
0020
0000
0000
0000
0000
0030
0001
,  // measure 46
1000
0100
0001
0010
,  // measure 47
0001
1000
0100
0010
,  // measure 48
1000
0000
0100
0000
0001
0000
0001
0020
,  // measure 49
0000
0000
0000
0000
0000
0000
0030
0001
,  // measure 50
0100
0001
1000
0100
,  // measure 51
1000
0010
0001
0100
,  // measure 52
1000
0010
0100
0001
,  // measure 53
0001
0020
0000
0000
0000
0000
0030
1000
,  // measure 54
0001
0100
0010
0100
,  // measure 55
0001
0010
1000
0010
,  // measure 56
0010
0000
0100
0000
1000
0000
0001
0200
,  // measure 57
0000
0000
0000
0300
,  // measure 58
0000
0000
0000
0000
,  // measure 59
2000
0000
3002
0000
,  // measure 60
0203
0000
0320
0000
,  // measure 61
2030
0000
3002
0000
,  // measure 62
2003
0000
3010
0100
0000
0001
1000
0001
,  // measure 63
0200
0000
0320
0000
,  // measure 64
2030
0000
3002
0000
,  // measure 65
0023
0000
2030
0000
,  // measure 66
3001
1000
0001
1000
0010
0100
0100
0010
,  // measure 67
2000
0000
3200
0000
,  // measure 68
0302
0000
0023
0000
,  // measure 69
0230
0000
0302
0000
,  // measure 70
2003
0000
3010
0100
0000
0001
1000
0010
,  // measure 71
0200
0000
0302
0000
,  // measure 72
2003
0000
3020
0000
,  // measure 73
0230
0000
0320
0000
,  // measure 74
1030
0010
0100
0010
1000
0001
0001
1000
,  // measure 75
0020
0000
0000
0000
,  // measure 76
0030
0000
0000
0000
;

//---------------dance-single - ----------------
#NOTES:
     dance-single:
     :
     Easy:
     3:
     0.200136,0.288630,0.000000,0.219426,0.000000,166.000000,166.000000,0.000000,26.000000,0.000000,0.000000,0.200136,0.288630,0.000000,0.219426,0.000000,166.000000,166.000000,0.000000,26.000000,0.000000,0.000000:
1000
0000
1000
0000
,
1000
0000
0001
0000
,
0100
0000
1000
0000
,
0001
0000
0010
0000
,
0100
0000
0010
0000
,
0100
0000
0010
0000
,
0001
0000
0010
0000
,
0001
0000
1000
0000
,
1000
0000
0010
0000
,
0001
0000
0010
0000
,
1000
0000
1000
0000
,
0010
0000
1000
0000
,
0100
0000
0010
0000
,
0001
0001
0100
0100
,
0001
0010
1000
1000
,
0010
1000
0100
1000
,
0000
0000
0000
0001
,
2000
0000
3010
0000
,
0200
0000
0301
0000
,
2000
0000
3100
0000
,
0100
0000
1000
0000
,
0200
0000
0310
0000
,
2000
0000
3001
0000
,
0020
0000
0031
0000
,
1000
0001
1000
0010
,
0020
0000
0130
0000
,
0002
0000
1003
0000
,
0200
0000
0301
0000
,
1000
0000
0001
0000
,
2000
0000
3001
0000
,
0200
0000
0310
0000
,
0002
0000
0103
0000
,
0001
0010
0001
0100
,
1000
0010
0000
1000
,
0000
0010
0000
0100
,
0000
0001
0000
1000
,
0000
0100
0000
0100
,
1000
0000
0000
0000
,
0100
0000
1000
0000
,
1000
0000
0010
0000
,
0001
0000
0000
0000
0010
0000
0001
0010
,
0000
0000
0000
0000
0000
0000
0000
1000
,
0100
0000
0100
0000
,
0100
0000
0010
0000
,
0100
0000
0010
0000
,
0010
0001
0000
0000
0000
0000
0000
0010
,
1000
0000
0010
0000
,
0010
0000
0100
0000
,
1000
0000
0000
0000
0010
0000
0000
0001
,
0000
0000
0000
0000
0000
0000
0000
0010
,
0100
0000
1000
0000
,
1000
0000
0010
0000
,
1000
0000
0100
0000
,
0010
0001
0000
0000
0000
0000
0000
1000
,
0010
0000
0001
0000
,
0010
0000
1000
0000
,
0001
0000
0000
0000
1000
0000
0000
0200
,
0000
0000
0000
0300
,
0000
0000
0000
0000
,
2000
0000
3010
0000
,
0200
0000
0301
0000
,
2000
0000
3010
0000
,
1000
0001
0000
1000
,
0200
0000
0301
0000
,
2000
0000
3010
0000
,
0002
0000
1003
0000
,
0010
0010
0001
0100
,
2000
0000
3100
0000
,
0020
0000
0031
0000
,
0200
0000
0310
0000
,
1000
0001
0000
1000
,
0200
0000
0310
0000
,
2000
0000
3001
0000
,
0200
0000
0301
0000
,
1000
0100
1000
0010
,
0002
0000
0000
0000
,
0003
0000
0000
0000
;
