#VERSION:0.83;
#TITLE:Dreadnought;
#SUBTITLE:;
#ARTIST:Mastermind(xi+nora2r);
#TITLETRANSLIT:;
#SUBTITLETRANSLIT:;
#ARTISTTRANSLIT:;
#GENRE:;
#ORIGIN:;
#CREDIT:;
#BANNER:Dreadnought.png;
#BACKGROUND:Dreadnought-BG.png;
#PREVIEWVID:;
#JACKET:Dreadnought-Jacket.png;
#CDIMAGE:;
#DISCIMAGE:;
#LYRICSPATH:;
#CDTITLE:;
#MUSIC:Dreadnought.ogg;
#OFFSET:-0.032000;
#SAMPLESTART:33.782001;
#SAMPLELENGTH:24.000000;
#SELECTABLE:YES;
#DISPLAYBPM:96.000000:384.000000;
#BPMS:0.000=192.000,
172.000=96.000,
204.000=192.000,
236.000=384.000,
284.000=96.000,
285.000=192.000;
#STOPS:;
#DELAYS:;
#WARPS:;
#TIMESIGNATURES:0.000=4=4;
#TICKCOUNTS:0.000=4;
#COMBOS:0.000=1;
#SPEEDS:0.000=1.000=0.000=0;
#SCROLLS:0.000=1.000;
#FAKES:;
#LABELS:0.000=Song Start;
#BGCHANGES:4.000=Dreadnought.avi=1.000=1=0=1===CrossFade==,
99999=-nosongbg-=1.000=0=0=0 // don't automatically add -songbackground-
;
#KEYSOUNDS:;
#ATTACKS:
;

//---------------dance-single - ----------------
#NOTEDATA:;
#CHARTNAME:;
#STEPSTYPE:dance-single;
#DESCRIPTION:;
#CHARTSTYLE:;
#DIFFICULTY:Hard;
#METER:9;
#RADARVALUES:0.503837,0.916698,0.478339,0.214182,0.124939,494.000000,427.000000,67.000000,30.000000,0.000000,0.000000,0.000000,0.000000,0.000000,0.503837,0.916698,0.478339,0.214182,0.124939,494.000000,427.000000,67.000000,30.000000,0.000000,0.000000,0.000000,0.000000,0.000000;
#CREDIT:;
#DISPLAYBPM:96.000000:384.000000;
#NOTES:
// measure 0
0000
0000
0000
0000
,  // measure 1
1001
0000
0000
0000
,  // measure 2
0010
0000
0100
0001
,  // measure 3
1000
0000
0010
0000
,  // measure 4
1000
0000
0001
0000
,  // measure 5
1001
0000
0000
1000
0001
0000
0000
0000
,  // measure 6
0010
0000
0000
1000
0100
0000
0000
1000
,  // measure 7
0001
0000
0000
0010
0100
0000
0000
0000
,  // measure 8
1001
0000
0000
0000
,  // measure 9
0100
0000
0000
0000
,  // measure 10
0000
0000
0000
0000
,  // measure 11
1000
0000
0000
0100
0000
0000
1000
0000
,  // measure 12
0000
0010
0000
0000
0100
0000
0001
0000
,  // measure 13
1001
0000
0100
0000
0000
0010
0000
0000
,  // measure 14
1000
0000
0000
0001
0000
1000
0001
0000
,  // measure 15
1001
0001
1000
0000
0001
0100
0001
0000
,  // measure 16
1010
0010
1000
0000
0100
0010
0100
0000
,  // measure 17
1100
1000
0100
0000
0011
0001
0010
0000
,  // measure 18
2000
3002
0203
0320
,  // measure 19
1030
0001
1000
0010
1000
0100
1000
0010
,  // measure 20
1000
0001
1000
0010
1000
0100
1000
0001
,  // measure 21
1001
1000
0001
0100
0001
0010
0001
0100
,  // measure 22
0001
1000
0001
0100
0001
0010
0001
0100
,  // measure 23
1001
0101
1010
0110
,  // measure 24
1000
0010
0100
0001
1000
0100
0010
0001
,  // measure 25
2000
0000
0000
0000
0000
0000
0000
3000
,  // measure 26
0001
0010
0001
0010
0001
0000
1000
0100
1000
0100
1000
0000
2002
0000
3003
0000
,  // measure 27
1000
0000
0010
0000
0100
0010
1000
0100
,  // measure 28
0001
0100
0010
1000
,  // measure 29
0001
0000
0010
0000
0001
0010
0100
1000
,  // measure 30
0010
0000
0100
0000
0010
0000
1000
0010
,  // measure 31
1000
0000
0001
0000
0100
0000
0010
0100
,  // measure 32
1000
0100
0010
0000
1000
0000
0001
0000
,  // measure 33
0110
0100
0101
1000
,  // measure 34
0110
0101
0001
1000
,  // measure 35
0100
0010
0001
1000
,  // measure 36
0100
0000
0010
1000
0100
0001
0010
0000
,  // measure 37
0001
0100
0010
1000
,  // measure 38
0001
0000
0010
1000
0100
0000
1000
0001
,  // measure 39
0011
0000
0100
0000
0001
0000
0010
0100
,  // measure 40
0110
0000
0010
0000
1010
0000
1000
0001
,  // measure 41
1001
0000
0001
0000
0010
0000
0100
0000
1000
0100
0010
0001
1000
0100
0010
0001
,  // measure 42
1000
0000
0000
0000
1000
0100
1000
0100
0000
0000
1010
0000
0101
0000
0000
0000
,  // measure 43
0002
0000
0000
0000
,  // measure 44
2003
0000
0000
0000
,  // measure 45
3020
0000
0000
0000
,  // measure 46
0230
0000
0000
0000
,  // measure 47
0302
0000
0000
0000
,  // measure 48
0023
0000
0000
0000
,  // measure 49
0230
0000
0000
0000
,  // measure 50
2300
0000
0000
0000
,  // measure 51
3001
0000
0010
0000
0100
0000
1000
0100
,  // measure 52
1000
0000
0001
0010
0100
1000
0100
0010
,  // measure 53
1001
0000
1000
0000
0010
0000
0001
0010
,  // measure 54
0001
0000
1000
0100
0010
0001
0010
0100
,  // measure 55
1001
0000
0010
0100
0010
0100
0010
0000
,  // measure 56
1001
0000
1000
0100
1000
0100
1000
0000
,  // measure 57
1010
0010
1000
0000
0101
0100
0001
0000
,  // measure 58
1001
0000
0110
0000
1000
0001
0000
0000
,  // measure 59
2002
0000
0000
0000
,  // measure 60
0000
0000
0000
0000
,  // measure 61
0000
0000
0000
0000
,  // measure 62
0000
0000
0000
0000
,  // measure 63
0000
0000
0000
0000
,  // measure 64
0000
0000
0000
0000
,  // measure 65
0000
0000
0000
0000
,  // measure 66
0000
0000
0000
0000
,  // measure 67
0000
0000
0000
0000
,  // measure 68
0000
0000
0000
0000
,  // measure 69
0000
0000
0000
0000
,  // measure 70
0000
0000
0000
0000
,  // measure 71
3003
0000
0001
0010
0100
1000
0100
0010
,  // measure 72
0100
1000
0100
0010
0001
0000
1010
0000
,  // measure 73
0010
0100
0000
0001
0010
0100
1000
0000
,  // measure 74
1001
0101
1010
0010
,  // measure 75
0010
0100
0000
0010
0100
0010
0001
0000
,  // measure 76
1000
0000
0000
0000
0010
0000
1000
0100
1000
0100
0000
0000
1100
0000
0000
0000
,  // measure 77
0100
0010
0000
0001
0010
0001
0010
0000
,  // measure 78
0100
0000
0000
0000
0010
0000
0010
0100
1000
0000
0001
0000
0000
0000
0010
0000
,  // measure 79
0000
0000
1001
0000
0000
0101
0000
0000
1010
0000
0000
0110
0000
0000
1010
0000
,  // measure 80
0000
0101
0000
0000
1001
0000
1000
0000
0001
0000
0000
0000
0010
0000
0000
0000
,  // measure 81
0010
0100
0000
0010
0100
0001
1000
0000
,  // measure 82
1010
0110
0101
0010
,  // measure 83
0001
0000
1000
0000
0000
0000
0010
0000
1000
0100
1000
0000
1010
0000
0000
0011
,  // measure 84
0000
0000
0110
0000
0000
0101
0000
0000
1010
0000
0202
0000
0000
0000
0000
0000
,  // measure 85
0000
0000
0000
0000
0303
0000
0000
0000
0001
0010
0100
2000
0000
0000
0000
0000
,  // measure 86
0000
0000
0000
3000
0000
0000
0000
0000
1000
0100
0010
0002
0000
0000
0000
0000
,  // measure 87
0000
0000
2003
0000
0000
0000
0000
0000
0000
0000
3001
0010
0100
0010
0001
0010
,  // measure 88
0100
1000
0100
0000
0100
0000
0110
0000
0000
0000
0000
0000
1000
0000
0000
0000
,  // measure 89
0010
0100
0001
0010
,  // measure 90
0001
1000
0010
0100
,  // measure 91
0001
0010
0100
1000
,  // measure 92
0100
0010
0001
1000
,  // measure 93
0010
0100
0001
0010
,  // measure 94
0100
1000
0010
0100
,  // measure 95
0010
0001
0010
0100
,  // measure 96
1000
0000
0001
1000
0001
0000
0010
0000
0100
0000
0000
0000
1010
0000
0000
0000
,  // measure 97
0010
0001
0000
1000
0100
0010
0001
0000
,  // measure 98
1010
0110
0101
1000
,  // measure 99
0010
0000
0100
0000
0000
0000
0101
0000
0000
0000
1000
0100
1000
0000
0000
1010
,  // measure 100
0000
0000
0101
0000
1010
0000
0000
0101
0000
0000
0110
0000
0220
0000
0000
0000
,  // measure 101
0000
0000
0000
0000
0000
0000
0000
0000
0330
0000
1000
0100
0010
0002
0000
0000
,  // measure 102
0000
0000
0000
0000
0000
0000
0000
0003
0000
0000
0001
0010
0100
2000
0000
0000
,  // measure 103
0000
3002
0000
0203
,  // measure 104
0000
0000
0310
0100
0010
0000
1001
0000
,  // measure 105
2002
0000
0000
0000
,  // measure 106
0000
0000
0000
0000
,  // measure 107
3003
0000
0000
0000
;

//---------------dance-single - ----------------
#NOTEDATA:;
#CHARTNAME:;
#STEPSTYPE:dance-single;
#DESCRIPTION:;
#CHARTSTYLE:;
#DIFFICULTY:Medium;
#METER:6;
#RADARVALUES:0.336571,0.496545,0.085673,0.164206,0.039267,330.000000,318.000000,12.000000,23.000000,0.000000,0.000000,0.000000,0.000000,0.000000,0.336571,0.496545,0.085673,0.164206,0.039267,330.000000,318.000000,12.000000,23.000000,0.000000,0.000000,0.000000,0.000000,0.000000;
#CREDIT:;
#DISPLAYBPM:96.000000:384.000000;
#NOTES:
0000
0000
0000
0000
,
0010
0000
0000
0000
,
0001
0000
1000
0100
,
0010
0000
0001
0000
,
0010
0000
0100
0000
,
0010
0000
0000
0000
,
0001
0000
1000
0000
,
0100
0000
0000
0000
,
0010
0000
0000
0000
,
1000
0000
0000
0000
,
0000
0000
0000
0000
,
0010
0000
0000
1000
0000
0000
0010
0000
,
0000
0001
0000
0000
1000
0000
0100
0000
,
0010
0000
1000
0000
0000
0001
0000
0000
,
0010
0000
0000
0100
0000
0010
0100
0000
,
0010
0100
0100
1000
,
0010
0001
1000
0001
,
1000
0010
0001
0100
,
0010
0100
1000
0001
,
0010
0100
0001
0010
,
1000
0100
0001
0010
,
0100
1000
0001
0010
,
0001
1000
0100
0001
,
0010
0100
1000
0001
,
0010
1000
0010
0001
,
0020
0000
0000
0000
0000
0000
0000
0030
,
0100
0001
0100
1000
0010
1000
0020
0030
,
0010
0001
1000
0010
,
0100
1000
0001
0010
,
0100
0001
0100
1000
,
0001
1000
0001
0010
,
0010
0100
1000
0001
,
0010
0001
0010
0100
,
0001
1000
0100
0010
,
0001
1000
0100
0010
,
1000
0001
0100
0010
,
1000
0001
1000
0001
,
0100
1000
0001
0010
,
0100
0001
1000
0010
,
0100
1000
0100
0001
,
1000
0001
0010
0100
,
1000
0000
0001
0000
0010
0001
1000
0100
,
0010
0000
0001
1000
0001
0010
0100
0000
,
0200
0000
0000
0000
,
0320
0000
0000
0000
,
0032
0000
0000
0000
,
2003
0000
0000
0000
,
3200
0000
0000
0000
,
0302
0000
0000
0000
,
2003
0000
0000
0000
,
3020
0000
0000
0000
,
0130
0001
1000
0010
,
0001
0100
1000
1000
,
0110
0010
0001
0100
,
0100
0010
0001
0001
,
0110
0001
1000
0001
,
0110
1000
0001
0100
,
0011
0010
1100
0100
,
0110
1001
0010
0000
,
0220
0000
0000
0000
,
0000
0000
0000
0000
,
0000
0000
0000
0000
,
0000
0000
0000
0000
,
0000
0000
0000
0000
,
0000
0000
0000
0000
,
0000
0000
0000
0000
,
0000
0000
0000
0000
,
0000
0000
0000
0000
,
0000
0000
0000
0000
,
0000
0000
0000
0000
,
0000
0000
0000
0000
,
0330
0100
1000
0010
,
1000
0100
1000
0011
,
0001
1000
0001
0010
,
0010
0100
0001
0001
,
0001
0001
1000
0100
,
0010
0000
0001
0010
0010
0000
1010
0000
,
1000
0001
0010
0001
,
1000
0000
0001
1000
0010
0000
0001
0000
,
0000
0000
0010
0000
0000
0100
0000
0000
0001
0000
0000
1000
0000
0000
0010
0000
,
0000
0100
0000
0000
0010
0000
1000
0000
0100
0000
0000
0000
0001
0000
0000
0000
,
0001
1000
1000
0100
,
0010
1000
0100
0001
,
0100
0000
0000
0000
0010
0000
0001
0000
0010
0000
0000
0000
0010
0000
0000
0100
,
0000
0000
0001
0000
0000
1000
0000
0000
0001
0000
0200
0000
0000
0000
0000
0000
,
0000
0000
0000
0000
0300
0000
0000
0000
0100
0000
0000
0020
0000
0000
0000
0000
,
0000
0000
0000
0030
0000
0000
0000
0000
0010
0000
0000
0200
0000
0000
0000
0000
,
0000
0320
0000
0000
0000
0130
1000
0100
,
1000
0001
1000
0001
0000
0000
0010
0000
,
0001
1000
0100
0001
,
0100
0010
0001
1000
,
0100
0001
1000
0010
,
1000
0001
0100
0010
,
0001
1000
0100
0001
,
1000
0010
0001
1000
,
0001
0100
0001
1000
,
0010
0100
1000
0010
,
0001
0100
1000
0100
,
0010
1000
0100
0010
,
0001
0000
0000
0000
1000
0000
0100
0000
0000
0000
0010
0000
1000
0000
0000
0010
,
0000
0000
0100
0000
0001
0000
0000
1000
0000
0000
0001
0000
2000
0000
0000
0000
,
0000
0000
0000
0000
0000
0000
0000
0000
3000
0000
0010
0000
0000
0200
0000
0000
,
0000
0000
0000
0000
0000
0000
0000
0300
0000
0000
0100
0000
0000
0020
0000
0000
,
0000
0230
0000
2300
,
0000
3001
0001
0110
,
0220
0000
0000
0000
,
0000
0000
0000
0000
,
0330
0000
0000
0000
;

//---------------dance-single - ----------------
#NOTEDATA:;
#CHARTNAME:;
#STEPSTYPE:dance-single;
#DESCRIPTION:;
#CHARTSTYLE:;
#DIFFICULTY:Easy;
#METER:4;
#RADARVALUES:0.187664,0.299854,0.007139,0.014279,0.014279,184.000000,183.000000,1.000000,2.000000,0.000000,0.000000,0.000000,0.000000,0.000000,0.187664,0.299854,0.007139,0.014279,0.014279,184.000000,183.000000,1.000000,2.000000,0.000000,0.000000,0.000000,0.000000,0.000000;
#CREDIT:;
#DISPLAYBPM:96.000000:384.000000;
#NOTES:
0000
0000
0000
0000
,
0100
0000
0000
0000
,
1000
0000
0001
0010
,
0100
0000
1000
0000
,
0100
0000
0010
0000
,
0100
0000
0000
0000
,
1000
0000
0001
0000
,
0010
0000
0000
0000
,
0100
0000
0000
0000
,
0001
0000
0000
0000
,
0000
0000
0000
0000
,
0100
0000
0000
0100
,
0000
0000
0001
0000
,
0100
0001
0000
0000
,
0100
0000
0000
0010
,
0100
0000
0010
0000
,
0100
0000
0001
0000
,
0001
0000
1000
0000
,
0100
0000
0001
0000
,
0100
0000
1000
0000
,
0001
0000
1000
0000
,
0010
0000
1000
0000
,
1000
0000
0010
0000
,
0100
0000
0001
0000
,
0100
0000
0100
0000
,
0200
0000
0000
0000
0000
0000
0000
0300
,
0010
0000
0010
0000
0100
0000
0200
0300
,
0100
0000
0001
0000
,
0010
0000
1000
0000
,
0010
0000
0010
0000
,
1000
0000
1000
0000
,
0100
0000
0001
0000
,
0100
0000
0100
0000
,
1000
0000
0010
0000
,
1000
0000
0010
0000
,
0001
0000
0010
0000
,
0001
0000
0001
0000
,
0010
0000
1000
0000
,
0010
0000
0001
0000
,
0010
0000
0010
0000
,
0001
0000
0100
0000
,
0001
0000
0100
0001
,
0100
1000
1000
0010
,
0001
0000
0000
0000
,
1000
0000
0000
0000
,
0010
0000
0000
0000
,
0100
0000
0000
0000
,
0001
0000
0000
0000
,
0010
0000
0000
0000
,
1000
0000
0000
0000
,
0100
0000
0000
0000
,
0010
0000
0001
0000
,
1000
0000
0001
0000
,
0010
0000
1000
0000
,
0010
0000
1000
0000
,
0010
0000
0001
0000
,
0100
0000
1000
0000
,
1000
0000
0001
0000
,
0100
0000
0100
0000
,
0110
0000
0000
0000
,
0000
0000
0000
0000
,
0000
0000
0000
0000
,
0000
0000
0000
0000
,
0000
0000
0000
0000
,
0000
0000
0000
0000
,
0000
0000
0000
0000
,
0000
0000
0000
0000
,
0000
0000
0000
0000
,
0000
0000
0000
0000
,
0000
0000
0000
0000
,
0000
0000
0000
0000
,
0000
0010
0000
0100
,
0000
0010
0000
0100
,
0000
0001
0000
0100
,
0000
0010
0000
1000
,
0000
1000
0000
0010
,
0000
1000
0000
0001
,
0000
1000
0000
1000
,
0001
1000
0000
1000
,
0010
0000
1000
0000
,
0010
0100
0010
0000
,
1000
0000
0001
0000
,
0100
0000
0010
0000
,
0010
0100
0100
0100
,
0000
0000
0000
0000
1000
0001
0000
0000
,
0000
0000
0000
0000
0000
0000
0000
0000
0010
0000
0000
0100
0000
0000
0000
0000
,
0000
0000
0000
0000
0000
0000
0000
0000
0100
0000
0000
0010
0000
0000
0000
0000
,
0000
0100
0000
0000
0000
0000
0001
0000
,
0001
0001
0000
0100
,
0000
0001
0000
1000
,
0000
0100
0000
0001
,
0000
1000
0000
0100
,
0000
1000
0000
0100
,
0000
0001
0000
1000
,
0000
0100
0000
0001
,
0000
0010
0000
0001
,
0000
0010
0000
0100
,
0000
0010
0000
0010
,
0000
0001
0000
0100
,
0000
0001
0000
0001
,
0010
1000
0100
0001
,
0000
0000
0000
0000
0000
0000
0000
0000
0000
0000
0100
0000
0000
0010
0000
0000
,
0000
0000
0000
0000
0000
0000
0000
0000
0000
0000
0010
0000
0000
1000
0000
0000
,
0000
0001
0000
1000
,
0000
0001
0100
0010
,
0001
0000
0000
0000
;
