#VERSION:0.83;
#TITLE:DataErr0r;
#SUBTITLE:;
#ARTIST:LunaticSounds;
#TITLETRANSLIT:;
#SUBTITLETRANSLIT:;
#ARTISTTRANSLIT:;
#GENRE:;
#ORIGIN:;
#CREDIT:;
#BANNER:Dataerr0r.png;
#BACKGROUND:DataErr0r-BG.png;
#PREVIEWVID:;
#JACKET:Dataerr0r-Jacket.png;
#CDIMAGE:;
#DISCIMAGE:;
#LYRICSPATH:;
#CDTITLE:;
#MUSIC:Dataerr0r.ogg;
#OFFSET:-1.333000;
#SAMPLESTART:10.666000;
#SAMPLELENGTH:24.000000;
#SELECTABLE:YES;
#BPMS:0.000=180.000;
#STOPS:;
#DELAYS:;
#WARPS:;
#TIMESIGNATURES:0.000=4=4;
#TICKCOUNTS:0.000=4;
#COMBOS:0.000=1;
#SPEEDS:0.000=1.000=0.000=0;
#SCROLLS:0.000=1.000;
#FAKES:;
#LABELS:0.000=Song Start;
#BGCHANGES:-1.000=DataErr0r.avi=1.000=1=0=1===CrossFade==,
99999=-nosongbg-=1.000=0=0=0 // don't automatically add -songbackground-
;
#KEYSOUNDS:;
#ATTACKS:
;

//---------------dance-single - ----------------
#NOTEDATA:;
#CHARTNAME:;
#STEPSTYPE:dance-single;
#DESCRIPTION:;
#CHARTSTYLE:;
#DIFFICULTY:Hard;
#METER:12;
#RADARVALUES:0.805673,1.146738,0.103701,0.079770,0.869489,707.000000,694.000000,13.000000,10.000000,0.000000,0.000000,0.000000,0.000000,0.000000,0.805673,1.146738,0.103701,0.079770,0.869489,707.000000,694.000000,13.000000,10.000000,0.000000,0.000000,0.000000,0.000000,0.000000;
#CREDIT:;
#NOTES:
// measure 0
0000
0000
0000
0000
,  // measure 1
0000
0000
0000
0000
,  // measure 2
2002
0000
0000
0000
,  // measure 3
0000
0000
0000
0000
0000
0000
0000
0000
3003
0001
0000
0000
0100
0000
0000
0000
,  // measure 4
1000
0100
0010
0100
1000
0100
0010
0001
0010
0100
0010
0001
0010
0100
1000
0100
,  // measure 5
0010
0001
0010
0100
1000
0100
0010
0001
0010
0100
1000
0100
0010
0100
1000
0100
,  // measure 6
0010
0000
0000
0000
2001
0000
0000
0000
3010
0000
0001
0010
0002
0000
0000
0003
,  // measure 7
1001
0000
0000
0101
0000
0000
1010
0000
,  // measure 8
1000
0000
0100
0000
1000
0000
0100
0000
0000
0000
0000
0000
0001
0010
0000
0000
0100
0000
0000
0000
1000
0000
0000
0000
0000
0000
0000
0000
0010
0000
0000
0000
,  // measure 9
0000
0000
0000
0000
0000
0000
0000
0000
0000
0000
0000
0000
0100
0010
0000
0000
0000
0000
0000
0000
0000
0000
0000
0000
0000
0000
0000
0000
0000
0000
0000
0000
,  // measure 10
1000
0000
0000
0000
,  // measure 11
0001
0010
1000
0010
0001
1000
0100
0001
,  // measure 12
0000
0000
0000
0000
1000
0001
0000
0000
1000
0000
0000
0000
0000
0000
0000
0000
0010
0000
0000
0000
0000
0000
0000
0000
0100
0000
0000
0000
0000
0000
0000
0000
,  // measure 13
0000
0000
0000
0000
,  // measure 14
1000
0010
0100
0001
1000
0100
0010
0001
1000
0000
0100
0000
0001
0000
0000
0000
,  // measure 15
1001
0000
0000
0000
1000
0100
1000
0000
0000
0000
0000
0000
0101
0000
0000
0000
,  // measure 16
0000
0000
0000
0000
1000
0000
0000
0000
0000
0000
0000
0000
0001
1000
0000
0000
0100
0000
0000
0000
0010
0000
0000
0000
0000
0000
0000
0000
0100
0000
0000
0000
,  // measure 17
0000
0000
0000
0000
0000
0000
0000
0000
0000
0000
0000
0000
1000
0001
0000
0000
0000
0000
0000
0000
0000
0000
0000
0000
0000
0000
0000
0000
0000
0000
0000
0000
,  // measure 18
0000
0000
0000
0000
,  // measure 19
1000
0100
1000
0001
0010
0001
0100
0010
,  // measure 20
0100
1000
0100
0010
0001
1000
0010
0100
,  // measure 21
0001
0010
0001
1000
0100
1000
0010
0100
,  // measure 22
0001
0010
0100
1000
0001
0010
0100
1000
0001
0010
0100
0000
1000
0000
0000
0000
,  // measure 23
1001
0000
0001
0000
0000
1000
0100
0000
0010
0001
0000
1000
0010
0000
1000
0100
,  // measure 24
1000
0000
0001
0010
0000
1000
0100
1000
0100
0010
0001
0010
0001
0000
1000
0010
,  // measure 25
1000
0010
0100
0001
0000
1000
0001
0000
0100
0010
0000
0100
0000
0001
0010
0100
,  // measure 26
1000
0000
0001
0000
0000
0010
0100
0000
1000
0000
0001
0000
0100
0000
0010
0000
,  // measure 27
1000
0000
0001
0000
0000
1000
0100
0000
0100
0010
0000
0010
0001
0000
1000
0100
,  // measure 28
1000
0000
0001
0010
0000
1000
0100
0010
0001
0010
0100
1000
0000
0000
0001
0010
,  // measure 29
0100
0010
0001
0010
0000
1000
0010
0000
0000
0010
0100
1000
0100
0010
0001
0010
,  // measure 30
0100
0000
1000
0000
0000
0001
0100
0000
1002
0000
0000
0003
2001
0000
0000
3001
,  // measure 31
0000
0000
0010
0000
0000
0100
0010
0000
0010
0001
0000
0001
1000
0000
0001
1000
,  // measure 32
0001
0000
0100
0010
0000
1000
0100
0010
0001
0010
0100
1000
0000
0000
0001
0010
,  // measure 33
0100
0010
0001
0010
0000
1000
0100
0000
0100
0010
0000
0010
0000
0001
0100
0010
,  // measure 34
1000
0000
0001
0000
0000
0100
0010
0000
1000
0000
0000
0000
0000
0000
0000
0000
,  // measure 35
1000
0000
0001
0010
0000
0010
0100
0000
0100
1000
0000
1000
0001
0000
0001
1000
,  // measure 36
0001
0000
0100
1000
0000
0001
0010
0100
1000
0100
0010
0001
0000
0000
1000
0100
,  // measure 37
0010
0100
1000
0100
0010
0001
0010
0100
0010
0001
0010
0100
1000
0100
0010
0001
,  // measure 38
0010
0000
0000
0000
2010
0000
0000
0000
3001
0000
0001
0100
0001
0000
0000
0000
,  // measure 39
1010
0000
0000
0000
0000
0000
0010
0001
0010
0001
0000
0000
0100
0000
0000
0000
,  // measure 40
0000
0000
1000
0000
0000
0000
0000
0000
0001
0000
1000
0100
1000
0000
0000
0000
,  // measure 41
0000
0100
0010
0001
0000
1000
0000
0010
,  // measure 42
0000
0000
0000
0000
,  // measure 43
1000
0100
0000
0010
0000
0000
0100
0000
,  // measure 44
0000
0000
0000
0000
0000
0001
0000
0000
,  // measure 45
0100
0000
0000
0010
0000
1000
0000
0010
,  // measure 46
0100
0000
1000
0100
0010
0001
0010
0100
1000
0100
0010
0001
0010
0100
1000
0100
,  // measure 47
0010
0000
0000
0100
0000
0010
0001
0000
,  // measure 48
0000
1000
0100
0001
0010
1000
0001
0100
,  // measure 49
0010
0000
1000
0000
0000
0000
0001
0000
0000
0000
0000
0000
1000
0100
0010
0001
,  // measure 50
0010
0100
0010
0001
0010
0100
0010
0001
0010
0100
1000
0100
0010
0000
0000
0000
,  // measure 51
0001
0010
0100
1000
0100
0010
0001
0010
0100
0010
0001
0010
0100
0000
1000
0000
,  // measure 52
0001
0000
0000
0100
0000
0000
0010
0000
0000
1000
0000
0000
0001
0000
0100
0000
,  // measure 53
0100
0010
0100
0010
0100
0010
0100
0010
0100
0010
0001
0010
0100
1000
0100
0010
,  // measure 54
0001
0010
0100
1000
0100
0010
0100
1000
0100
0010
0100
1000
0100
0000
0000
0000
,  // measure 55
0001
0000
1000
0100
1000
0000
0001
0010
0000
0010
0100
0000
1000
0000
0010
0000
,  // measure 56
0100
0000
0010
0000
0001
0000
1000
0100
0000
0100
0010
0000
0001
0000
1000
0000
,  // measure 57
0001
0000
0100
0000
0010
0000
1000
0001
0000
0001
0100
0000
0010
0000
0100
0000
,  // measure 58
0001
0000
0010
0000
1000
0000
0001
0100
0000
0100
0010
0000
1000
0000
0100
0000
,  // measure 59
1000
0000
0001
0010
0001
0000
1000
0100
0000
0100
0010
0000
0010
0000
0001
0000
,  // measure 60
1000
0000
0100
0000
0010
0000
1000
0001
0000
0001
0100
0000
0100
0000
0010
0000
,  // measure 61
1000
0000
0001
0000
0100
0000
0010
0100
0000
0100
0001
0000
1000
0000
0010
0000
,  // measure 62
0100
0000
0001
0000
0010
0000
1000
0100
0000
0100
0010
0000
0002
0000
0000
0000
,  // measure 63
1003
0000
0100
0000
0001
0010
0000
0010
0100
0010
0100
0000
1000
0000
0100
0000
,  // measure 64
0010
0000
0100
0000
1000
0000
0001
1000
0000
1000
0001
0000
1000
0000
0100
0000
,  // measure 65
0001
0000
0100
0000
1000
0000
0100
0010
0000
0010
0100
0000
0001
0000
0010
0000
,  // measure 66
1000
0000
0010
0000
0001
0000
0100
0001
0000
0001
0100
0000
0010
0000
1000
0000
,  // measure 67
0010
0000
0100
0001
0100
0000
0010
1000
0000
0001
0100
0000
0010
0000
1000
0000
,  // measure 68
0001
0000
0100
0000
1000
0000
0001
0100
0000
0010
1000
0000
0100
0000
0010
0000
,  // measure 69
0001
0000
1000
0000
0010
0000
0100
0001
0000
1000
0010
0000
0100
0000
0001
0000
,  // measure 70
0010
0000
0000
0000
1002
0000
0000
0000
1003
0100
0010
0100
2000
0000
0000
3000
,  // measure 71
0001
0010
0100
0010
0001
0000
1000
0000
0000
0000
0100
0000
0010
0000
1000
0000
,  // measure 72
0001
0000
1000
0100
0000
0000
0010
0000
0001
0000
0000
0000
0010
0000
0001
0000
,  // measure 73
1000
0100
0000
0010
0100
0000
0001
1000
,  // measure 74
0000
0000
0001
0010
0100
1000
0100
0010
0001
0010
0100
0010
0001
0010
0100
1000
,  // measure 75
0100
0010
0100
1000
0001
0010
0100
0010
,  // measure 76
0000
0000
0000
0000
0010
0000
0000
1000
0010
0000
0000
0000
0100
0000
0000
0000
,  // measure 77
0001
0000
1000
0100
1000
0000
0100
0000
0001
0010
0001
0000
1000
0000
0100
0000
,  // measure 78
1000
0100
0010
0001
0010
0100
1000
0100
0010
0100
1000
0100
0010
0000
0000
0000
,  // measure 79
0010
0000
0100
0010
0100
0000
0001
0000
0000
1000
0000
0000
0010
0000
0100
0000
,  // measure 80
0010
0000
0001
0000
0010
0000
1000
0001
1000
0001
0000
0000
0100
0000
0010
0000
,  // measure 81
1000
0100
0001
0100
1000
0000
0010
0000
0100
0001
0100
0000
0000
0000
0001
0000
,  // measure 82
0010
0000
0100
0000
1000
0000
0001
0010
0001
0000
1000
0100
1000
0000
0010
0100
,  // measure 83
0010
1000
0001
0100
0010
0001
1000
0100
,  // measure 84
0010
0000
0000
0000
0000
0000
0100
0000
0000
0000
0000
0000
0001
0000
0000
0000
1000
0000
0100
0000
0010
0000
0000
0001
0000
0000
0000
0000
0100
0000
0000
0000
,  // measure 85
0000
0000
0000
0010
1000
0001
0100
0010
,  // measure 86
0000
0100
0000
0000
0000
0000
0000
0000
,  // measure 87
0000
0001
0000
0000
0000
0000
0000
0000
;

//---------------dance-single - ----------------
#NOTEDATA:;
#CHARTNAME:;
#STEPSTYPE:dance-single;
#DESCRIPTION:;
#CHARTSTYLE:;
#DIFFICULTY:Medium;
#METER:8;
#RADARVALUES:0.460385,0.590744,0.000000,0.071793,0.119654,404.000000,404.000000,0.000000,9.000000,0.000000,0.000000,0.000000,0.000000,0.000000,0.460385,0.590744,0.000000,0.071793,0.119654,404.000000,404.000000,0.000000,9.000000,0.000000,0.000000,0.000000,0.000000,0.000000;
#CREDIT:;
#NOTES:
0000
0000
0000
0000
,
0000
0000
0000
0000
,
0020
0000
0000
0000
,
0000
0000
0030
1000
,
0100
0001
0100
1000
0010
0100
0001
0100
,
0010
1000
0100
0010
0001
0100
1000
0100
,
0001
0000
0000
0000
0200
0000
0000
0000
0301
0000
1000
0000
0020
0000
0000
0030
,
0100
0000
0000
0010
0000
0000
0001
0000
,
0100
0000
0000
0010
0000
0100
0000
0001
,
0000
0000
0000
1000
0000
0000
0000
0000
,
0100
0000
0000
0000
,
0010
0100
0010
1000
,
0000
0100
0100
0000
0001
0000
1000
0000
,
0000
0000
0000
0000
,
0100
1000
0100
0001
0100
0000
0010
0000
,
0010
0000
0100
0100
0000
0000
1000
0000
,
0000
0100
0000
0010
1000
0001
0000
1000
,
0000
0000
0000
0100
0000
0000
0000
0000
,
0000
0000
0000
0000
,
0100
0100
0001
1000
,
1000
1000
0010
0001
,
0010
0010
1000
0001
,
0010
1000
0010
1000
0010
1000
0100
0000
,
0100
0000
0010
0000
0000
0100
0000
0000
0001
0000
0000
0100
0000
0000
0001
0000
,
0100
0010
0000
1000
1000
0010
0010
0100
,
0100
0000
1000
0000
0000
0100
0000
0000
1000
0000
0000
0000
0000
0000
0001
0000
,
0100
0000
0010
0000
0000
0001
0000
0000
0100
0000
0000
0000
1000
0000
0000
0000
,
0100
0000
0000
0000
0000
0100
0000
0000
1000
0000
0000
0001
0000
0000
0100
0000
,
0100
0010
0000
1000
0010
1000
0000
0010
,
1000
0000
0010
0000
0000
0100
0000
0000
0000
0000
1000
0000
1000
0000
0010
0000
,
1000
0000
0100
0000
0000
0010
0000
0000
0020
0000
0000
0030
0200
0000
0000
0300
,
0000
0000
0001
0000
0000
1000
0000
0000
0001
0000
0000
0010
0000
0000
0010
0000
,
0010
1000
0000
1000
0010
1000
0000
0010
,
1000
0000
0010
0000
0000
0100
0000
0000
1000
0000
0000
0000
0000
0000
1000
0000
,
0100
0000
0010
0000
0000
1000
0000
0000
0100
0000
0000
0000
0000
0000
0000
0000
,
0100
0000
0010
0000
0000
0001
0000
0000
1000
0000
0000
0100
0000
0000
0010
0000
,
0010
1000
0000
0001
0100
0001
0000
0100
,
0001
0100
1000
0010
0100
0001
0010
0001
,
1000
0000
0200
0000
0300
0010
1000
0000
,
0100
0000
0000
0001
0001
0000
1000
0000
,
0000
0100
0000
0000
0010
0100
0001
0000
,
0000
1000
0000
0010
0000
0100
0000
0001
,
0000
0000
0000
0000
,
0100
1000
0000
0001
0000
0000
1000
0000
,
0000
0000
0000
0000
0000
0010
0000
0000
,
1000
0000
0000
0001
0000
0100
0000
0001
,
1000
0100
0010
0001
0100
0010
0001
0100
,
0001
0000
0000
1000
0000
0001
0010
0000
,
0000
0100
0000
0010
0000
0100
0000
1000
,
0000
0100
0000
0010
0000
0000
0100
1000
,
0010
0001
0100
0010
1000
0100
0001
0000
,
0010
1000
0001
0100
1000
0010
1000
0100
,
0010
0000
0000
0001
0000
0000
0010
1000
,
0001
0100
0010
1000
0100
0010
0001
1000
,
0010
0100
0001
0010
0100
0010
1000
0000
,
0010
0000
0001
0000
0100
0000
0010
0000
0000
0001
0000
0000
0100
0000
0000
0000
,
1000
0000
0000
0000
0010
0000
0100
0000
0000
1000
0000
0000
0010
0000
0000
0000
,
0010
0000
0000
0000
0001
0000
0100
0000
0000
0010
0000
0000
0001
0000
0000
0000
,
0010
0000
0000
0000
0100
0000
0010
0000
0000
1000
0000
0000
0100
0000
0000
0000
,
0100
0000
0010
0000
0010
0000
0100
0000
0000
1000
0000
0000
0001
0000
0000
0000
,
0100
0000
0000
0000
0001
0000
0100
0000
0000
0010
0000
0000
1000
0000
0000
0000
,
0100
0000
0000
0000
1000
0000
0001
0000
0000
1000
0000
0000
0100
0000
0000
0000
,
1000
0000
0000
0000
0001
0000
0100
0000
0000
1000
0000
0000
0020
0000
0000
0000
,
0030
1000
0010
0000
1000
1000
0100
0000
,
0001
0000
0000
0000
0100
0000
0010
0000
0000
0100
0000
0000
0100
0000
0000
0000
,
0010
0000
0000
0000
0100
0000
1000
0000
0000
0001
0000
0000
0010
0000
0000
0000
,
0100
0000
0000
0000
0010
0000
1000
0000
0000
0010
0000
0000
0001
0000
0000
0000
,
0001
0000
1000
0000
1000
0000
0001
0000
0000
0010
0000
0000
0001
0000
0000
0000
,
0010
0000
0000
0000
0100
0000
0010
0000
0000
0001
0000
0000
1000
0000
0000
0000
,
0010
0000
0000
0000
0001
0000
1000
0000
0000
0100
0000
0000
1000
0000
0000
0000
,
0001
0000
0000
0000
0020
0000
0000
0000
0130
0000
0001
0000
0200
0000
0000
0300
,
0010
1000
0010
0100
0000
0000
0001
0000
,
0010
0100
0000
0001
0000
0000
0001
0000
,
0100
0000
0000
0001
0000
0000
0010
0000
,
0000
0010
1000
0001
0100
1000
0010
1000
,
0100
0001
1000
0100
0010
0000
1000
0000
,
0000
0001
0001
1000
,
0010
0001
0100
1000
0010
0001
0100
1000
,
0100
0001
0010
0100
0001
0100
0001
0000
,
0001
0000
1000
0000
1000
0000
0010
0000
0000
0100
0000
0000
0001
0000
0000
0000
,
0001
0000
0001
0010
0100
0000
1000
0000
,
0100
0010
0100
0001
1000
0010
0000
0000
,
0001
0000
0100
0010
1000
0001
0100
0010
,
0001
0010
0001
0100
,
0001
0000
0000
1000
0000
0000
0010
0000
0100
0000
0001
0000
0000
0000
1000
0000
,
0000
0000
0000
0001
0000
0010
0000
0001
,
0000
1000
0000
0000
0000
0000
0000
0000
,
0000
0010
0000
0000
0000
0000
0000
0000
;

//---------------dance-single - ----------------
#NOTEDATA:;
#CHARTNAME:;
#STEPSTYPE:dance-single;
#DESCRIPTION:;
#CHARTSTYLE:;
#DIFFICULTY:Easy;
#METER:4;
#RADARVALUES:0.190308,0.312747,0.000000,0.000000,0.000000,167.000000,167.000000,0.000000,0.000000,0.000000,0.000000,0.000000,0.000000,0.000000,0.190308,0.312747,0.000000,0.000000,0.000000,167.000000,167.000000,0.000000,0.000000,0.000000,0.000000,0.000000,0.000000,0.000000;
#CREDIT:;
#NOTES:
0000
0000
0000
0000
,
0000
0000
0000
0000
,
0001
0000
0000
0000
,
0000
0000
0000
0100
,
1000
1000
0001
0010
,
0001
1000
0010
0100
,
0010
1000
0010
0001
,
1000
0000
0000
0010
,
1000
0000
0000
0001
0000
0000
0000
0010
,
0000
0000
0000
0100
0000
0000
0000
0000
,
1000
0000
0000
0000
,
0001
0000
0001
0000
,
0000
1000
0000
0100
,
0000
0000
0000
0000
,
1000
1000
1000
0001
,
0000
1000
0000
0100
,
0000
1000
0000
0000
0000
0010
0000
0100
,
0000
0000
0000
1000
0000
0000
0000
0000
,
0000
0000
0000
0000
,
1000
0000
0010
0000
,
0100
0000
0001
0000
,
0001
0000
0100
0000
,
0001
0001
0001
1000
,
1000
0000
0010
0000
,
1000
0000
0100
0001
,
1000
0000
0100
0000
,
1000
0000
1000
0100
,
1000
0000
0100
0000
,
1000
0000
0001
0000
,
0100
0000
0000
0100
,
0100
0000
0001
1000
,
0000
0000
0010
0000
,
0001
0000
0001
0000
,
0100
0000
0100
0000
,
1000
0000
1000
0000
,
1000
0000
0100
0000
,
0001
0000
1000
0000
,
0010
0100
1000
0001
,
0100
1000
0000
0100
,
1000
0000
0010
0100
,
0000
0000
0001
0010
,
0000
0000
0000
0000
,
0000
0000
0000
0000
,
1000
0000
0000
0100
,
0000
0000
0000
0000
,
0100
0000
0000
0000
,
0100
0001
1000
0010
,
0010
0000
0000
0001
,
0000
0000
0000
0000
,
0000
0000
0000
1000
,
0000
1000
0000
0010
,
0000
0010
0000
0100
,
0000
0000
0000
0001
,
0000
0001
0000
0010
,
0000
0010
0000
0100
,
0000
1000
0000
1000
,
0000
0001
0000
0001
,
0000
0010
0000
0010
,
0000
1000
0000
1000
,
0000
0001
0000
0010
,
0000
0010
0000
0100
,
0000
0100
0000
1000
,
0000
0010
0000
0001
,
0000
0001
0000
1000
,
0000
1000
0000
1000
,
0000
1000
0000
0001
,
0000
0001
0000
0010
,
0000
0100
0000
0010
,
0000
1000
0000
0100
,
0000
0010
0000
0100
,
0000
0001
0000
1000
,
0000
0001
0000
0010
,
0001
0000
0000
0010
,
1000
0000
0000
0001
,
0000
0100
0000
0001
,
0000
0100
0000
0100
,
0000
0010
0000
0100
,
0000
1000
0000
1000
,
0000
0001
0000
0010
,
0000
0100
0000
0010
,
0010
0000
1000
0000
,
1000
0000
0100
0000
,
0010
0000
0100
0000
,
0010
0000
0010
0000
,
0010
0000
1000
0000
,
0000
0000
0000
0000
,
0000
0000
0000
0000
,
0000
0010
0000
0000
0000
0000
0000
0000
;
