#VERSION:0.83;
#TITLE:DJ;
#SUBTITLE:;
#ARTIST:ディヴェラ;
#TITLETRANSLIT:;
#SUBTITLETRANSLIT:;
#ARTISTTRANSLIT:DIVELA;
#GENRE:;
#ORIGIN:;
#CREDIT:;
#BANNER:DJ.png;
#BACKGROUND:DJ-BG.png;
#PREVIEWVID:;
#JACKET:DJ-Jacket.png;
#CDIMAGE:;
#DISCIMAGE:;
#LYRICSPATH:;
#CDTITLE:;
#MUSIC:DJ.ogg;
#OFFSET:-1.091000;
#SAMPLESTART:57.898003;
#SAMPLELENGTH:24.000000;
#SELECTABLE:YES;
#BPMS:0.000=220.000;
#STOPS:;
#DELAYS:;
#WARPS:;
#TIMESIGNATURES:0.000=4=4;
#TICKCOUNTS:0.000=4;
#COMBOS:0.000=1;
#SPEEDS:0.000=1.000=0.000=0;
#SCROLLS:0.000=1.000;
#FAKES:;
#LABELS:0.000=Song Start;
#BGCHANGES:;
#KEYSOUNDS:;
#ATTACKS:
;

//---------------dance-single - ----------------
#NOTEDATA:;
#CHARTNAME:;
#STEPSTYPE:dance-single;
#DESCRIPTION:;
#CHARTSTYLE:;
#DIFFICULTY:Hard;
#METER:12;
#RADARVALUES:0.783674,0.819692,0.277057,0.174150,0.178108,693.000000,658.000000,35.000000,22.000000,0.000000,0.000000,0.000000,0.000000,0.000000,0.783674,0.819692,0.277057,0.174150,0.178108,693.000000,658.000000,35.000000,22.000000,0.000000,0.000000,0.000000,0.000000,0.000000;
#CREDIT:;
#NOTES:
1000
0000
0010
0000
,
0100
0010
1001
0000
,
0002
0010
0000
0010
0023
0000
0000
0000
,
0230
0001
0000
0001
0300
0000
0000
0000
,
0001
0000
0000
0000
1000
0000
0001
0010
0001
0000
1000
0000
0100
0000
0000
0000
,
0010
0000
0200
0000
0000
0000
0000
0000
0310
1000
0010
0000
0100
0000
0010
0000
,
1000
0001
0010
0100
1000
0100
1000
0001
,
0010
0001
0010
0100
1000
0001
0100
0010
,
1000
0100
1000
0001
0010
0001
0100
0010
,
0100
1000
0010
0100
0001
0010
0100
1000
,
0100
1000
0001
0010
0001
0100
0010
0100
,
0001
0100
0001
1000
0010
1000
0001
0010
,
0100
0010
0001
0010
1000
0100
0010
0100
,
1000
0010
0100
0001
0010
0001
1000
0010
,
1000
0001
0100
0001
0010
1000
0010
0100
,
0001
0010
0001
1000
0100
0010
0001
0100
,
0010
0100
1000
0100
1000
0001
0010
0001
,
0100
0010
0001
1000
0100
0010
1000
0100
,
0010
0100
1000
0100
0010
0001
0100
0010
,
0001
0010
0100
1000
0010
0100
0001
1000
,
0100
1000
0001
0010
0001
0100
0010
0100
,
0010
1000
0010
0100
0001
0010
0001
1000
,
0100
1000
0010
0100
1000
0100
1000
0010
,
0100
0001
0010
0100
0010
0100
1000
0100
,
0002
0000
0000
0000
,
0000
0000
0000
0000
,
1003
0000
0000
0000
0001
1000
0001
1000
0001
0000
0000
0000
0100
0010
0100
0010
,
0100
1010
0101
0110
,
1000
0000
1000
0010
0001
0100
0001
0000
,
1000
0100
0010
0100
0010
0000
0001
0000
,
1000
0000
0000
0000
0010
1000
0010
1000
0010
0000
0000
0000
0100
0001
0100
0001
,
0100
1010
0110
0101
,
1000
0000
0010
0100
0001
1000
0010
0000
,
0100
0010
0001
1000
0100
0000
0110
0000
,
1000
0000
0000
0000
1000
0100
0010
0100
1000
0000
0000
0000
0001
0010
0100
0010
,
0001
0101
0110
1010
,
1000
0000
0001
0100
0010
0001
1000
0000
,
0010
0100
0010
0001
0010
0000
1010
0000
,
1000
0000
0000
0000
0010
0100
0010
0100
0010
0000
0000
0000
1000
0001
1000
0001
,
1000
1010
0101
0110
,
1000
0000
0001
1000
0010
0100
0001
0000
,
1000
0100
1000
0001
0010
0000
0110
0000
,
0002
0000
0000
1003
0100
0000
0010
0000
,
0100
0010
0001
0000
1000
0000
0010
0000
,
0200
0000
0000
0301
0010
0000
0100
0000
,
0001
1000
0010
0000
1000
0100
0010
0100
,
2000
0000
0000
3001
0100
0000
0010
0000
,
1000
0100
1000
0000
0001
0000
0010
0000
,
0002
0000
0000
1003
0010
0000
0100
0000
,
0100
0000
0010
0000
1000
0000
0001
0000
0100
0000
0010
0100
0010
0000
1000
0000
,
0001
0010
0001
0100
0010
0100
1000
0010
,
0102
0000
0000
0000
,
2003
0000
3001
0100
0000
0000
0010
0000
,
1000
0100
1000
0000
1001
0000
0010
0000
,
0002
0000
0000
0103
0010
0000
0100
0000
,
0010
1000
0010
0000
1000
0100
0010
0001
,
1000
0000
0000
0000
0100
0000
1000
0100
1000
0000
0001
0010
0001
0000
0000
0000
,
0100
0000
0002
0000
0000
0000
0000
0000
1003
0100
1000
0000
0010
0000
0100
0000
,
0001
0100
0010
1000
0100
0010
0001
1000
,
0100
1000
0001
0010
0001
1000
0010
1000
,
0002
0000
0000
0103
0010
0000
1000
0000
,
0001
0100
0001
0000
1001
0000
0010
0000
,
1000
0100
0010
0100
1000
0000
0001
0000
,
0100
0010
0100
0000
0001
1000
0001
0100
,
0010
0000
1000
0010
1000
0000
0001
0000
,
0100
0000
0001
0000
0100
0000
0010
1000
0010
0000
0100
0000
0001
0000
1000
0000
,
0010
0100
0001
1000
,
0010
0000
0100
0000
1000
0000
0001
0000
1000
0000
0001
0100
0001
0000
0010
0000
,
2000
0020
0000
3000
0030
0100
0010
0001
,
1000
0100
0010
0100
0001
0000
0010
0000
,
0100
0010
1000
0001
0010
0100
1000
0001
,
0010
0001
1000
0100
1000
0001
0010
0100
,
1000
0000
0000
0000
0001
0000
1000
0100
0010
0000
0100
0000
0001
0000
0000
0000
,
0010
0000
0100
0000
0001
0000
0000
0000
1000
0100
1000
0000
0010
0000
0100
0000
,
0001
0010
0100
1000
0001
0010
0100
0010
,
0001
1000
0100
0010
0100
1000
0001
1000
,
0002
0000
0000
0103
0010
0000
1000
0000
,
0001
0100
0001
0000
1001
0000
0100
0000
,
1000
0100
1000
0001
0100
0010
1000
0100
,
0010
0000
0001
0000
0010
0000
0100
0000
1000
0000
0001
0100
0001
0000
1000
0000
,
0010
0100
0010
0001
1000
0100
0010
0100
,
0001
1000
0010
0100
0001
0000
0100
0000
,
0001
0010
0100
0001
1000
0010
0100
0001
,
1000
0000
0100
0000
1000
0000
0001
0000
0010
0000
0100
0010
0100
0000
1000
0000
,
0001
0000
0000
0000
1000
0000
0001
0010
0100
0000
0010
0000
1000
0000
0000
0000
,
2000
0000
0000
0000
,
3001
0000
0000
0000
1000
0001
1000
0001
1000
0000
0000
0000
0010
0100
0010
0100
,
0010
0101
1010
0110
,
0001
0000
0001
0100
1000
0010
1000
0000
,
0001
0010
0100
0010
0100
0000
1000
0000
,
0001
0000
0000
0000
0100
0001
0100
0001
0100
0000
0000
0000
0010
1000
0010
1000
,
0010
0101
0110
1010
,
0001
0000
0100
0010
1000
0001
0100
0000
,
0010
0100
1000
0001
0010
0000
0110
0000
,
0001
0000
0000
0000
0001
0010
0100
0010
0001
0000
0000
0000
1000
0100
0010
0100
,
1000
1010
0110
0101
,
0001
0000
1000
0010
0100
1000
0001
0000
,
0100
0010
0100
1000
0100
0000
0101
0000
,
0001
0000
0000
0000
0100
0010
0100
0010
0100
0000
0000
0000
0001
1000
0001
1000
,
0001
0101
1010
0110
,
0001
0000
1000
0001
0100
0010
1000
0000
,
0001
0010
0001
1000
0100
0000
0110
0000
,
0002
0000
0000
0000
,
0000
0000
0000
0000
,
0023
0000
0000
0000
,
0000
0000
0000
0000
,
0230
0000
0000
0000
,
0000
0000
0000
0000
,
2300
0000
0000
0000
,
3001
0000
0000
0000
;

//---------------dance-single - ----------------
#NOTEDATA:;
#CHARTNAME:;
#STEPSTYPE:dance-single;
#DESCRIPTION:;
#CHARTSTYLE:;
#DIFFICULTY:Medium;
#METER:8;
#RADARVALUES:0.514534,0.603983,0.118739,0.166234,0.000000,455.000000,440.000000,15.000000,21.000000,0.000000,0.000000,0.000000,0.000000,0.000000,0.514534,0.603983,0.118739,0.166234,0.000000,455.000000,440.000000,15.000000,21.000000,0.000000,0.000000,0.000000,0.000000,0.000000;
#CREDIT:;
#NOTES:
1000
0000
0010
0000
,
0100
0010
1001
0000
,
0002
0000
0023
0000
,
0230
0000
0300
0000
,
0001
1000
0001
0100
,
0010
0200
0000
0000
0310
0000
0100
0000
,
1000
0010
1000
1000
,
0010
0010
1000
0100
,
1000
1000
0010
0100
,
0100
0010
0001
0100
,
0100
0001
0001
0010
,
0001
0001
0010
0001
,
0100
0001
1000
0010
,
1000
0100
0010
1000
,
1000
0100
0010
0010
,
0001
0001
0100
0001
,
0010
1000
1000
0010
,
0100
0001
0100
1000
,
0010
1000
0010
0100
,
0001
0100
0010
0001
,
0100
0001
0001
0010
,
0010
0010
0001
0001
,
0100
0010
1000
1000
,
0100
0010
0010
1000
,
0002
0000
0000
0000
,
0000
0000
0000
0000
,
1003
0000
0001
0100
0001
0000
0100
0010
,
0100
1000
0001
0110
,
1000
1000
0001
0001
,
1000
0010
0010
0011
,
1000
0000
0010
0100
0010
0000
0100
0001
,
0100
1000
0010
1001
,
1000
0010
0001
0010
,
0100
0001
0100
0110
,
1000
0000
1000
0010
1000
0000
0001
0100
,
0001
0100
0010
1010
,
1000
0001
0010
1000
,
0010
0010
0010
1010
,
1000
0000
0010
1000
0010
0000
1000
0010
,
1000
1000
0100
0110
,
1000
0001
0010
0001
,
1000
1000
0010
0101
,
0002
0000
0103
0010
,
0100
0010
0001
0000
1000
0000
0010
0000
,
0200
0000
0310
0100
,
0001
1000
0010
0000
1000
0100
0010
0100
,
2000
0000
3100
0010
,
1000
0100
1000
0000
0001
0000
0010
0000
,
0002
0000
0013
0100
,
0100
0010
1000
0001
0100
0001
0010
1000
,
0002
0000
0000
0000
,
0000
0000
0000
0000
,
2003
0000
3100
0010
,
1000
0100
1000
0000
0001
0000
0010
0000
,
0002
0000
0013
0100
,
0010
1000
0010
0000
1000
0100
0010
0001
,
1000
0000
0100
0010
1000
0100
0001
0000
,
0100
0002
0000
0000
1003
0000
0010
0000
,
0001
0010
0100
0001
,
0100
0001
0001
0010
,
0002
0000
0013
1000
,
0001
0100
0001
0000
1000
0000
0010
0000
,
1000
0100
0010
0100
1000
0000
0001
0000
,
0100
0010
0100
0000
0001
1000
0001
0100
,
0010
1000
0100
0001
,
0100
0001
0100
0000
0010
0000
0001
0000
,
0010
0100
0001
1000
,
0010
0100
1000
0001
1000
0100
0001
0010
,
2000
0000
3000
0010
,
1000
0100
0010
0000
0001
0000
0010
0000
,
0100
0010
1000
0001
0010
0000
1000
0000
,
0010
0001
1000
0000
1000
0001
0010
0100
,
1000
0001
0010
0001
,
0010
0100
0001
0000
1000
0000
0010
0000
,
0001
0100
0001
0100
,
0001
0000
0100
0000
0100
0010
0001
1000
,
0002
0000
0013
1000
,
0001
0100
0001
0000
1000
0000
0100
0000
,
1000
0100
1000
0001
0100
0000
1000
0000
,
0010
0001
0010
0000
1000
0000
0001
0000
,
0010
0000
0010
0001
1000
0000
0010
0000
,
0001
1000
0010
0000
0001
0000
0100
0000
,
0001
0000
0100
0001
1000
0000
0100
0000
,
1000
0100
1000
0001
0010
0001
0100
1000
,
0001
1000
0100
0001
,
2000
0000
0000
0000
,
3001
0000
1000
0001
1000
0000
0010
0100
,
0010
0100
1000
0110
,
0001
0001
1000
1000
,
0001
0100
0100
1000
,
0001
0000
0100
0001
0100
0000
0010
1000
,
0010
0100
0010
1010
,
0001
0100
1000
0100
,
0010
1000
0010
0100
,
0001
0000
0001
0100
0001
0000
1000
0010
,
1000
1000
0010
0101
,
0001
1000
0100
0001
,
0100
0100
0100
0101
,
0001
0000
0100
0010
0100
0000
0001
1000
,
0001
0100
1000
0110
,
0001
1000
0100
1000
,
0001
0001
0100
0110
,
0002
0000
0000
0000
,
0000
0000
0000
0000
,
0023
0000
0000
0000
,
0000
0000
0000
0000
,
0230
0000
0000
0000
,
0000
0000
0000
0000
,
2300
0000
0000
0000
,
3001
0000
0000
0000
;

//---------------dance-single - ----------------
#NOTEDATA:;
#CHARTNAME:;
#STEPSTYPE:dance-single;
#DESCRIPTION:;
#CHARTSTYLE:;
#DIFFICULTY:Easy;
#METER:5;
#RADARVALUES:0.289496,0.388275,0.000000,0.102907,0.000000,256.000000,256.000000,0.000000,13.000000,0.000000,0.000000,0.000000,0.000000,0.000000,0.289496,0.388275,0.000000,0.102907,0.000000,256.000000,256.000000,0.000000,13.000000,0.000000,0.000000,0.000000,0.000000,0.000000;
#CREDIT:;
#NOTES:
// measure 0
1000
0000
0010
0000
,  // measure 1
0100
0000
1000
0000
,  // measure 2
0002
0000
0003
0000
,  // measure 3
0200
0000
0300
0000
,  // measure 4
0001
0000
0001
0100
,  // measure 5
0010
0000
0010
0000
,  // measure 6
1000
0000
1000
0000
,  // measure 7
0010
0000
1000
0000
,  // measure 8
1000
0000
0010
0000
,  // measure 9
0100
0000
0001
0000
,  // measure 10
0100
0000
0001
0000
,  // measure 11
0001
0000
0010
0000
,  // measure 12
0100
0000
1000
0000
,  // measure 13
1000
0000
0010
0000
,  // measure 14
1000
0000
0010
0000
,  // measure 15
0001
0000
0100
0000
,  // measure 16
0010
0000
1000
0000
,  // measure 17
0100
0000
0100
0000
,  // measure 18
0010
0000
0010
0000
,  // measure 19
0001
0000
0010
0000
,  // measure 20
0100
0000
0001
0000
,  // measure 21
0010
0000
0001
0000
,  // measure 22
0100
0000
1000
0000
,  // measure 23
0100
0000
0010
0000
,  // measure 24
0002
0000
0000
0000
,  // measure 25
0000
0000
0000
0000
,  // measure 26
1003
0001
0001
0100
,  // measure 27
0100
1000
0000
0100
,  // measure 28
0000
1000
0000
0001
,  // measure 29
0000
0010
0000
0010
,  // measure 30
1000
0010
0010
0100
,  // measure 31
0100
1000
0000
1000
,  // measure 32
0000
0010
0000
0010
,  // measure 33
0000
0001
0000
0100
,  // measure 34
1000
1000
1000
0001
,  // measure 35
0001
0100
0000
1000
,  // measure 36
0000
0001
0000
1000
,  // measure 37
0000
0010
0000
1000
,  // measure 38
1000
0010
0010
1000
,  // measure 39
1000
1000
0000
0100
,  // measure 40
0000
0001
0000
0001
,  // measure 41
0000
1000
0000
0100
,  // measure 42
0002
0000
0103
0000
,  // measure 43
0100
0001
0000
0010
,  // measure 44
0200
0000
0300
0100
,  // measure 45
0001
0010
1000
0010
,  // measure 46
2000
0000
3000
0010
,  // measure 47
1000
1000
0001
0000
,  // measure 48
0002
0000
0003
0100
,  // measure 49
0100
1000
0100
0010
,  // measure 50
0002
0000
0000
0000
,  // measure 51
0000
0000
0000
0000
,  // measure 52
1003
0000
0100
0000
,  // measure 53
1000
1000
0001
0000
,  // measure 54
0002
0000
0003
0100
,  // measure 55
0010
0010
1000
0010
,  // measure 56
1000
0100
1000
0001
,  // measure 57
0100
0000
1000
0000
,  // measure 58
0001
0000
0100
0000
,  // measure 59
0100
0000
0001
0000
,  // measure 60
0002
0000
0003
1000
,  // measure 61
0001
0001
1000
0000
,  // measure 62
1000
0010
1000
0001
,  // measure 63
0100
0100
0001
0001
,  // measure 64
0010
1000
0000
0001
,  // measure 65
0100
0100
0000
0001
,  // measure 66
0000
0100
0000
1000
,  // measure 67
0010
1000
1000
0001
,  // measure 68
2000
0000
3000
0010
,  // measure 69
1000
0010
0001
0000
,  // measure 70
0100
1000
0010
0000
,  // measure 71
0010
1000
1000
0010
,  // measure 72
1000
0001
0000
0001
,  // measure 73
0010
0001
0000
0010
,  // measure 74
0000
0100
0000
0100
,  // measure 75
0000
0100
0100
0001
,  // measure 76
0002
0000
0003
1000
,  // measure 77
0001
0001
1000
0000
,  // measure 78
1000
1000
0100
0000
,  // measure 79
0010
0010
0000
0001
,  // measure 80
0000
0010
1000
0000
,  // measure 81
0001
0010
0001
0000
,  // measure 82
0001
0100
1000
0000
,  // measure 83
1000
1000
0010
0100
,  // measure 84
0001
1000
0000
0001
,  // measure 85
2000
0000
0000
0000
,  // measure 86
3000
1000
1000
0010
,  // measure 87
0010
0100
0000
0100
,  // measure 88
0000
0001
0000
1000
,  // measure 89
0000
0100
0000
1000
,  // measure 90
0000
0100
0100
0010
,  // measure 91
0010
0000
0010
1000
,  // measure 92
0000
0100
0000
0100
,  // measure 93
0000
1000
0000
0100
,  // measure 94
0000
0001
0001
1000
,  // measure 95
1000
1000
0000
0100
,  // measure 96
0000
1000
0000
0001
,  // measure 97
0000
0100
0000
0100
,  // measure 98
0000
0100
0100
0001
,  // measure 99
0001
0100
0000
0100
,  // measure 100
0000
1000
0000
1000
,  // measure 101
0000
0001
0000
0100
,  // measure 102
0001
0000
0000
0000
,  // measure 103
0000
0000
0000
0000
,  // measure 104
0010
0000
0000
0000
,  // measure 105
0000
0000
0000
0000
,  // measure 106
0100
0000
0000
0000
,  // measure 107
0000
0000
0000
0000
,  // measure 108
1000
0000
0000
0000
,  // measure 109
0001
0000
0000
0000
;
