#TITLE:D.D.Vector Field;
#SUBTITLE:;
#ARTIST:Δ→Low;
#TITLETRANSLIT:;
#SUBTITLETRANSLIT:;
#ARTISTTRANSLIT:Delta→Low;
#GENRE:;
#CREDIT:;
#BANNER:D.D.Vector Field.png;
#BACKGROUND:D.D.Vector Field-BG.png;
#LYRICSPATH:;
#CDTITLE:;
#MUSIC:D.D.Vector Field.ogg;
#OFFSET:-1.589000;
#SAMPLESTART:71.719002;
#SAMPLELENGTH:12.000000;
#SELECTABLE:YES;
#BPMS:0.000000=154.000000
;
#STOPS:
;
#BGCHANGES:;
#KEYSOUNDS:;
#ATTACKS:;

//---------------dance-single - ----------------
#NOTES:
     dance-single:
     :
     Hard:
     11:
     0.813280,0.880107,0.076544,0.229632,1.014208,595.000000,587.000000,8.000000,24.000000,0.000000,0.000000,0.813280,0.880107,0.076544,0.229632,1.014208,595.000000,587.000000,8.000000,24.000000,0.000000,0.000000:
1000
0000
0100
0000
0001
1000
0000
1000
0000
0000
0001
0000
0100
0000
0010
0000
,
1000
0000
0001
0000
0100
0010
0000
0010
0000
0000
1000
0000
0001
0000
0100
0000
,
0010
0000
0100
0000
0001
0100
0000
0100
0000
0000
0010
0000
1000
0000
0001
0000
,
0100
0000
0000
0000
0000
0000
0000
0000
0110
0000
0000
0000
0000
0000
0000
0000
0010
0000
0000
0000
0000
0000
0000
0000
1010
0000
0000
0000
0000
0000
1000
0000
0000
0000
0000
0000
0001
0000
0000
1000
0000
0000
0001
0000
0000
1000
0000
0000
,
0001
0000
1000
0001
0000
0001
0100
0000
0010
0100
1000
0100
0010
0100
1000
0000
,
0001
0000
0100
0010
0000
0010
0100
0000
0002
0000
0023
0000
0230
0000
2300
0000
,
3001
0000
0100
0001
0000
0001
0010
0000
0100
0010
0001
0010
0100
0010
0001
0000
,
1000
0000
0010
1000
0000
1000
0001
0000
1000
0100
0010
0001
0010
0100
1000
0000
,
0010
0000
0100
0010
0000
0010
0001
0000
1000
0001
0100
0001
1000
0001
0100
0000
,
0010
0000
0001
1000
0000
1000
0001
0000
0020
0000
2030
0000
3002
0000
0203
0000
,
0310
0000
0001
0010
0000
0010
1000
0000
0001
1000
0010
1000
0001
1000
0010
0000
,
0100
0000
0000
0000
0000
0000
1000
0000
0000
0100
0000
0000
0000
0000
0000
0100
0000
0000
0010
0000
0000
0000
0000
0000
0100
0000
0000
0000
0010
0000
0000
0000
0001
0000
0000
0000
1000
0000
0000
0000
0000
0000
0100
0000
0000
0000
0000
0000
,
0010
0000
0010
0100
0000
0100
1000
0000
0001
1000
0010
1000
0001
1000
0010
0000
,
0100
0000
1000
0001
0000
0001
1000
0000
0200
0000
0302
0000
2003
0000
3020
0000
,
0130
0000
1000
0100
0000
0100
0001
0000
1000
0001
0100
0001
1000
0001
0100
0000
,
0010
0000
0001
0010
0000
0010
0100
0000
0010
1000
0001
0100
0001
1000
0010
0000
,
1000
0000
0001
1000
0000
1000
0010
0000
0100
0010
0001
0010
0100
0010
0001
0000
,
1000
0000
0010
0100
0000
0100
0010
0000
2000
0000
3200
0000
0320
0000
0032
0000
,
1003
0000
0010
1000
0000
1000
0100
0000
0010
0100
1000
0100
0010
0100
1000
0000
,
0001
0000
0000
0000
0000
0000
0100
0000
0000
0001
0000
0000
0000
0000
0000
0001
0000
0000
1000
0000
0000
0000
0000
0000
0001
0000
0000
0000
0010
0000
0000
0000
0100
0000
0000
0000
1000
0000
0000
0000
0100
0000
0000
0000
0010
0000
0000
0000
,
0001
0010
0100
1000
,
0010
0100
0001
0010
,
0100
1000
0001
0100
,
0010
1000
0001
0010
,
0001
1000
0010
0100
,
0010
1000
0001
0100
,
0010
0100
0001
1000
,
0100
0010
0001
0010
,
0100
0000
0010
0000
0100
1000
0000
1000
0000
0000
0001
0000
0010
0000
0000
0000
,
0100
0000
0010
0000
0001
1000
0000
1000
0000
0000
0010
0100
0010
0000
0000
0000
,
0001
0000
1000
0001
0000
0001
0100
0000
0100
0000
0010
0000
1000
0000
0001
0000
,
0100
0010
0001
1000
,
0010
0000
0100
0000
0001
1000
0000
0010
0000
0000
0100
0000
0010
0000
0000
0000
,
1000
0000
0001
0000
0100
0010
0000
1000
0000
0000
0001
0000
0010
0000
0000
0000
,
0100
0000
0010
0100
0000
0100
0001
0000
0001
0000
1000
0000
0010
0000
0100
0000
,
0010
0000
0001
0000
0000
0000
1000
0000
0010
0000
0000
0100
0010
0000
0000
0001
,
1000
0000
0010
1000
0000
0001
0100
0000
0010
0100
0000
0001
,
1000
0000
0100
0001
0000
0010
0100
0000
1000
0010
0000
0100
,
0001
0000
1000
0100
0000
0100
0010
0000
0010
0001
0000
0001
,
1000
0000
1000
0010
0000
0000
0100
0010
0100
0010
0000
0001
,
1000
0000
1000
0001
0000
0001
0100
0000
0100
0010
0000
0010
,
1000
0000
1000
0001
0000
0001
0010
0000
0010
0100
0000
0100
,
1000
0000
1000
0001
0000
0001
1000
0000
0100
0010
0000
0010
,
0100
0000
0001
0010
0000
1000
0100
0010
0001
1000
0010
0100
,
0001
0000
0000
0000
0101
0000
0000
0000
0010
0000
0100
0000
0010
0100
0010
0100
,
0010
0000
0001
1000
0000
1000
0010
0000
0100
0010
0001
0010
0100
0010
0001
0000
,
1000
0000
0010
0100
0000
0100
0010
0000
2000
0000
3200
0000
0320
0000
0032
0000
,
1003
0000
0010
1000
0000
1000
0100
0000
0010
0100
1000
0100
0010
0100
1000
0000
,
0001
0000
0100
0001
0000
0001
1000
0000
0001
0010
0100
1000
0100
0010
0001
0000
,
0100
0000
0010
0100
0000
0100
1000
0000
0001
1000
0010
1000
0001
1000
0010
0000
,
0100
0000
1000
0001
0000
0001
1000
0000
0200
0000
0302
0000
2003
0000
3020
0000
,
0130
0000
1000
0100
0000
0100
0001
0000
1000
0001
0100
0001
1000
0001
0100
0000
,
0010
0000
0001
0010
0000
0010
0100
0000
0010
0000
1000
0000
0001
0000
0010
0000
,
0100
0000
0100
0010
0000
0010
0001
0000
1000
0001
0100
0001
1000
0001
0100
0000
,
0001
1000
0100
1000
0001
1000
0100
0000
1000
0100
0010
0100
1000
0100
0010
0000
,
0001
0000
0001
1000
0000
1000
0010
1000
0010
1000
0010
0100
0001
0100
0001
0000
,
1000
0100
1000
0100
1000
0010
1000
0010
1000
0001
1000
0001
1000
0000
0000
0000
,
1000
0100
0010
0001
1000
0000
0001
0010
0100
1000
0001
0000
1000
0000
0001
0000
,
1001
0000
1000
0010
0000
0100
0001
0000
1000
0100
0000
0100
0010
0000
0010
0001
,
0000
0000
0001
0010
0000
0010
0100
0000
1000
0100
0010
0001
0010
0100
1000
0000
,
0001
0010
0100
1000
0100
0010
0001
0000
1000
0001
1000
0001
1000
0100
0010
0001
,
1000
0000
0010
0100
0000
0100
0001
0000
0001
1000
0000
0000
1001
0000
0001
0000
,
0011
0000
0010
0000
0110
0000
0100
0000
1000
0100
0010
0001
0010
0100
1000
0000
,
1000
0000
0001
0000
0010
0100
0000
0110
0000
0000
0000
0000
0000
0000
0000
0000
;

//---------------dance-single - ----------------
#NOTES:
     dance-single:
     :
     Medium:
     7:
     0.367685,0.424879,0.019136,0.000000,0.004784,269.000000,267.000000,2.000000,0.000000,0.000000,0.000000,0.367685,0.424879,0.019136,0.000000,0.004784,269.000000,267.000000,2.000000,0.000000,0.000000,0.000000:
0001
0000
0000
0000
0000
0000
0000
0100
,
0001
0000
0000
0000
,
0100
0000
0000
0000
,
0010
0100
1000
0001
,
1000
0010
0100
0001
,
1000
0100
1000
0010
,
1000
0100
0010
1000
,
0001
1000
0001
0100
,
0010
1000
0001
0001
,
0100
0010
1000
0001
,
0100
0010
1000
0001
,
0010
0000
0100
0000
0010
1000
0001
0100
,
0010
0010
1000
1000
,
0010
0100
0010
1000
,
0010
0100
0001
0001
,
0100
0010
0100
1000
,
0001
0100
0010
0001
,
1000
0100
0001
0010
,
0001
1000
0100
0010
,
0100
1000
1000
0001
,
1000
0100
0010
0001
,
0100
0010
1000
0100
,
0010
0001
1000
0010
,
0100
0001
1000
0100
,
1000
0001
0100
0010
,
0100
0001
1000
0010
,
0100
0010
1000
0001
,
0010
0100
1000
0100
,
0010
0000
0010
0001
0000
1000
0100
0000
,
0010
0000
1000
0010
0000
0100
0001
0000
,
1000
0001
1000
0010
0100
0010
0001
1000
,
0010
0100
1000
0001
,
0100
0000
1000
0001
0000
0010
0100
0000
,
0001
0000
0010
0100
0000
0001
1000
0000
,
0010
0100
0010
0100
1000
0001
0100
0010
,
0100
0001
0100
0010
,
1000
0001
0010
0010
,
0001
1000
0010
0100
,
1000
0010
0100
1000
,
0001
0100
0010
0100
,
0001
1000
0010
0100
,
0001
1000
0100
0010
,
0001
1000
0001
0100
,
0010
0100
0010
0001
,
1000
0000
1010
0000
0100
0010
0100
0010
,
0100
0001
0010
1000
,
0001
0100
0001
1000
,
0001
0010
0100
1000
,
0010
0100
1000
0001
,
0010
0100
1000
1000
,
0010
0100
0010
0001
,
0010
1000
0001
0010
,
0100
0010
0100
1000
,
0010
0100
0001
0100
,
0010
1000
0001
0100
,
1000
0010
0100
1000
,
0001
0010
0100
1000
,
0001
0100
0001
1000
0010
1000
0001
1000
,
0001
0100
0001
0100
,
0010
1000
0001
0100
,
1000
0010
0001
0100
,
0001
0010
1000
0001
,
0100
0010
0001
0100
,
0001
0000
0000
0000
0100
0000
0000
0110
0000
0000
0000
0000
0000
0000
0000
0000
;

//---------------dance-single - ----------------
#NOTES:
     dance-single:
     :
     Easy:
     3:
     0.172224,0.182091,0.009568,0.000000,0.004784,126.000000,125.000000,1.000000,0.000000,0.000000,0.000000,0.172224,0.182091,0.009568,0.000000,0.004784,126.000000,125.000000,1.000000,0.000000,0.000000,0.000000:
// measure 0
1000
0000
0000
0000
,  // measure 1
1000
0000
0000
0000
,  // measure 2
0010
0000
0000
0000
,  // measure 3
0100
0000
0001
0000
,  // measure 4
0010
0000
0100
0000
,  // measure 5
0001
0000
1000
0000
,  // measure 6
0001
0000
0100
0000
,  // measure 7
1000
0000
0010
0000
,  // measure 8
0100
0000
0001
0000
,  // measure 9
0010
0000
0100
0000
,  // measure 10
1000
0000
0100
0000
,  // measure 11
0010
0000
0100
0000
,  // measure 12
0100
0000
0001
0000
,  // measure 13
0100
0000
0010
0000
,  // measure 14
1000
0000
1000
0000
,  // measure 15
0010
0000
0010
0000
,  // measure 16
1000
0000
0100
0000
,  // measure 17
0010
0000
0001
0000
,  // measure 18
1000
0000
0010
0000
,  // measure 19
0100
0000
0001
0000
,  // measure 20
0010
0000
0100
0000
,  // measure 21
0010
0000
0001
0000
,  // measure 22
0100
0000
0001
0000
,  // measure 23
0010
0000
1000
0000
,  // measure 24
0100
0000
0010
0000
,  // measure 25
1000
0000
0100
0000
,  // measure 26
0010
0000
0001
0000
,  // measure 27
0100
0000
0001
0000
,  // measure 28
0100
0000
1000
0000
,  // measure 29
0100
0000
0010
0000
,  // measure 30
0001
0000
0010
0000
,  // measure 31
0100
0000
0001
0000
,  // measure 32
0010
0000
0100
0000
,  // measure 33
1000
0000
0100
0000
,  // measure 34
0010
0000
0001
0000
,  // measure 35
0010
0000
0100
0000
,  // measure 36
1000
0000
0010
0000
,  // measure 37
0100
0000
0001
0000
,  // measure 38
0100
0000
0010
0000
,  // measure 39
1000
0000
0100
0000
,  // measure 40
0010
0000
0001
0000
,  // measure 41
0100
0000
0010
0000
,  // measure 42
1000
0000
0001
0000
,  // measure 43
0100
0000
1000
0000
,  // measure 44
0001
0000
0010
0000
,  // measure 45
1000
0000
0100
0000
,  // measure 46
1000
0000
0100
0000
,  // measure 47
0010
0000
0100
0000
,  // measure 48
1000
0000
0001
0000
,  // measure 49
0010
0000
0100
0000
,  // measure 50
0010
0000
0001
0000
,  // measure 51
0100
0000
0010
0000
,  // measure 52
1000
0000
0001
0000
,  // measure 53
0100
0000
1000
0000
,  // measure 54
0100
0000
0001
0000
,  // measure 55
0010
0000
0010
0000
,  // measure 56
0100
0000
0100
0000
,  // measure 57
1000
0000
0100
0000
,  // measure 58
1000
0000
0010
0000
,  // measure 59
0100
0000
0001
0000
,  // measure 60
0001
0000
0100
0000
,  // measure 61
0010
0000
0001
0000
,  // measure 62
0010
0000
0100
0000
,  // measure 63
1000
0000
0000
0000
0000
0000
0000
0110
0000
0000
0000
0000
0000
0000
0000
0000
;
