#VERSION:0.83;
#TITLE:Cygnus;
#SUBTITLE:;
#ARTIST:brz;
#TITLETRANSLIT:;
#SUBTITLETRANSLIT:;
#ARTISTTRANSLIT:;
#GENRE:;
#ORIGIN:;
#CREDIT:;
#BANNER:Cygnus.png;
#BACKGROUND:Cygnus-BG.png;
#PREVIEWVID:;
#JACKET:Cygnus-Jacket.png;
#CDIMAGE:;
#DISCIMAGE:;
#LYRICSPATH:;
#CDTITLE:;
#MUSIC:Cygnus.ogg;
#OFFSET:-0.873000;
#SAMPLESTART:27.174000;
#SAMPLELENGTH:12.000000;
#SELECTABLE:YES;
#BPMS:0.000=146.000;
#STOPS:;
#DELAYS:;
#WARPS:;
#TIMESIGNATURES:0.000=4=4;
#TICKCOUNTS:0.000=4;
#COMBOS:0.000=1;
#SPEEDS:0.000=1.000=0.000=0;
#SCROLLS:0.000=1.000;
#FAKES:;
#LABELS:0.000=Song Start;
#BGCHANGES:;
#KEYSOUNDS:;
#ATTACKS:
;

//---------------dance-single - ----------------
#NOTEDATA:;
#CHARTNAME:;
#STEPSTYPE:dance-single;
#DESCRIPTION:;
#CHARTSTYLE:;
#DIFFICULTY:Hard;
#METER:11;
#RADARVALUES:0.694872,0.860588,0.380588,0.194935,0.909699,524.000000,483.000000,41.000000,21.000000,0.000000,0.000000,0.000000,0.000000,0.000000,0.694872,0.860588,0.380588,0.194935,0.909699,524.000000,483.000000,41.000000,21.000000,0.000000,0.000000,0.000000,0.000000,0.000000;
#CREDIT:;
#NOTES:
0000
0000
0000
0000
,
0000
0000
0000
0000
,
0000
0000
0000
0000
,
0000
0000
0000
0000
,
1000
0000
0010
0000
0100
0010
0000
0001
0000
1000
0010
0000
0100
0000
0010
0000
,
0001
0000
0100
0000
0010
0100
0000
1000
0000
0001
0100
0000
0010
0000
0100
0000
,
0101
0000
0000
1010
0000
0000
1001
0000
0000
0110
0000
0000
1000
0000
0001
0000
,
1000
0100
0010
0100
1000
0001
0010
0100
,
2000
0000
0000
0000
3001
0000
0010
0000
0100
0010
0000
0010
1000
0000
0001
0000
,
0100
0020
1030
0101
,
1000
0000
0100
0000
0010
0000
0000
0000
0100
0001
0000
1000
0010
0000
0100
0000
,
0001
0000
0000
0001
1000
0000
0000
1000
0001
0000
0000
0000
0202
0000
0303
0000
,
0020
0000
0000
0000
1030
0000
0100
0000
0010
1000
0000
0001
0100
0000
0010
0000
,
0100
0000
0000
0000
0002
0000
0000
0000
1003
0000
0000
0000
2020
0000
0000
3030
,
1000
0010
0001
1000
0100
0001
1000
0010
,
1000
0000
1000
0001
0000
0001
0100
0000
0100
0010
0000
0010
1000
0000
1000
0001
,
1000
0000
0010
0000
0000
0100
0000
0000
0010
0000
0000
1000
0000
0001
1000
0001
,
0000
0000
0100
0000
0000
0010
0000
0000
1000
0000
0000
0001
0000
1000
0010
1000
,
0000
0000
0010
0000
0000
1000
0000
0000
0001
0000
0000
0010
0000
0100
1000
0100
,
1000
0000
0001
0000
0000
0010
0000
0000
0100
0000
0000
1000
0000
0001
0010
0001
,
0000
0000
1000
0000
0000
0010
0000
0000
0100
0000
0001
0000
0000
0100
0001
0100
,
0000
0000
0010
0000
0000
1000
0000
0000
0001
0000
0100
0000
0000
0010
1000
0010
,
0000
0000
0010
0000
0000
1000
0000
0000
0001
0000
0000
0100
0000
0010
0100
0010
,
0100
0000
0000
0001
0000
0000
1000
0000
0010
0000
0000
0100
0000
0000
1000
0000
,
0001
0000
0100
0000
0000
0010
0000
0000
0100
0000
0000
0001
0000
1000
0001
1000
,
0000
0000
0010
0000
0000
0100
0000
0000
0001
0000
0000
1000
0000
0001
0100
0001
,
0000
0000
0100
0000
0000
0001
0000
0000
1000
0000
0000
0100
0000
0010
0001
0010
,
0001
0000
1000
0000
0000
0100
0000
0000
0010
0000
0000
0001
0000
1000
0100
1000
,
0000
0000
0001
0000
0000
0100
0000
0000
0010
0000
1000
0000
0000
0010
1000
0010
,
0000
0000
0100
0000
0000
0001
0000
0000
1000
0000
0010
0000
0000
0100
0001
0100
,
0000
0000
0100
0000
0000
0001
0000
0000
1000
0000
0000
0010
0000
0100
0010
0100
,
0010
0000
0000
1000
0000
0000
0001
0000
0100
0000
0000
0010
0000
0000
1000
0000
,
1001
0000
1001
0000
1000
0100
0010
0000
0100
0010
0001
0010
0000
0100
1000
0000
,
1010
0000
1010
0000
0010
0001
0010
0000
0100
1000
0100
0010
0000
0100
0001
0000
,
0101
0000
0101
0000
0101
0000
0100
1000
0100
0010
0001
0010
0000
0100
0010
0000
,
1010
0000
0000
0101
0000
0000
0110
0000
0110
0000
0000
1010
0000
0000
0101
0000
,
0101
0000
0000
0011
0000
0000
1100
0000
0000
0110
0000
0000
1010
0000
1100
0000
,
1010
0000
0000
0101
0000
0000
1001
0000
0000
1010
0000
0000
0101
0000
0011
0000
,
0202
0000
0303
0000
1000
0100
0001
0100
,
1000
0010
0000
0010
0100
0000
0001
0000
0100
0001
0000
0000
0002
0000
0000
0000
,
1003
0000
1000
0100
0000
0010
0000
0100
0000
0001
0000
1000
0000
0001
0000
0000
,
1000
0000
0001
0100
0000
0010
0000
0100
0000
1000
0000
0001
0000
0100
0000
0000
,
0010
0100
1000
0100
0010
0000
0100
0010
0001
0010
0100
0000
1000
0100
0010
0001
,
0010
0100
1000
0000
0001
0010
0100
1000
0100
0010
0001
0000
1000
0001
1000
0001
,
1000
0000
0001
0010
0000
0100
0000
0010
0000
1000
0000
0001
0000
1000
0000
0000
,
0001
0000
1000
0010
0000
0100
0000
0010
0000
0001
0000
1000
0000
0010
0000
0000
,
0100
0010
0001
0010
0100
0000
0010
0100
1000
0100
0010
0000
0001
0010
0100
1000
,
0100
0000
0000
0110
0000
0000
1010
0000
0000
0101
0000
0000
0001
0000
1000
0000
,
0010
0000
0000
0000
0100
0010
0001
1000
0000
0100
0000
0010
0000
0100
0000
0000
,
0110
0000
0110
0000
0001
0010
0100
1000
0000
0010
0000
0100
0000
1000
0000
0000
,
0001
1000
0010
1000
0001
0000
1000
0001
0100
0001
1000
0000
0010
1000
0001
0100
,
0001
1000
0010
0000
0100
0001
1000
0010
1000
0001
0100
0000
0010
0100
0010
0100
,
0010
0000
0010
1000
0000
0001
0000
1000
0000
0100
0000
0010
0000
0100
0000
0000
,
0010
0000
0100
1000
0000
0001
0000
1000
0000
0010
0000
0100
0000
1000
0000
0000
,
0001
1000
0010
1000
0001
0000
1000
0001
0100
0001
1000
0000
0010
1000
0001
0100
,
0002
0200
0000
0303
,
0200
0000
0000
0000
0310
0000
1000
0000
0001
1000
0000
1000
0100
0000
0010
0000
,
0001
2000
3100
0011
,
0100
0000
0001
0000
1000
0000
0000
0000
0001
0010
0000
0100
1000
0000
0001
0000
,
0010
0000
0000
0010
0100
0000
0000
0100
0010
0000
0000
0000
0022
0000
0033
0000
,
2000
0000
0000
0000
3100
0000
0001
0000
1000
0100
0000
0010
0001
0000
1000
0000
,
0001
0000
0000
0000
0020
0000
0000
0000
0130
0000
0000
0000
2200
0000
0000
3300
,
0100
1000
0010
0100
0001
0010
0100
1000
,
0100
0000
0100
0010
0000
0010
0001
0000
0001
1000
0100
1000
0100
0010
0001
0010
;

//---------------dance-single - ----------------
#NOTEDATA:;
#CHARTNAME:;
#STEPSTYPE:dance-single;
#DESCRIPTION:;
#CHARTSTYLE:;
#DIFFICULTY:Medium;
#METER:7;
#RADARVALUES:0.401806,0.592929,0.157805,0.204218,0.046413,303.000000,286.000000,17.000000,22.000000,0.000000,0.000000,0.000000,0.000000,0.000000,0.401806,0.592929,0.157805,0.204218,0.046413,303.000000,286.000000,17.000000,22.000000,0.000000,0.000000,0.000000,0.000000,0.000000;
#CREDIT:;
#NOTES:
0000
0000
0000
0000
,
0000
0000
0000
0000
,
0000
0000
0000
0000
,
0000
0000
0000
0000
,
0100
0010
1000
0010
,
0001
1000
0100
1000
,
0001
0000
0000
0100
0000
0000
0001
0000
0000
1010
0000
0000
0100
0000
0001
0000
,
0100
1000
0100
1000
,
0200
0000
0301
1000
0010
0000
0100
0000
,
0010
2000
3200
0302
,
0103
0010
1000
0000
0010
0000
1000
0000
,
0001
0100
0001
0020
,
2030
0000
3100
0010
1000
0000
0010
0000
,
0010
0000
0000
0000
0002
0000
0000
0000
0203
0000
0000
0000
2300
0000
0000
3000
,
0100
0010
0001
0000
0010
0000
0100
0000
,
0100
0010
1000
0010
1000
0001
0100
1000
,
0100
0010
1000
0100
,
0001
1000
0100
0001
,
0010
1000
0001
1000
,
0100
0001
0010
0100
,
1000
0001
0010
1000
,
0100
0001
0001
0010
,
1000
0100
0001
0010
,
0010
0001
1000
0010
,
0001
0100
0010
1000
,
0001
0010
0001
0100
,
1000
0010
0100
0001
,
0001
0010
1000
0100
,
0010
0001
1000
0010
,
0100
1000
0100
0001
,
0010
1000
0100
0010
,
1000
0000
0010
0000
0010
0000
0001
0100
,
0001
0101
0100
1000
0010
0001
1000
0100
,
1000
1100
0010
1000
0010
0100
1000
0001
,
0011
0010
0011
0010
0100
0001
1000
0010
,
0100
0000
0000
0011
0000
0000
1000
0000
1010
0000
0000
0100
0000
0000
0001
0000
,
0011
0000
0000
1000
0000
0000
0110
0000
0000
1000
0000
0000
1100
0000
0100
0000
,
1100
0000
0000
0001
0000
0000
0101
0000
0000
0100
0000
0000
0011
0000
0001
0000
,
0022
0000
0033
0000
0100
0010
0001
0010
,
0100
1000
0010
0001
0010
1000
0002
0000
,
0103
0010
1000
0000
0010
0000
0001
0000
,
0100
0010
0001
0010
,
1000
1000
0001
0100
,
1000
0001
0010
0100
,
0100
0010
0100
1000
,
0001
0010
0100
1000
,
0010
0010
0100
0001
,
0010
0000
0000
1010
0000
0000
1000
0000
0000
0011
0000
0000
0001
0000
0100
0000
,
1000
0000
0010
0001
0100
0000
1000
0000
,
1000
1010
0010
0001
1000
0000
0100
0000
,
0001
0001
0010
1000
,
0001
0010
0100
1000
,
1000
0001
0100
1000
,
1000
0100
0001
0010
,
0001
0001
0010
1000
,
0002
0000
0000
0003
,
0020
0000
1030
0100
0001
0000
0010
0000
,
0001
0200
0320
2030
,
3010
0001
0100
0000
0001
0000
0100
0000
,
1000
0010
1000
0002
,
0203
0000
0310
0001
0100
0000
0001
0000
,
0001
2000
3020
0032
,
0013
0100
1000
0010
0001
1000
0010
0000
,
0010
1000
0010
0100
0001
0100
0010
0001
;

//---------------dance-single - ----------------
#NOTEDATA:;
#CHARTNAME:;
#STEPSTYPE:dance-single;
#DESCRIPTION:;
#CHARTSTYLE:;
#DIFFICULTY:Easy;
#METER:4;
#RADARVALUES:0.188305,0.384649,0.000000,0.092826,0.046413,142.000000,142.000000,0.000000,10.000000,0.000000,0.000000,0.000000,0.000000,0.000000,0.188305,0.384649,0.000000,0.092826,0.046413,142.000000,142.000000,0.000000,10.000000,0.000000,0.000000,0.000000,0.000000,0.000000;
#CREDIT:;
#NOTES:
// measure 0
0000
0000
0000
0000
,  // measure 1
0000
0000
0000
0000
,  // measure 2
0000
0000
0000
0000
,  // measure 3
0000
0000
0000
0000
,  // measure 4
0010
0000
0100
0000
,  // measure 5
0001
0000
0010
0000
,  // measure 6
0001
0000
0000
0100
0000
0000
0001
0000
0000
1000
0000
0000
0010
0000
0000
0000
,  // measure 7
0010
0000
0010
0000
,  // measure 8
0010
0000
1000
0000
,  // measure 9
1000
0100
0002
0000
,  // measure 10
0013
0000
1000
0000
,  // measure 11
0001
0000
0001
2000
,  // measure 12
3100
0000
0100
0000
,  // measure 13
1000
0000
0000
0000
0000
0000
0000
0000
0200
0000
0000
0000
0000
0000
0000
0300
,  // measure 14
0010
0000
1000
0000
,  // measure 15
0010
0000
0100
0000
,  // measure 16
0010
0000
0100
0000
,  // measure 17
0001
0000
0010
0000
,  // measure 18
1000
0000
0001
0000
,  // measure 19
0010
0000
1000
0000
,  // measure 20
0100
0000
1000
0000
,  // measure 21
0010
0000
0001
0000
,  // measure 22
0100
0000
0001
0000
,  // measure 23
1000
0000
0100
0000
,  // measure 24
0001
0000
1000
0000
,  // measure 25
0001
0000
0001
0000
,  // measure 26
0100
0000
0010
0000
,  // measure 27
0001
0000
0100
0000
,  // measure 28
1000
0000
0100
0000
,  // measure 29
0010
0000
0010
0000
,  // measure 30
1000
0000
0010
0000
,  // measure 31
0100
0000
1000
0000
,  // measure 32
0001
0000
1000
0000
,  // measure 33
0100
0000
1000
0000
,  // measure 34
0001
0000
0010
0000
,  // measure 35
0010
0000
0000
0001
0000
0000
0100
0000
1000
0000
0000
0010
0000
0000
0001
0000
,  // measure 36
1000
0000
0000
0100
0000
0000
1000
0000
0000
0100
0000
0000
0100
0000
0010
0000
,  // measure 37
0100
0000
0000
0001
0000
0000
0010
0000
0000
0010
0000
0000
0001
0000
1000
0000
,  // measure 38
0002
0003
0000
0001
,  // measure 39
0000
1000
0000
0002
,  // measure 40
0003
0100
0000
0001
,  // measure 41
0000
1000
0000
1000
,  // measure 42
0000
0100
0000
0010
,  // measure 43
0000
0001
0000
0010
,  // measure 44
0000
1000
0000
0100
,  // measure 45
0000
1000
0000
0100
,  // measure 46
0000
1000
0000
0001
,  // measure 47
1000
0000
0000
0100
0000
0000
0010
0000
0000
1000
0000
0000
0001
0000
0010
0000
,  // measure 48
0100
0000
0010
0000
,  // measure 49
0100
0010
1000
0000
0000
0000
0010
0000
,  // measure 50
0000
0001
0000
0100
,  // measure 51
0000
1000
0000
0100
,  // measure 52
0000
0001
0000
0100
,  // measure 53
0000
0010
0000
1000
,  // measure 54
0000
0001
0000
0100
,  // measure 55
0002
0000
0000
0003
,  // measure 56
2000
3000
0001
0000
,  // measure 57
0001
0000
0200
0000
,  // measure 58
0300
0000
0001
0000
,  // measure 59
0100
0000
0100
0002
,  // measure 60
0013
0000
0010
0000
,  // measure 61
0010
0000
0002
0000
,  // measure 62
0003
1000
0000
0100
,  // measure 63
0000
1000
0000
1000
;
