#VERSION:0.83;
#TITLE:Critical Lines;
#SUBTITLE:;
#ARTIST:NDEX;
#TITLETRANSLIT:;
#SUBTITLETRANSLIT:;
#ARTISTTRANSLIT:;
#GENRE:;
#ORIGIN:;
#CREDIT:;
#BANNER:Critical Lines.png;
#BACKGROUND:Critical Lines-BG.png;
#PREVIEWVID:;
#JACKET:Critical Lines-Jacket.png;
#CDIMAGE:;
#DISCIMAGE:;
#LYRICSPATH:;
#CDTITLE:;
#MUSIC:Critical Lines.ogg;
#OFFSET:-1.395002;
#SAMPLESTART:39.875000;
#SAMPLELENGTH:24.000000;
#SELECTABLE:YES;
#BPMS:0.000=150.000;
#STOPS:;
#DELAYS:;
#WARPS:;
#TIMESIGNATURES:0.000=4=4;
#TICKCOUNTS:0.000=4;
#COMBOS:0.000=1;
#SPEEDS:0.000=1.000=0.000=0;
#SCROLLS:0.000=1.000;
#FAKES:;
#LABELS:0.000=Song Start;
#BGCHANGES:0.000=Critical Lines.avi=1.000=1=0=1===CrossFade==,
99999=-nosongbg-=1.000=0=0=0 // don't automatically add -songbackground-
;
#KEYSOUNDS:;
#ATTACKS:
;

//---------------dance-single - ----------------
#NOTEDATA:;
#CHARTNAME:;
#STEPSTYPE:dance-single;
#DESCRIPTION:;
#CHARTSTYLE:;
#DIFFICULTY:Hard;
#METER:11;
#RADARVALUES:0.656169,0.598148,0.036923,0.000000,0.191998,622.000000,617.000000,5.000000,0.000000,0.000000,0.000000,0.000000,0.000000,0.000000,0.656169,0.598148,0.036923,0.000000,0.191998,622.000000,617.000000,5.000000,0.000000,0.000000,0.000000,0.000000,0.000000,0.000000;
#CREDIT:;
#NOTES:
// measure 0
1000
0100
1000
0001
0010
0001
1000
0010
,  // measure 1
0100
0001
1000
0100
1000
0001
0100
0010
,  // measure 2
1000
0001
0100
0001
0010
0001
1000
0100
,  // measure 3
1000
0010
0100
0001
0010
0001
1000
0100
,  // measure 4
0010
0001
1000
0100
1000
0100
0010
0001
,  // measure 5
0010
0001
1000
0010
0100
0010
1000
0001
,  // measure 6
0100
0010
0100
0001
1000
0100
1000
0001
,  // measure 7
0010
0000
0001
0000
0100
0000
0010
0000
0001
0000
1000
0000
0100
0010
0100
0010
,  // measure 8
0100
0001
1000
0001
0100
0010
1000
0001
,  // measure 9
0100
1000
0001
0010
0001
1000
0010
0100
,  // measure 10
0001
0010
0001
0010
0001
0100
1000
0100
,  // measure 11
0010
0100
0010
0001
1000
0100
1000
0001
,  // measure 12
0010
0100
0010
0001
1000
0100
0010
0100
,  // measure 13
1000
0001
0100
0010
1000
0100
0010
0001
,  // measure 14
1000
0100
1000
0001
0010
0001
0100
0010
,  // measure 15
0100
1000
0010
1000
0001
0100
0010
1000
,  // measure 16
0100
0001
0010
0100
0010
1000
0001
0100
,  // measure 17
0010
1000
0100
1000
0001
0100
0001
0010
,  // measure 18
0100
0010
0100
1000
0001
0010
0001
0100
,  // measure 19
0010
0100
1000
0100
1000
0001
0010
0100
,  // measure 20
1000
0100
0010
0001
0100
0010
1000
0100
,  // measure 21
1000
0001
0010
0001
1000
0010
0100
0010
,  // measure 22
1000
0001
0100
0010
0100
0001
1000
0010
,  // measure 23
0100
0001
0010
0001
0100
0010
1000
0100
,  // measure 24
1000
0000
0100
0000
0000
0010
0000
0000
0001
0000
0000
1000
0000
0000
0100
0000
,  // measure 25
0000
0010
0000
0000
1000
0000
0000
0001
0000
0000
0100
0000
0000
0010
0000
0010
,  // measure 26
0100
0000
0001
0000
0000
1000
0000
0000
0010
0000
0000
0100
0000
0000
0001
0000
,  // measure 27
0000
1000
0000
0000
0100
0000
0000
0010
0000
0000
0001
0000
0000
1000
0000
1000
,  // measure 28
0010
0000
1000
0000
0000
0001
0000
0000
0100
0000
0000
0010
0000
0000
1000
0000
,  // measure 29
0000
0001
0000
0000
0010
0000
0000
0100
0000
0000
1000
0000
0000
0001
0000
0010
,  // measure 30
0001
0000
0010
0000
0000
0100
0000
0000
1000
0000
0000
0001
0000
0000
0010
0000
,  // measure 31
0000
0100
0000
0000
0001
0000
0000
1000
0000
0000
0010
0000
0000
0100
0000
0100
,  // measure 32
0001
0000
0010
0000
0000
0100
0000
0000
1000
0000
0000
0001
0000
0000
0010
0000
,  // measure 33
0000
0100
0000
0000
0001
0000
0000
1000
0000
0000
0010
0000
0000
0100
0000
0100
,  // measure 34
0010
0000
1000
0000
0000
0001
0000
0000
0100
0000
0000
0010
0000
0000
1000
0000
,  // measure 35
0000
0001
0000
0000
0010
0000
0000
0100
0000
0000
1000
0000
0000
0001
0000
0001
,  // measure 36
0100
0000
0001
0000
0000
1000
0000
0000
0010
0000
0000
0100
0000
0000
0001
0000
,  // measure 37
0000
1000
0000
0000
0100
0000
0000
0010
0000
0000
0001
0000
0000
1000
0000
0100
,  // measure 38
1000
0000
0100
0000
0000
0010
0000
0000
0001
0000
0000
1000
0000
0000
0100
0000
,  // measure 39
0000
0010
0000
0000
1000
0000
0000
0001
0000
0000
0100
0000
0000
0010
0000
0010
,  // measure 40
0100
0000
0000
0101
0000
0000
1010
0000
0000
0110
0000
0000
1001
0000
1001
0000
,  // measure 41
1000
0100
0010
0100
0010
0001
1000
0010
,  // measure 42
0100
0001
0010
0001
1000
0100
1000
0010
,  // measure 43
0100
0010
0001
0010
0100
1000
0001
0100
,  // measure 44
0010
0100
1000
0001
0010
0001
1000
0100
,  // measure 45
1000
0010
0100
0010
0001
1000
0010
0100
,  // measure 46
0001
1000
0010
1000
0001
0100
0001
1000
,  // measure 47
0010
0001
0010
1000
0001
0100
1000
0100
,  // measure 48
0001
0010
0001
1000
0010
0100
0001
0010
,  // measure 49
0100
1000
0010
0001
0100
0010
1000
0100
,  // measure 50
1000
0001
0010
0001
0100
0010
0100
1000
,  // measure 51
0100
1000
0001
0010
0100
0010
0100
1000
,  // measure 52
0100
1000
0001
0010
0100
1000
0010
0100
,  // measure 53
0001
1000
0100
0010
0001
0100
0010
1000
,  // measure 54
0100
1000
0001
0100
0001
0010
1000
0010
,  // measure 55
0001
0010
0001
0010
0100
0010
0100
1000
,  // measure 56
0001
0100
0010
1000
0100
1000
0001
0010
,  // measure 57
0001
0100
0010
0100
1000
0100
0010
0001
,  // measure 58
1000
0010
0100
0010
0001
1000
0100
1000
,  // measure 59
0001
0010
0001
0100
0010
0100
1000
0001
,  // measure 60
0100
0010
1000
0001
0100
0001
1000
0010
,  // measure 61
1000
0001
0100
1000
0100
0001
1000
0010
,  // measure 62
0001
0010
1000
0100
1000
0001
0100
0010
,  // measure 63
1000
0100
0010
0001
0100
1000
0010
0100
,  // measure 64
0001
0010
0001
1000
0100
1000
0010
0100
,  // measure 65
0010
0001
0010
0001
1000
0100
0010
0100
,  // measure 66
0010
0001
0010
0001
1000
0100
0010
0001
,  // measure 67
0100
0010
1000
0001
0010
0100
1000
0010
,  // measure 68
0100
0001
0010
0001
1000
0010
1000
0100
,  // measure 69
0001
0100
1000
0010
0100
0001
0010
0100
,  // measure 70
1000
0010
0100
0001
0010
0001
1000
0100
,  // measure 71
1000
0010
0100
0001
0010
0001
1000
0010
,  // measure 72
0100
0001
0010
0100
1000
0010
0100
0010
,  // measure 73
0001
1000
0100
0010
0100
1000
0001
0010
,  // measure 74
0001
1000
0010
1000
0010
0100
0010
1000
,  // measure 75
0001
0010
0100
0010
0100
1000
0100
0010
,  // measure 76
0001
1000
0100
0010
0100
1000
0001
0010
,  // measure 77
0100
0010
0001
0100
0010
0100
1000
0001
,  // measure 78
0100
0010
1000
0100
1000
0001
0010
0001
,  // measure 79
0100
0010
0100
0010
1000
0001
1000
0001
,  // measure 80
0010
0100
0010
0001
1000
0100
0010
0100
,  // measure 81
1000
0000
0000
0000
;

//---------------dance-single - ----------------
#NOTEDATA:;
#CHARTNAME:;
#STEPSTYPE:dance-single;
#DESCRIPTION:;
#CHARTSTYLE:;
#DIFFICULTY:Medium;
#METER:7;
#RADARVALUES:0.377667,0.388796,0.000000,0.000000,0.184614,358.000000,358.000000,0.000000,0.000000,0.000000,0.000000,0.000000,0.000000,0.000000,0.377667,0.388796,0.000000,0.000000,0.184614,358.000000,358.000000,0.000000,0.000000,0.000000,0.000000,0.000000,0.000000,0.000000;
#CREDIT:;
#NOTES:
0100
0001
0010
0100
,
1000
1000
0100
0100
,
0010
1000
0010
1000
,
0010
1000
0100
0100
,
0100
0010
0100
1000
,
1000
0100
0100
1000
,
0010
0100
1000
1000
,
0010
1000
0001
1000
,
0010
0001
0100
0010
,
1000
0100
1000
1000
,
0001
0010
0001
0100
,
0100
0100
1000
1000
,
0010
1000
1000
1000
,
0100
0001
1000
0100
,
1000
0100
0100
1000
,
0001
0010
1000
1000
,
0100
0001
1000
1000
,
0010
0100
0001
0010
,
0100
1000
0100
1000
,
0100
1000
0100
0100
,
1000
0001
0010
0100
,
0010
0010
0010
0010
,
0001
0100
0100
0100
,
0010
0001
1000
0010
,
1000
0000
0000
0000
0000
0010
0000
0000
0010
0000
0000
0001
0000
0000
0010
0000
,
0000
0001
0000
0000
1000
0000
0000
1000
0000
0000
1000
0000
0000
0001
0000
0010
,
1000
0000
0100
0000
0000
1000
0000
0000
1000
0000
0000
0001
0000
0000
0100
0000
,
0000
0010
0000
0000
0010
0000
0000
1000
0000
0000
0010
0000
0000
0010
0000
0010
,
0010
0000
1000
0000
0000
0100
0000
0000
0010
0000
0000
1000
0000
0000
0001
0000
,
0000
0100
0000
0000
1000
0000
0000
0001
0000
0000
1000
0000
0000
0001
0000
1000
,
0100
0000
1000
0000
0000
0010
0000
0000
0100
0000
0000
0010
0000
0000
0100
0000
,
0000
1000
0000
0000
1000
0000
0000
1000
0000
0000
0100
0000
0000
0100
0000
1000
,
0010
0000
1000
0000
0000
1000
0000
0000
1000
0000
0000
0100
0000
0000
0010
0000
,
0000
0100
0000
0000
0001
0000
0000
0010
0000
0000
0001
0000
0000
0010
0000
1000
,
0100
0000
0010
0000
0000
1000
0000
0000
0010
0000
0000
0100
0000
0000
1000
0000
,
0000
0001
0000
0000
0100
0000
0000
0100
0000
0000
0001
0000
0000
0100
0000
1000
,
1000
0000
1000
0000
0000
0100
0000
0000
0100
0000
0000
0100
0000
0000
0001
0000
,
0000
0100
0000
0000
0010
0000
0000
0100
0000
0000
0010
0000
0000
0010
0000
0010
,
0100
0000
0100
0000
0000
0100
0000
0000
1000
0000
0000
0001
0000
0000
0001
0000
,
0000
0010
0000
0000
0001
0000
0000
1000
0000
0000
1000
0000
0000
0100
0000
0001
,
1000
0000
0000
0001
0000
0000
0100
0000
0000
1000
0000
0000
0100
0000
0100
0000
,
0010
0100
0100
0010
,
0010
0100
1000
1000
,
1000
0001
1000
0010
,
0010
1000
1000
1000
,
1000
0010
0010
0001
,
1000
1000
0001
0010
,
1000
0001
1000
1000
,
1000
0100
0100
0010
,
0010
0001
0100
0100
,
1000
0100
1000
1000
,
1000
0010
0010
1000
,
0001
0010
0100
0001
,
0001
0100
0001
1000
,
0010
0100
1000
0100
,
1000
0001
0001
0100
,
0100
1000
0010
1000
,
0100
0100
1000
0010
,
0100
0001
0010
1000
,
0100
0001
0010
0100
,
0100
0010
0100
1000
,
0001
0100
0010
0001
,
0100
0010
0100
0010
,
0100
1000
0010
0001
,
0100
0001
0100
0001
,
1000
0010
0100
0010
,
1000
0001
0100
1000
,
0010
1000
1000
1000
,
0100
0100
0010
1000
,
0100
0100
0100
0100
,
0100
0001
1000
1000
,
0100
0100
0001
0100
,
0100
0100
0100
0001
,
0010
1000
0100
0010
,
1000
1000
1000
1000
,
0100
1000
1000
1000
,
0100
1000
0001
1000
,
0001
0001
0001
1000
,
0001
0100
1000
0010
,
0100
1000
0100
1000
,
0010
0001
0001
0010
,
0010
0000
0000
0000
;

//---------------dance-single - ----------------
#NOTEDATA:;
#CHARTNAME:;
#STEPSTYPE:dance-single;
#DESCRIPTION:;
#CHARTSTYLE:;
#DIFFICULTY:Easy;
#METER:3;
#RADARVALUES:0.188833,0.209352,0.000000,0.000000,0.000000,179.000000,179.000000,0.000000,0.000000,0.000000,0.000000,0.000000,0.000000,0.000000,0.188833,0.209352,0.000000,0.000000,0.000000,179.000000,179.000000,0.000000,0.000000,0.000000,0.000000,0.000000,0.000000,0.000000;
#CREDIT:;
#NOTES:
0010
0000
0001
0000
,
1000
0000
0100
0000
,
0001
0000
0010
0000
,
0010
0000
0100
0000
,
0010
0000
0001
0000
,
0010
0000
0010
0000
,
0001
0000
0001
0000
,
0001
0000
0001
0000
,
0010
0000
0001
0000
,
0001
0000
0010
0000
,
0010
0000
0001
0000
,
0001
0000
0100
0000
,
0010
0000
1000
0000
,
0100
0000
0100
0000
,
0100
0000
0001
0000
,
0100
0000
0001
0000
,
0001
0000
0100
0000
,
0001
0000
0010
0000
,
0010
0000
1000
0000
,
0010
0000
0010
0000
,
0010
0000
0010
0000
,
0010
0000
0100
0000
,
0001
0000
1000
0000
,
0100
0000
0001
0000
,
0100
0000
0000
0000
0001
0000
0000
0001
,
0000
0000
0100
0000
0000
0100
0000
0000
,
0100
0001
0000
0000
0010
0000
0000
0100
,
0000
0000
0010
0000
0000
1000
0000
0000
,
0001
1000
0000
0000
0100
0000
0000
0010
,
0000
0000
0001
0000
0000
1000
0000
0000
,
0001
1000
0000
0000
0010
0000
0000
0001
,
0000
0000
0001
0000
0000
0001
0000
0000
,
0001
0010
0000
0000
0100
0000
0000
0010
,
0000
0000
0100
0000
0000
0001
0000
0000
,
0010
0010
0000
0000
0001
0000
0000
1000
,
0000
0000
0001
0000
0000
0010
0000
0000
,
1000
0010
0000
0000
0010
0000
0000
0001
,
0000
0000
0001
0000
0000
0001
0000
0000
,
0010
0010
0000
0000
0010
0000
0000
0100
,
0000
0000
0100
0000
0000
0001
0000
0000
,
1000
0000
0000
0010
0000
0000
0001
0000
,
1000
0000
0010
0000
,
0010
0000
0010
0000
,
1000
0000
1000
0000
,
0001
0000
0010
0000
,
0010
0000
0100
0000
,
1000
0000
0001
0000
,
0010
0000
0001
0000
,
0010
0000
0100
0000
,
0010
0000
0010
0000
,
0100
0000
0100
0000
,
0100
0000
0010
0000
,
0010
0000
1000
0000
,
0100
0000
0001
0000
,
0001
0000
1000
0000
,
1000
0000
0001
0000
,
0001
0000
0001
0000
,
0001
0000
0010
0000
,
0001
0000
0100
0000
,
1000
0000
0001
0000
,
0001
0000
0001
0000
,
0010
0000
0001
0000
,
0001
0000
0010
0000
,
0010
0000
1000
0000
,
0010
0000
0001
0000
,
1000
0000
0001
0000
,
1000
0000
0100
0000
,
0100
0000
0010
0000
,
0100
0000
0010
0000
,
0010
0000
0010
0000
,
0010
0000
0100
0000
,
0010
0000
0001
0000
,
0100
0000
0100
0000
,
0001
0000
0100
0000
,
0001
0000
0010
0000
,
0010
0000
0100
0000
,
0010
0000
0010
0000
,
0001
0000
0001
0000
,
1000
0000
0100
0000
,
0100
0000
0100
0000
,
0001
0000
0001
0000
,
0001
0000
0000
0000
;
