#VERSION:0.83;
#TITLE:Critical Crystal;
#SUBTITLE:brz_remix;
#ARTIST:brz;
#TITLETRANSLIT:;
#SUBTITLETRANSLIT:;
#ARTISTTRANSLIT:;
#GENRE:;
#ORIGIN:;
#CREDIT:;
#BANNER:Critical Crystal brz remix.png;
#BACKGROUND:Critical Crystal brz remix-BG.png;
#PREVIEWVID:;
#JACKET:Critical Crystal brz remix-Jacket.png;
#CDIMAGE:;
#DISCIMAGE:;
#LYRICSPATH:;
#CDTITLE:;
#MUSIC:Critical Crystal brz remix.ogg;
#OFFSET:-0.607000;
#SAMPLESTART:29.091002;
#SAMPLELENGTH:12.000000;
#SELECTABLE:YES;
#BPMS:0.000=135.000;
#STOPS:;
#DELAYS:;
#WARPS:;
#TIMESIGNATURES:0.000=4=4;
#TICKCOUNTS:0.000=4;
#COMBOS:0.000=1;
#SPEEDS:0.000=1.000=0.000=0;
#SCROLLS:0.000=1.000;
#FAKES:;
#LABELS:0.000=Song Start;
#BGCHANGES:;
#KEYSOUNDS:;
#ATTACKS:
;

//---------------dance-single - ----------------
#NOTEDATA:;
#CHARTNAME:;
#STEPSTYPE:dance-single;
#DESCRIPTION:;
#CHARTSTYLE:;
#DIFFICULTY:Hard;
#METER:10;
#RADARVALUES:0.681477,0.704959,0.144042,0.525330,0.826124,563.000000,546.000000,17.000000,62.000000,0.000000,0.000000,0.000000,0.000000,0.000000,0.681477,0.704959,0.144042,0.525330,0.826124,563.000000,546.000000,17.000000,62.000000,0.000000,0.000000,0.000000,0.000000,0.000000;
#CREDIT:;
#NOTES:
0001
0000
0001
1000
0000
1000
0010
0000
0100
0000
0010
0000
0100
0000
1000
0000
,
0100
0000
0100
0010
0000
0010
1000
0000
0001
0000
0100
0000
0010
0000
1000
0000
,
0010
0000
0010
0100
0000
0100
0001
0000
1000
0000
0010
0000
0100
0000
0001
0000
,
1000
0000
1000
0001
0000
0001
0100
0000
0010
0000
0100
0000
1000
0000
0001
0000
,
0010
0000
0010
0100
0000
0100
0010
0000
1000
0000
0001
0000
0100
0000
0010
0000
,
1000
0000
1000
0001
0000
0001
1000
0000
0001
0000
0010
0000
0100
0000
1000
0000
,
0002
2000
3003
0000
0020
0200
0330
0000
,
1000
0000
0010
0100
0000
0010
0000
0001
0000
1000
0100
0000
0010
0000
0002
0000
,
1003
0000
0000
0000
1000
0200
0320
0032
0003
0010
0100
1000
0000
0000
0000
0000
,
1001
0000
0000
0000
0001
0020
0230
2300
3000
0100
0010
0001
0000
0000
0000
0000
,
1010
0000
0000
0000
0010
0200
2300
3200
0300
0010
0001
0010
0000
0000
0000
0000
,
1000
0100
1000
0100
0000
0010
0001
0010
0100
1000
0100
0010
0001
0010
0100
0010
,
0001
0000
0000
0000
0001
0020
0230
2300
3000
0100
0010
0001
0000
0000
0000
0000
,
1001
0000
0000
0000
1000
0200
0320
0032
0003
0010
0100
1000
0000
0000
0000
0000
,
0101
0000
0000
0000
0100
0020
0032
0023
0030
0100
1000
0100
0000
0000
0000
0000
,
0001
0010
0001
0010
0000
0100
1000
0100
0010
0001
0010
0100
1000
0100
0010
0000
,
0110
0000
0010
0000
1000
0100
0010
0001
0000
0000
1000
0000
0100
0000
1000
0000
,
0001
0000
0000
0000
0010
0000
0000
0100
0000
0000
0010
0000
1000
0000
0001
0000
,
0100
0000
0010
0000
0100
0010
0001
1000
0000
0000
0010
0000
0100
0000
0001
0000
,
0010
0000
0000
0000
0100
0000
0000
1000
0000
0000
0001
0000
0010
0000
0100
0000
,
1000
0000
0100
0000
0010
0001
1000
0100
0000
0000
0010
0000
0100
0000
1000
0000
,
0001
0000
0000
0000
0100
0000
0000
0010
0000
0000
1000
0000
0100
0000
1000
0000
,
0001
0000
0010
0000
0001
0010
0100
1000
0002
0000
0000
0000
2000
0000
0000
0000
,
3003
0000
0100
0010
0100
1000
0100
0000
0000
0000
0010
0000
0001
0000
1000
0000
,
0100
0000
0000
0000
0010
0000
0000
0100
0000
0000
0010
0000
0000
0000
1000
0000
,
0001
0000
0000
0000
1000
0000
0000
0001
0000
0000
1000
0000
0000
0000
0100
0000
,
0010
0000
0000
0000
0001
0000
0000
1000
0000
0000
0001
0000
0000
0000
0010
0000
,
0100
0000
0000
0000
0100
0000
0000
0010
0000
0000
0100
0000
0000
0000
0001
0000
,
1000
0000
0100
0000
0010
0001
0010
0100
0000
0100
0000
0100
0010
0100
1000
0100
,
0010
0000
0100
0000
0001
0010
0100
1000
0000
1000
0000
1000
0100
0010
0100
1000
,
0100
0000
0010
0000
0001
1000
0001
0000
1001
0000
0000
0101
0000
1000
0010
1000
,
0010
0000
0000
0000
0100
0000
0000
0001
0000
0000
1000
0000
0010
0000
0000
0000
,
0101
0000
0001
0000
0001
0100
0000
0010
0000
0000
0100
0000
1000
0000
0010
0000
,
0100
0000
0010
0000
0001
1000
0000
1000
0000
0000
0010
0000
0100
0000
0010
0000
,
0011
0000
0010
0000
0010
0001
0000
1000
0000
0000
0001
0000
0100
0000
1000
0000
,
0001
0000
1000
0000
0010
0100
0000
0100
0000
0000
1000
0000
0001
0000
1000
0000
,
1100
0000
0100
0000
0100
1000
0000
0001
0000
0000
1000
0000
0010
0000
0001
0000
,
1000
0000
0001
0000
0100
0010
0000
0010
0000
0000
0001
0000
1000
0000
0001
0000
,
1010
0000
1000
0000
1000
0010
0000
0100
0000
0000
0010
0000
0001
0000
0100
0000
,
0010
0100
1000
0100
0010
0000
0100
0010
0000
0000
0001
0000
1000
0000
0010
0000
,
0100
0000
0010
0000
1000
0100
0010
0001
0000
0010
0000
0100
0010
0200
0000
0000
,
0301
0000
0010
0000
0100
1000
0100
0010
0000
0100
0000
0010
0001
0020
0000
0000
,
1030
0000
0100
0000
1000
0100
0010
0001
0000
0100
0000
0010
0100
2000
0000
0000
,
3001
0000
0000
0100
0000
0010
0100
0000
1000
0000
0001
0000
0010
0100
0010
0100
,
0010
0000
0100
0000
0001
0010
0100
1000
0000
0100
0000
0010
0100
0020
0000
0000
,
1030
0000
0100
0000
0010
0001
0010
0100
0000
0010
0000
0100
1000
0200
0000
0000
,
0301
0000
0010
0000
0001
0010
0100
1000
0000
0010
0000
0100
0020
0230
0320
0230
,
0310
0000
1000
0000
0001
0000
0001
1000
0000
1000
0100
0010
0001
0000
0100
0000
,
1000
0000
1000
0001
0000
0001
0100
0000
0010
0000
0100
0000
0010
0000
0001
0000
,
0010
0000
0010
0100
0000
0100
0001
0000
1000
0000
0010
0000
0100
0000
0001
0000
,
0100
0000
0100
0010
0000
0010
1000
0000
0001
0000
0100
0000
0010
0000
1000
0000
,
0001
0000
0001
1000
0000
1000
0010
0000
0100
0000
0010
0000
0001
0000
1000
0000
,
0100
0000
0100
0010
0000
0010
0100
0000
0001
0000
1000
0000
0010
0000
0100
0000
,
0001
0000
0001
1000
0000
1000
0001
0000
1000
0000
0100
0000
0010
0000
0001
0000
,
2000
0002
3003
0000
0200
0020
0330
0000
,
1000
0000
0100
0010
0001
0010
0100
0000
1000
0100
0000
0000
,
1001
0000
0000
1000
0020
2030
3010
0200
0302
0103
0000
0000
,
1010
0000
0000
0001
0200
0302
0103
0020
2030
3010
0000
0000
,
0101
0000
0000
0010
0200
0320
0130
0002
2003
3001
0000
0000
,
1000
0100
0010
0001
0010
0100
1000
0100
0010
0001
0000
0000
,
1001
0000
0000
0001
0200
0302
0103
0020
2030
3010
0000
0000
,
0101
0000
0000
1000
0020
2030
3010
0200
0302
0103
0000
0000
,
1010
0000
0000
0100
0020
0230
0310
2000
3002
1003
0000
0000
,
1000
0000
0010
0100
0000
0001
0010
0100
1000
0100
0000
0010
,
0001
0000
0000
0000
;

//---------------dance-single - ----------------
#NOTEDATA:;
#CHARTNAME:;
#STEPSTYPE:dance-single;
#DESCRIPTION:;
#CHARTSTYLE:;
#DIFFICULTY:Medium;
#METER:6;
#RADARVALUES:0.349817,0.433821,0.135569,0.305030,0.000000,289.000000,273.000000,16.000000,36.000000,0.000000,0.000000,0.000000,0.000000,0.000000,0.349817,0.433821,0.135569,0.305030,0.000000,289.000000,273.000000,16.000000,36.000000,0.000000,0.000000,0.000000,0.000000,0.000000;
#CREDIT:;
#NOTES:
0010
0100
1000
1000
,
1000
0001
0010
0001
,
0001
1000
0100
1000
,
0100
0010
0001
0100
,
0001
1000
0100
1000
,
0100
0001
0010
1000
,
0020
0030
0002
0003
,
0100
0001
1000
0000
0010
0000
0001
0020
,
0030
0020
2030
3000
,
0110
2000
3002
0003
,
0101
0200
0302
0003
,
0100
1000
0001
0010
1000
0001
0100
1000
,
0010
0000
0000
0000
0200
0000
0000
0000
0302
0000
0000
0003
0000
0000
0000
0000
,
0110
0002
2003
3000
,
1010
0020
2030
3000
,
0010
0001
1000
0100
0001
1000
0100
0000
,
1001
0000
0100
0001
0010
0100
1000
0100
,
0010
0000
0001
0000
1000
0001
0100
0010
,
1000
0000
1000
0010
0100
0001
1000
0010
,
0001
0000
1000
0000
0100
0010
0001
1000
,
0100
0000
0001
0100
0010
0001
1000
0100
,
0010
0000
1000
0000
0001
0100
1000
0100
,
0010
0001
0010
1000
0020
0000
0000
0000
,
0130
0100
0001
0010
,
1000
0001
1000
0001
,
0010
0100
0010
1000
,
0001
0010
0100
0010
,
1000
1000
0001
1000
,
0100
0000
0001
0000
1000
0100
0001
0100
,
0001
0000
0010
0000
0100
0001
1000
0100
,
1000
0010
0110
0100
,
0001
0000
1000
0000
0010
0100
0001
0000
,
1001
0010
0001
0100
,
1000
0010
0100
1000
,
0011
0001
0100
1000
,
0010
0001
1000
0010
,
1100
1000
0010
0001
,
0100
1000
0001
0010
,
0101
0100
1000
0010
,
0001
0100
0001
1000
0000
0010
0100
0001
,
1000
0100
0001
0002
,
0013
1000
0100
0020
,
0130
0100
0001
2000
,
3010
0001
0100
0001
,
0001
0010
0100
0020
,
0130
0001
1000
0200
,
0310
0001
1000
0002
,
0103
0010
0100
0010
,
0100
1000
0001
0001
,
0001
1000
0100
1000
,
1000
0001
0010
0001
,
0010
0100
1000
0010
,
1000
0001
0010
0001
,
0010
1000
0100
0001
,
0200
0300
2000
3000
,
0100
0001
1000
1000
,
0110
0002
2003
3000
,
0101
0020
2030
3000
,
1010
0002
2003
3000
,
0100
0010
0100
0010
,
0110
2000
3002
0003
,
1010
0002
0023
0030
,
0101
2000
3200
0300
,
0100
1000
0001
1000
,
0010
0000
0000
0000
;

//---------------dance-single - ----------------
#NOTEDATA:;
#CHARTNAME:;
#STEPSTYPE:dance-single;
#DESCRIPTION:;
#CHARTSTYLE:;
#DIFFICULTY:Easy;
#METER:3;
#RADARVALUES:0.203354,0.244024,0.000000,0.118623,0.000000,168.000000,168.000000,0.000000,14.000000,0.000000,0.000000,0.000000,0.000000,0.000000,0.203354,0.244024,0.000000,0.118623,0.000000,168.000000,168.000000,0.000000,14.000000,0.000000,0.000000,0.000000,0.000000,0.000000;
#CREDIT:;
#NOTES:
// measure 0
0010
0000
1000
0000
,  // measure 1
1000
0000
0010
0000
,  // measure 2
0001
0000
0100
0000
,  // measure 3
0100
0000
0001
0000
,  // measure 4
0001
0000
0100
0000
,  // measure 5
0100
0000
0010
0000
,  // measure 6
0010
0000
0002
0003
,  // measure 7
0100
1000
0010
0001
,  // measure 8
0010
0100
2000
3000
,  // measure 9
0010
1000
0002
0003
,  // measure 10
0001
0100
0002
0003
,  // measure 11
0100
0001
1000
0100
,  // measure 12
0010
0000
0000
0000
0100
0000
0000
0000
0002
0000
0000
0003
0000
0000
0000
0000
,  // measure 13
0010
0001
2000
3000
,  // measure 14
0010
0010
2000
3000
,  // measure 15
0010
1000
0001
0100
,  // measure 16
0001
0100
0010
1000
,  // measure 17
0010
0001
1000
0100
,  // measure 18
1000
1000
0100
1000
,  // measure 19
0001
1000
0100
0001
,  // measure 20
0100
0001
0010
1000
,  // measure 21
0010
1000
0001
1000
,  // measure 22
0010
0000
1000
0000
,  // measure 23
0100
0000
0001
0000
,  // measure 24
1000
0000
1000
0000
,  // measure 25
0010
0000
0010
0000
,  // measure 26
0001
0000
0100
0000
,  // measure 27
1000
0000
0001
0000
,  // measure 28
0100
0000
1000
0001
,  // measure 29
0001
0000
0100
1000
,  // measure 30
1000
0000
0100
0000
,  // measure 31
0001
0000
0010
0001
,  // measure 32
1000
0000
0001
0000
,  // measure 33
1000
0000
0100
0000
,  // measure 34
0010
0000
0100
0000
,  // measure 35
0010
0000
1000
0000
,  // measure 36
0100
0000
0010
0000
,  // measure 37
0100
0000
0001
0000
,  // measure 38
0100
0000
1000
0000
,  // measure 39
0001
0001
0000
0100
,  // measure 40
1000
0100
0000
0010
,  // measure 41
0010
0000
0100
0010
,  // measure 42
0000
0100
0001
1000
,  // measure 43
0000
0001
0000
0001
,  // measure 44
0000
0010
0000
0010
,  // measure 45
0100
0001
0000
0100
,  // measure 46
0010
0001
0000
0001
,  // measure 47
0100
0000
0100
0000
,  // measure 48
0100
0000
0001
0000
,  // measure 49
0001
0000
0100
0000
,  // measure 50
1000
0000
0010
0000
,  // measure 51
0010
0000
1000
0000
,  // measure 52
1000
0000
0010
0000
,  // measure 53
0010
0000
0100
0000
,  // measure 54
0100
0000
2000
3000
,  // measure 55
0000
0001
0000
1000
,  // measure 56
0010
0001
2000
3000
,  // measure 57
0100
0010
2000
3000
,  // measure 58
1000
0001
2000
3000
,  // measure 59
0100
0000
0100
0000
,  // measure 60
0010
1000
0002
0003
,  // measure 61
1000
0001
0020
0030
,  // measure 62
0001
1000
0200
0300
,  // measure 63
0100
0000
0001
0000
,  // measure 64
0010
0000
0000
0000
;
