#TITLE:Chiptune Dance;
#SUBTITLE:;
#ARTIST:Alice.;
#TITLETRANSLIT:;
#SUBTITLETRANSLIT:;
#ARTISTTRANSLIT:;
#GENRE:;
#CREDIT:;
#BANNER:Chiptune Dance.png;
#BACKGROUND:Chiptune Dance-BG.png;
#LYRICSPATH:;
#CDTITLE:;
#MUSIC:Chiptune Dance.ogg;
#OFFSET:-3.712999;
#SAMPLESTART:18.482000;
#SAMPLELENGTH:12.000000;
#SELECTABLE:YES;
#BPMS:0.000000=130.000000
;
#STOPS:
;
#BGCHANGES:;
#KEYSOUNDS:;
#ATTACKS:;

//---------------dance-single - ----------------
#NOTES:
     dance-single:
     :
     Hard:
     11:
     0.709088,0.653782,0.000000,0.049226,1.046051,605.000000,605.000000,0.000000,6.000000,0.000000,0.000000,0.709088,0.653782,0.000000,0.049226,1.046051,605.000000,605.000000,0.000000,6.000000,0.000000,0.000000:
1000
0100
0010
0000
0100
0000
0010
0001
0000
1000
0000
0001
0010
0100
1000
0000
,
0000
0001
0010
0100
0000
0010
0000
0100
1000
0000
0001
0010
0000
1000
0100
0010
,
0001
0010
0100
0000
0010
0000
0100
1000
0000
0001
0000
1000
0100
1000
0100
0010
,
0001
0010
0001
1000
0000
1000
0000
0001
0100
0000
0010
1000
0000
0001
0010
0001
,
0010
0100
1000
0000
0100
0000
1000
0100
0000
0010
0000
0100
0010
0001
0010
0000
,
0000
0100
1000
0100
0000
0010
0000
0100
0010
0000
1000
0001
0000
1000
0100
0010
,
0001
0010
0100
0000
0010
0000
0010
1000
0000
1000
0000
0001
0010
0100
1000
0100
,
0010
0001
0010
0100
0000
0010
0000
0100
1000
0000
0001
0010
0000
0000
0000
0000
,
1000
0100
0000
0000
0100
0010
0001
0010
0000
0100
1000
0000
0010
0000
0000
0000
,
0100
0000
0010
0000
0100
1000
0100
0010
0000
0100
0010
0000
0001
0000
0000
0000
,
0010
0000
0100
0000
0001
0010
0100
1000
0000
0001
0010
0000
0100
0000
0000
0000
,
1000
0000
0010
0000
1000
0100
0010
0001
0000
1000
0010
0000
0100
0000
0000
0000
,
0010
0100
0000
0000
0010
0100
1000
0001
0000
0010
1000
0000
0100
0000
0000
0000
,
0001
0000
0100
0000
0100
1000
0001
0010
0000
0100
1000
0000
0001
0000
0000
0000
,
0010
1000
0010
0000
0100
0010
0001
1000
0000
0010
0100
0000
0001
0000
0000
0000
,
1000
0000
0010
0000
0100
0010
0001
1000
0000
0100
0010
0000
0001
0000
0000
0000
,
1000
0100
1000
0000
0001
0000
0010
0001
0000
0000
1000
0000
0100
0010
0000
0010
,
0001
0000
0000
0000
1000
0001
0000
1000
0001
0000
0010
0100
0000
0100
0001
1000
,
0010
0100
0010
0000
1000
0000
1000
0001
0000
0000
0001
0000
0010
0100
0000
0100
,
1000
0000
0000
0000
0001
0100
0000
0010
1000
0000
0001
0010
0000
0100
1000
0100
,
0010
0001
0010
0000
0100
0000
0010
1000
0000
0000
1000
0000
0000
0100
0000
0010
,
0001
0000
0000
0000
1000
0001
0000
1000
0001
0000
1000
0100
0000
0010
0001
0010
,
0100
1000
0100
0000
0010
0000
0100
0001
0000
0000
0010
0000
0100
1000
0000
0001
,
0010
0000
0000
0000
0100
0001
0000
1000
0010
0100
0001
1000
0000
0000
0000
0000
,
1000
0010
0001
0000
0100
0000
0010
1000
0000
0000
0001
0000
0100
0010
0000
0010
,
1000
0000
0000
0000
0001
0010
0000
0100
1000
0000
0001
0010
0000
1000
0100
0010
,
0001
0010
0100
0000
0010
0000
0100
1000
0000
0000
0001
0000
0010
1000
0000
0001
,
0100
0000
0000
0000
0010
0100
0000
0010
0100
0000
0001
0100
0000
0010
1000
0001
,
0100
0010
1000
0000
0001
0000
1000
0010
0000
0000
0100
0000
0010
1000
0000
0001
,
0100
0000
0000
0000
0100
1000
0000
0001
0010
0000
0100
0010
0000
0001
1000
0001
,
1000
0001
1000
0000
0010
0000
0100
0010
0000
0000
1000
0000
0001
0010
0000
0100
,
1000
0000
0000
0000
0001
0100
0000
0010
1000
0100
0010
0001
0000
0000
0000
0000
,
1000
0000
0100
0000
0010
0000
0001
0010
0000
0000
0100
0000
0000
0010
0100
1000
,
0001
0000
0010
0000
0100
0010
0001
1000
0000
0010
0000
0100
0000
0000
0000
0000
,
0001
0000
0100
0000
0010
0000
1000
0001
0000
0000
0010
0000
0000
0100
0010
0100
,
0010
0000
1000
0000
0001
0010
0100
1000
0000
0001
0000
0100
0000
0000
0000
0000
,
0001
0000
0010
0000
0100
0000
1000
0100
0000
0000
0010
0000
0000
0100
0010
0001
,
1000
0000
0100
0000
0010
0100
1000
0001
0000
0100
0000
0010
0000
0000
0000
0000
,
1000
0000
0010
0000
0100
0000
0001
1000
0000
0000
0100
0000
0000
0010
0100
0010
,
0100
0000
0001
0000
1000
0100
0010
0001
0000
1000
0000
0010
0200
0000
0000
0000
,
0310
1000
0000
0000
1000
0001
0100
0001
0000
1000
0010
0000
0001
0000
0000
0000
,
1000
0000
0001
0000
1000
0010
1000
0001
0000
1000
0001
0000
0100
0000
0000
0000
,
0001
0000
1000
0000
0100
0001
1000
0010
0000
0100
0001
0000
1000
0000
0000
0000
,
0010
0000
0001
0000
0010
1000
0001
0100
0000
0010
0001
0000
1000
0000
0000
0000
,
0001
1000
0000
0000
0001
1000
0010
0100
0000
0001
0010
0000
1000
0000
0000
0000
,
0100
0000
1000
0000
1000
0010
0100
0001
0000
1000
0010
0000
0100
0000
0000
0000
,
0001
0000
0010
0000
1000
0001
0100
0010
0000
0001
1000
0000
0100
0000
0000
0000
,
0010
0000
0001
0000
1000
0001
0100
0010
0000
1000
0001
0000
0200
0320
0230
0320
,
0130
0001
0000
0000
0001
1000
0010
1000
0000
0001
0100
0000
1000
0000
0000
0000
,
0001
0000
1000
0000
0001
0100
0001
1000
0000
0001
1000
0000
0010
0000
0000
0000
,
1000
0000
0001
0000
0010
1000
0001
0100
0000
0010
1000
0000
0001
0000
0000
0000
,
0100
0000
1000
0000
0100
0001
1000
0010
0000
0100
1000
0000
0001
0000
0000
0000
,
1000
0001
0000
0000
1000
0001
0100
0010
0000
1000
0100
0000
0001
0000
0000
0000
,
0010
0000
0001
0000
0001
0100
0010
1000
0000
0001
0100
0000
0010
0000
0000
0000
,
1000
0000
0100
0000
0001
1000
0010
0100
0000
1000
0001
0000
0010
0000
0000
0000
,
0100
0000
1000
0000
0001
1000
0010
0100
0000
0001
1000
0000
0020
0000
0000
0000
,
1030
0100
0000
0000
0010
0100
0010
0001
0000
1000
0100
0000
0010
0000
0000
0000
,
0100
0000
0010
0000
0001
0010
0100
1000
0000
0001
0010
0000
0100
0000
0000
0000
,
0100
0001
0000
0000
1000
0001
1000
0010
0000
0100
0001
0000
1000
0000
0000
0000
,
0001
0000
1000
0000
0010
1000
0001
0100
0000
0010
1000
0000
0001
0000
0000
0000
,
0010
1000
0000
0000
0001
1000
0001
0100
0000
0010
1000
0000
0001
0000
0000
0000
,
1000
0000
0001
0000
0100
0001
1000
0010
0000
0100
0001
0000
1000
0000
0000
0000
,
0001
0010
0000
0000
0100
0010
0100
1000
0000
0001
0010
0000
0100
0000
0000
0000
,
0010
0000
0100
0000
1000
0100
0010
0001
0000
1000
0100
0000
0010
0000
0000
0000
;

//---------------dance-single - ----------------
#NOTES:
     dance-single:
     :
     Medium:
     6:
     0.350442,0.442392,0.000000,0.574302,0.110758,299.000000,299.000000,0.000000,70.000000,0.000000,0.000000,0.350442,0.442392,0.000000,0.574302,0.110758,299.000000,299.000000,0.000000,70.000000,0.000000,0.000000:
1000
0000
0000
0000
0010
0000
0000
0100
0000
0000
0000
0000
0000
0000
0000
0000
,
0001
0000
0000
0000
0001
0000
0000
1000
0000
0000
0000
0000
0000
0000
0000
0000
,
0010
0000
0000
0000
0010
0000
0000
1000
0000
0000
0000
0000
0000
0000
0000
0000
,
0001
0000
0000
0000
0010
0000
0000
0100
0000
0000
0000
0000
0000
0000
0000
0000
,
1000
0000
0000
0000
0100
0000
0000
0010
0000
0000
0000
0000
0001
0000
0000
0000
,
0010
0000
0000
0000
0100
0000
0000
0010
0000
0000
0000
0000
1000
0000
0000
0000
,
0001
0000
0000
0000
0100
0000
0000
0010
0000
0000
0000
0000
1000
0000
0000
0000
,
0001
0000
0000
0000
0100
0000
0000
0010
0000
0000
0000
0000
1000
0001
1000
0000
,
0020
0030
0200
0300
0020
0030
0100
0000
,
0002
0003
2000
3000
0020
0030
0100
0000
,
2000
3000
0200
0300
0020
0030
0001
0000
,
0020
0030
0200
0300
0002
0003
1000
0000
,
0020
0030
2000
3000
0002
0003
0100
0000
,
0020
0030
0200
0300
0020
0030
0001
0000
,
2000
3000
0200
0300
2000
3000
0001
0000
,
0100
0000
0000
0000
0010
0100
0010
0000
0000
1000
0001
0000
1000
0000
0000
0000
,
0010
0100
0010
0100
1000
0001
0000
0100
,
0001
0010
0000
0100
1000
0001
0000
0100
,
0010
0100
0000
0001
1000
0001
0000
0100
,
0001
0100
0000
0010
1000
0010
0100
0001
,
0100
0010
1000
0100
0010
0001
1000
0100
,
1000
0001
0010
0001
0100
0010
0100
0001
,
0010
0100
1000
0100
0010
0001
0010
0100
,
1000
0100
1000
0001
0010
0001
0100
0000
,
0010
1000
0010
1000
0001
0100
0001
0100
,
1000
0010
1000
0010
0100
0001
0100
0001
,
0010
1000
0010
1000
0001
0100
0001
0100
,
1000
0010
1000
0010
0100
0001
0100
0001
,
0100
0001
0100
0001
1000
0010
1000
0010
,
0001
0100
0001
0100
0010
1000
0010
1000
,
0100
0001
0100
0001
1000
0010
1000
0010
,
0001
0100
0001
0100
0010
1000
0010
1000
,
0001
0000
0000
0000
0010
0000
0000
0100
0000
0000
0000
0000
0000
0000
0000
0000
,
0010
0000
0000
0000
0100
0000
0000
1000
0000
0000
0000
0000
0000
0000
0000
0000
,
0001
0000
0000
0000
1000
0000
0000
0010
0000
0000
0000
0000
0000
0000
0000
0000
,
0100
0000
0000
0000
0001
0000
0000
0010
0000
0000
0000
0000
0000
0000
0000
0000
,
1000
0000
0000
0000
0010
0000
0000
0100
0000
0000
0000
0000
0000
0000
0000
0000
,
0001
0000
0000
0000
0010
0000
0000
0001
0000
0000
0000
0000
0000
0000
0000
0000
,
1000
0000
0000
0000
0100
0000
0000
1000
0000
0000
0000
0000
0000
0000
0000
0000
,
0010
0000
0000
0000
0100
0000
0000
0010
0000
0000
0000
0000
0200
0000
0000
0300
,
0002
0003
0020
0030
0200
0300
1000
0000
,
2000
3000
0020
0030
0200
0300
0001
0000
,
0200
0300
0020
0030
2000
3000
0001
0000
,
0020
0030
2000
3000
0002
0003
0100
0000
,
2000
3000
0200
0300
0020
0030
0001
0000
,
0002
0003
0200
0300
0020
0030
1000
0000
,
0020
0030
0200
0300
0002
0003
1000
0000
,
0200
0300
0002
0003
2000
3000
0010
0000
,
2000
3000
0200
0300
0020
0030
0001
0000
,
0002
0003
0200
0300
0020
0030
1000
0000
,
0020
0030
0200
0300
0002
0003
1000
0000
,
0200
0300
0002
0003
2000
3000
0010
0000
,
0002
0003
0020
0030
0200
0300
1000
0000
,
2000
3000
0020
0030
0200
0300
0001
0000
,
0200
0300
0020
0030
2000
3000
0001
0000
,
0020
0030
2000
3000
0002
0003
0100
0000
,
0010
0000
0000
0000
0010
0000
0000
1000
0000
0000
0000
0000
0000
0000
0000
0000
,
0100
0000
0000
0000
0100
0000
0000
0001
0000
0000
0000
0000
0000
0000
0000
0000
,
0001
0000
0000
0000
0001
0000
0000
0100
0000
0000
0000
0000
0000
0000
0000
0000
,
1000
0000
0000
0000
1000
0000
0000
0010
0000
0000
0000
0000
0000
0000
0000
0000
,
1000
0000
0000
0000
0100
0000
0000
0001
0000
0000
0000
0000
0000
0000
0000
0000
,
0001
0000
0000
0000
0100
0000
0000
0010
0000
0000
0000
0000
0000
0000
0000
0000
,
0010
0000
0000
0000
0100
0000
0000
0001
0000
0000
0000
0000
0000
0000
0000
0000
,
0100
0000
0000
0000
0010
0000
0000
1000
0000
0000
0000
0000
0000
0000
0000
0000
;

//---------------dance-single - ----------------
#NOTES:
     dance-single:
     :
     Easy:
     4:
     0.253162,0.233515,0.000000,0.000000,0.000000,216.000000,216.000000,0.000000,0.000000,0.000000,0.000000,0.253162,0.233515,0.000000,0.000000,0.000000,216.000000,216.000000,0.000000,0.000000,0.000000,0.000000:
// measure 0
1000
0010
0000
0000
,  // measure 1
0001
0001
0000
0000
,  // measure 2
0010
0010
0000
0000
,  // measure 3
0001
0010
0000
0000
,  // measure 4
1000
0100
0010
0001
,  // measure 5
0010
0100
0010
1000
,  // measure 6
0001
0100
0010
1000
,  // measure 7
0001
0100
0010
1000
,  // measure 8
0010
0100
0010
0100
,  // measure 9
0001
1000
0010
0100
,  // measure 10
1000
0100
0010
0001
,  // measure 11
0010
0100
0001
1000
,  // measure 12
0010
1000
0001
0100
,  // measure 13
0010
0100
0010
0001
,  // measure 14
1000
0100
1000
0001
,  // measure 15
0100
0010
1000
1000
,  // measure 16
0010
0010
1000
0100
,  // measure 17
0001
0010
1000
0100
,  // measure 18
0010
0001
1000
0100
,  // measure 19
0001
0010
1000
0100
,  // measure 20
0100
1000
0010
1000
,  // measure 21
0001
0010
0100
0001
,  // measure 22
0010
1000
0010
0100
,  // measure 23
0001
1000
0010
0100
,  // measure 24
0010
0010
0001
0001
,  // measure 25
1000
1000
0100
0100
,  // measure 26
0010
0010
0001
0001
,  // measure 27
1000
1000
0100
0100
,  // measure 28
0100
0100
1000
1000
,  // measure 29
0001
0001
0010
0010
,  // measure 30
0100
0100
1000
1000
,  // measure 31
0001
0001
0010
0010
,  // measure 32
0001
0010
0000
0000
,  // measure 33
0010
0100
0000
0000
,  // measure 34
0001
1000
0000
0000
,  // measure 35
0100
0001
0000
0000
,  // measure 36
1000
0010
0000
0000
,  // measure 37
0001
0010
0000
0000
,  // measure 38
1000
0100
0000
0000
,  // measure 39
0010
0100
0000
0100
,  // measure 40
0001
0010
0100
1000
,  // measure 41
1000
0010
0100
0001
,  // measure 42
0100
0010
1000
0001
,  // measure 43
0010
1000
0001
0100
,  // measure 44
1000
0100
0010
0001
,  // measure 45
0001
0100
0010
1000
,  // measure 46
0010
0100
0001
1000
,  // measure 47
0100
0001
1000
0010
,  // measure 48
1000
0100
0010
0001
,  // measure 49
0001
0100
0010
1000
,  // measure 50
0010
0100
0001
1000
,  // measure 51
0100
0001
1000
0010
,  // measure 52
0001
0010
0100
1000
,  // measure 53
0000
0010
0100
0001
,  // measure 54
0100
0010
1000
0001
,  // measure 55
0010
1000
0001
0100
,  // measure 56
0010
0010
0000
0000
,  // measure 57
0100
0100
0000
0000
,  // measure 58
0001
0001
0000
0000
,  // measure 59
1000
1000
0000
0000
,  // measure 60
1000
0100
0000
0000
,  // measure 61
0001
0100
0000
0000
,  // measure 62
0010
0100
0000
0000
,  // measure 63
0100
0010
0000
0000
;
