#TITLE:Calamity Fortune;
#SUBTITLE:;
#ARTIST:ZUN Remixed by LeaF;
#TITLETRANSLIT:;
#SUBTITLETRANSLIT:;
#ARTISTTRANSLIT:;
#GENRE:;
#CREDIT:;
#BANNER:Calamity Fortune.png;
#BACKGROUND:Calamity Fortune-BG.png;
#LYRICSPATH:;
#CDTITLE:;
#MUSIC:Calamity Fortune.ogg;
#OFFSET:-1.253000;
#SAMPLESTART:27.653000;
#SAMPLELENGTH:24.000000;
#SELECTABLE:YES;
#BPMS:0.000000=200.000000
;
#STOPS:
;
#BGCHANGES:0.000=Calamity Fortune.avi=1.000=1=0=1===CrossFade==,
99999=-nosongbg-=1.000=0=0=0 // don't automatically add -songbackground-
;
#KEYSOUNDS:;
#ATTACKS:;

//---------------dance-single - ----------------
#NOTES:
     dance-single:
     :
     Hard:
     11:
     0.758432,0.968509,0.296180,0.177708,0.281371,717.000000,677.000000,40.000000,24.000000,0.000000,0.000000,0.758432,0.968509,0.296180,0.177708,0.281371,717.000000,677.000000,40.000000,24.000000,0.000000,0.000000:
// measure 0
0000
0000
0000
0000
,  // measure 1
1000
0100
1000
0010
0100
0010
0001
1000
,  // measure 2
0001
0000
0000
0000
0010
0000
0010
0100
0010
0001
0010
0000
1010
0000
0000
0000
,  // measure 3
0100
0010
0001
1000
0100
1000
0010
0100
,  // measure 4
0002
0000
2003
0000
3020
0000
0230
0000
0320
0000
0000
0000
0030
0000
1000
0010
,  // measure 5
1000
0001
0100
0010
,  // measure 6
1000
0100
1000
0001
,  // measure 7
0010
0000
0000
0010
0001
0000
0001
0000
1000
0000
0000
0000
0100
0000
1000
0000
,  // measure 8
1100
1010
1001
0000
0101
0000
1000
0000
,  // measure 9
0110
0000
0010
1000
0100
0010
0001
0000
,  // measure 10
1010
0000
0010
0100
0010
0001
0010
0000
,  // measure 11
0101
0000
0010
0100
1000
0100
0010
0000
,  // measure 12
1010
0000
0000
0000
1000
0000
0000
0000
1001
0000
0000
0000
0001
0010
0100
0010
,  // measure 13
0001
0000
1000
0010
0100
0001
1000
0000
,  // measure 14
1010
0000
0010
0100
1000
0001
0010
0000
,  // measure 15
0110
0000
1000
0010
0100
0001
0010
0100
,  // measure 16
0010
0000
1000
0100
0010
0200
0010
0000
,  // measure 17
0310
0000
0000
0000
0000
0000
0000
0000
0010
0000
0100
0010
0001
0000
1000
0000
,  // measure 18
0000
1000
0100
0000
0010
0000
0200
0000
,  // measure 19
0310
0000
1000
0000
0001
0000
0000
0000
0010
0000
1000
0010
1000
0000
0010
0000
,  // measure 20
0000
0100
0010
0000
0001
1000
0002
0000
,  // measure 21
1003
0100
0010
0001
1000
0100
0010
0001
1000
0100
0010
0001
1000
0100
0010
0001
,  // measure 22
1000
0000
0000
0100
0000
0000
0010
0000
0000
0001
0000
0000
0010
0000
0100
0000
,  // measure 23
0010
0000
0000
1000
0000
0000
0001
0000
0000
1000
0000
0000
0010
0000
0100
0000
,  // measure 24
0001
0000
0000
0010
0000
0000
0100
0000
0000
0010
0000
0000
0001
0000
0010
0000
,  // measure 25
0100
1000
0010
0100
0001
0010
0001
1000
,  // measure 26
0001
0000
0000
0100
0000
0000
0010
0000
0000
1000
0000
0000
0001
0000
0100
0000
,  // measure 27
0010
0000
0000
0000
1000
0100
1000
0100
1000
0000
0001
0000
0010
0000
0001
0000
,  // measure 28
1000
0000
0000
1000
0001
0000
0001
0000
0010
0000
0000
0000
0100
0000
0000
0000
,  // measure 29
1010
0000
1010
0000
1010
0000
0000
0000
0101
0000
0000
0000
0001
0010
0100
0010
,  // measure 30
0001
1000
0010
0100
,  // measure 31
0001
0000
1000
0001
1000
0000
0010
0000
0010
0000
0000
0000
0220
0000
0330
0000
,  // measure 32
1000
0100
0010
0001
1000
0010
0100
0001
,  // measure 33
1000
0100
0000
0100
0010
0000
0010
0000
0001
0000
1000
0001
1000
0001
1000
0001
,  // measure 34
1000
0010
0100
0010
,  // measure 35
1001
0101
1010
0110
,  // measure 36
1000
0010
0100
0001
0010
0100
1000
0001
,  // measure 37
0010
0000
0010
0100
1000
0000
0001
0010
0000
0010
0000
0100
1000
0000
0001
0000
,  // measure 38
2000
0000
0000
0000
0000
0000
0000
0000
0001
0000
0000
0001
0000
0000
0001
0000
,  // measure 39
0001
0000
0000
0000
0000
0000
0000
0000
0010
0000
0000
0010
0000
0000
0010
0000
,  // measure 40
0010
0100
0100
0100
,  // measure 41
0200
0000
0000
3300
,  // measure 42
0012
0000
0000
0000
0000
0000
0000
0000
1000
0000
0000
1000
0000
0000
1000
0000
,  // measure 43
1000
0000
0000
0000
0000
0000
0000
0000
0100
0000
0000
0100
0000
0000
0100
0000
,  // measure 44
0100
0010
0010
0010
,  // measure 45
0013
0000
1001
1001
1001
0000
1001
0000
,  // measure 46
1000
0000
0010
0000
1000
0000
0010
0000
0010
0100
0000
0000
0100
0000
0000
0000
,  // measure 47
1000
0100
0010
0100
1000
0001
0010
0100
,  // measure 48
0010
0001
1000
0100
1000
0100
1000
0001
,  // measure 49
0010
0001
0010
0001
1000
0100
0010
0001
,  // measure 50
0100
0010
1000
0001
0010
0100
1000
0010
,  // measure 51
0100
0001
1000
0001
0100
0010
1000
0001
,  // measure 52
1000
0010
0100
0001
0100
0001
0100
0010
,  // measure 53
1000
0010
1000
0010
0100
0001
1000
0010
,  // measure 54
0001
1000
0100
0010
1000
0001
0100
0010
,  // measure 55
0001
0010
0100
0010
0001
1000
0100
0010
,  // measure 56
0100
1000
0001
0010
0001
0010
0001
1000
,  // measure 57
0100
1000
0100
1000
0001
0010
0100
1000
,  // measure 58
0010
0100
0001
1000
0100
0010
0001
1000
,  // measure 59
0010
1000
0001
1000
0010
0100
0001
1000
,  // measure 60
0001
0100
0010
1000
0010
1000
0010
0100
,  // measure 61
0001
0100
0001
0100
0010
1000
0001
1000
,  // measure 62
0000
1001
0000
1010
1010
0010
1000
0000
,  // measure 63
0001
0010
0100
0010
0001
1000
0100
0010
,  // measure 64
0200
0320
2030
3001
,  // measure 65
0010
0000
0010
0100
0010
0000
1000
0000
0001
0000
0100
1000
0100
0000
0010
0000
,  // measure 66
0100
0000
1010
0000
0101
0001
0100
0000
,  // measure 67
1000
0010
0100
0001
,  // measure 68
1000
0010
1000
0001
,  // measure 69
0100
0001
1000
0100
,  // measure 70
0010
0001
1000
0001
,  // measure 71
0100
0000
0000
0000
0020
0000
0000
0000
1030
0010
1000
0010
1000
0000
0001
0000
,  // measure 72
0010
0000
0000
0010
0100
0000
0000
0100
0000
0000
0100
1000
0000
0001
0000
0000
,  // measure 73
1000
0000
0010
0000
0100
0000
0001
0010
,  // measure 74
0100
0000
1000
0000
0010
0000
0100
0010
,  // measure 75
0001
1000
0010
0100
,  // measure 76
0001
0000
0000
0000
1000
0000
0010
1000
0010
1000
0010
0000
1010
0000
0000
0000
,  // measure 77
0001
0000
0001
0000
0010
0000
0001
0010
,  // measure 78
0001
0000
0010
0000
0010
0000
0100
0010
,  // measure 79
0100
0100
1000
0100
,  // measure 80
1000
0000
0001
0010
0100
0000
1000
0000
,  // measure 81
1001
0000
0000
0000
1000
0100
0010
0001
1000
0100
0010
0001
1000
0100
0010
0001
,  // measure 82
1000
0001
0000
0001
0100
0000
0000
0100
0010
0000
0000
0010
1000
0000
0000
1000
,  // measure 83
0100
0000
0000
0100
0010
0000
0000
0010
0001
0000
0000
0001
1000
0000
0000
0000
,  // measure 84
1000
0000
0100
1000
0100
0010
0001
0010
,  // measure 85
0001
0000
1000
0100
1000
0010
0100
0010
,  // measure 86
0001
0000
1000
0010
0100
0001
0010
0100
,  // measure 87
1000
1010
0101
1001
,  // measure 88
1000
0000
0001
0010
0100
0010
0001
0010
,  // measure 89
0100
0000
1000
0010
0001
0010
1000
0010
,  // measure 90
0001
0000
1000
0100
0010
0100
1000
0100
,  // measure 91
0010
1000
0010
0000
0100
0000
0001
0100
0000
0100
0000
0010
1000
0000
0001
0000
,  // measure 92
1000
0100
0010
0001
1000
0010
0100
0001
,  // measure 93
0010
0000
0001
1000
0010
0100
0001
1000
,  // measure 94
0100
0000
0100
1000
0001
0100
0010
1000
,  // measure 95
0001
0101
0110
1010
,  // measure 96
0001
0000
0001
0010
0100
1000
0001
0100
,  // measure 97
0010
0000
1000
0100
0010
0001
1000
0010
,  // measure 98
0100
0000
0010
0100
1000
0001
0010
0100
,  // measure 99
1000
0010
1000
0000
0010
0000
0100
0001
0000
0001
0000
0010
1000
0000
0001
0000
,  // measure 100
0200
0000
0000
0000
,  // measure 101
0320
0000
0000
0000
,  // measure 102
2030
0000
0000
0000
,  // measure 103
0000
0000
0000
0000
,  // measure 104
3002
0000
0000
0000
,  // measure 105
2000
0000
0000
3003
,  // measure 106
1000
0100
1000
0001
0010
0001
1000
0100
,  // measure 107
0010
0001
1000
0010
0100
0001
1000
0100
,  // measure 108
2002
0000
0000
0000
,  // measure 109
3003
0000
0000
0000
;

//---------------dance-single - ----------------
#NOTES:
     dance-single:
     :
     Medium:
     7:
     0.432634,0.524609,0.118472,0.125877,0.000000,409.000000,393.000000,16.000000,17.000000,0.000000,0.000000,0.432634,0.524609,0.118472,0.125877,0.000000,409.000000,393.000000,16.000000,17.000000,0.000000,0.000000:
0000
0000
0000
0000
,
0001
0001
1000
0100
,
0100
0010
0010
0001
,
1000
0100
1000
0010
,
0100
0001
0010
1000
0010
0000
0000
0100
,
0001
0100
1000
0010
,
0001
1000
0001
0100
,
0010
0100
0001
1000
,
1001
0100
1100
0001
,
1010
0010
1000
0100
,
0011
0010
0010
0010
,
1100
0010
0001
0010
,
0011
0001
0101
0100
,
0100
0001
1000
0001
,
0011
0010
0001
0010
,
1010
0001
1000
0010
,
0010
0000
0001
0000
0010
2000
0000
0000
,
3000
0000
0010
0100
,
0000
0001
1000
0000
0010
0000
2000
0000
,
3000
0001
0100
0000
0010
0000
0001
0000
,
0000
1000
0010
0000
0100
0000
0200
0000
,
0301
0010
1000
0100
0001
1000
0010
0100
,
0001
1000
0100
0010
,
0010
0001
1000
0010
,
0100
0010
1000
0100
,
1000
0010
0100
0100
,
0100
1000
0010
0100
,
0010
0001
0001
0010
,
0001
0100
0010
1000
,
0001
0001
1100
0100
,
0100
0001
0010
1000
,
0100
0000
0001
0000
0010
0000
0020
0030
,
0001
0010
0001
1000
,
0001
0000
0010
0000
0100
0001
1000
0010
,
0100
0010
1000
0010
,
0001
0100
0010
1000
,
0001
1000
0010
0001
,
0010
0001
0100
0001
,
0002
0000
0000
0000
,
0000
0000
0000
0000
,
0000
0000
0000
0000
,
0000
0000
0000
0003
,
0200
0000
0000
0000
,
0000
0000
0000
0000
,
0000
0000
0000
0000
,
0300
0000
0001
0100
0001
0000
0101
0000
,
0001
0001
0010
1000
,
0001
0010
0001
0010
,
0010
0001
0001
0001
,
0010
0010
0001
0010
,
1000
0001
0010
0001
,
1000
0001
1000
0001
,
0001
1000
1000
1000
,
0001
0001
1000
0001
,
0100
1000
0001
1000
,
0100
1000
0100
1000
,
1000
0100
0100
0100
,
1000
1000
0100
1000
,
0010
0100
1000
0100
,
0010
0100
0010
0100
,
0100
0010
0010
0010
,
0100
0100
0010
0100
,
0001
0010
0001
0001
,
0100
1000
0100
1000
,
2000
3020
0032
0103
,
0010
0010
0100
1000
,
1000
0011
1100
1000
,
0001
0010
1000
0100
,
0001
0010
0001
0100
,
1000
0100
0001
1000
,
0010
0100
0001
0100
,
1000
0020
0031
0001
,
0010
1000
0010
0100
,
0001
0010
1000
0100
,
1000
0001
0010
1000
,
0100
0001
0010
1000
,
0100
0001
0010
0011
,
0100
0100
0010
0100
,
0100
0010
0010
1000
,
1000
1000
0001
1000
,
0001
0100
1000
0001
,
0101
0000
0001
0010
0001
0010
0001
0010
,
0001
1000
0010
0001
,
1000
0010
0100
0001
,
0001
1000
1000
0100
,
0100
0001
0001
1000
,
0100
0001
1000
0010
,
0001
0010
1000
0100
,
0001
0100
1000
0100
,
1000
0001
0100
0001
,
0100
0001
0010
0001
,
0010
1000
1000
0001
,
0001
0010
0001
1000
,
0010
0100
0010
0100
,
1000
1000
0100
0010
,
0100
1000
0010
0001
,
0100
0100
1000
0100
,
0010
0001
0010
0001
,
1000
0010
0001
0010
,
0001
0010
0100
0001
,
2000
0000
0000
0000
,
3020
0000
0000
0000
,
0032
0000
0000
0000
,
0000
0000
0000
0000
,
0203
0000
0000
0000
,
0002
0000
0000
0303
,
0001
1000
0010
0100
,
0010
1000
0001
0010
,
0202
0000
0000
0000
,
0303
0000
0000
0000
;

//---------------dance-single - ----------------
#NOTES:
     dance-single:
     :
     Easy:
     5:
     0.214731,0.282482,0.000000,0.059236,0.000000,203.000000,203.000000,0.000000,8.000000,0.000000,0.000000,0.214731,0.282482,0.000000,0.059236,0.000000,203.000000,203.000000,0.000000,8.000000,0.000000,0.000000:
0000
0000
0000
0000
,
0001
0000
1000
0000
,
0100
0000
0010
0000
,
1000
0000
1000
0000
,
0100
0010
0010
0000
,
0001
0000
1000
0000
,
0001
0000
0001
0000
,
0010
0000
0001
0000
,
0001
0000
0100
0000
,
1000
0000
1000
0000
,
0010
0000
0010
0000
,
1000
0000
0001
0000
,
0010
0000
0001
0000
,
0100
0000
1000
0000
,
0001
0000
0001
0000
,
0010
0000
1000
0000
,
0010
0000
0010
0000
,
0000
0000
0010
0000
,
0000
0001
0000
0000
0010
0000
0000
0000
,
0000
0001
0000
0000
0010
0000
0000
0000
,
0000
1000
0000
0000
0100
0000
0200
0000
,
0300
1000
0001
0010
,
0001
0000
0100
0000
,
0010
0000
1000
0000
,
0100
0000
1000
0000
,
1000
0000
0100
0000
,
0100
0000
0010
0000
,
0010
0000
0001
0000
,
0001
0000
0010
0000
,
0001
0000
1000
0000
,
0100
0000
0010
0000
,
0100
0000
0010
0000
,
0001
0000
0001
0000
,
0001
0000
0100
1000
,
0100
0000
1000
0000
,
0001
0000
0010
0000
,
0001
0000
0010
0000
,
0010
0000
0100
0000
,
0002
0000
0000
0000
,
0000
0000
0000
0000
,
0000
0000
0000
0000
,
0000
0000
0000
0003
,
0200
0000
0000
0000
,
0000
0000
0000
0000
,
0000
0000
0000
0000
,
0300
0001
0100
0001
,
0000
0001
0000
1000
,
0001
0000
0001
0000
,
0010
0000
0001
0000
,
0010
0000
0001
0000
,
1000
0000
0010
0000
,
1000
0000
1000
0000
,
0001
0000
1000
0000
,
0001
0000
1000
0000
,
0100
0000
0001
0000
,
0100
0000
0100
0000
,
1000
0000
0100
0000
,
1000
0000
0100
0000
,
0010
0000
1000
0000
,
0010
0000
0010
0000
,
0100
0000
0010
0000
,
0100
0000
0010
0000
,
0001
0000
0001
0000
,
0100
0000
0100
0000
,
1000
0010
0001
0100
,
0000
0010
0000
1000
,
0000
0001
0000
1000
,
0000
0010
0000
0100
,
0000
0010
0000
0100
,
0000
0100
0000
1000
,
0000
0100
0000
0100
,
0000
0010
0000
0001
,
0000
1000
0000
0100
,
0000
0010
0000
0100
,
0000
0001
0000
1000
,
0000
0001
0000
1000
,
0000
0001
0000
0001
,
0000
0100
0000
0100
,
0000
0010
0000
1000
,
0000
1000
0000
1000
,
0000
0100
0000
0001
,
0100
0001
0001
0001
,
0001
0000
0010
0000
,
1000
0000
0100
0000
,
0001
0000
1000
0000
,
0100
0000
0001
0000
,
0100
0000
1000
0000
,
0001
0000
1000
0000
,
0001
0000
1000
0000
,
1000
0000
0100
0000
,
0100
0000
0010
0000
,
0010
0000
1000
0000
,
0001
0000
0001
0000
,
0010
0000
0010
0000
,
1000
0000
0100
0000
,
0100
0000
0010
0000
,
0100
0000
1000
0000
,
0010
0000
0010
0000
,
1000
0000
0001
0000
,
0001
0000
0100
0000
,
2000
0000
0000
0000
,
3020
0000
0000
0000
,
0032
0000
0000
0000
,
0000
0000
0000
0000
,
0203
0000
0000
0000
,
0000
0000
0000
0300
,
0001
0000
0010
0000
,
0010
0000
0001
0000
,
0200
0000
0000
0000
,
0300
0000
0000
0000
;
