#TITLE:CO5M1C R4ILR0AD;
#SUBTITLE:;
#ARTIST:kanone;
#TITLETRANSLIT:;
#SUBTITLETRANSLIT:;
#ARTISTTRANSLIT:;
#GENRE:;
#CREDIT:;
#BANNER:CO5M1C R4ILR0AD.png;
#BACKGROUND:CO5M1C R4ILR0AD-BG.png;
#LYRICSPATH:;
#CDTITLE:;
#MUSIC:CO5M1C R4ILR0AD.ogg;
#OFFSET:0.766999;
#SAMPLESTART:41.039001;
#SAMPLELENGTH:12.000000;
#SELECTABLE:YES;
#BPMS:0.000000=155.000000
;
#STOPS:129.750000=0.097000,
130.000000=0.097000,
130.250000=0.097000,
130.500000=0.097000
;
#BGCHANGES:1.500=CO5M1C R4ILR0AD.avi=1.000=1=0=1===CrossFade==,
99999=-nosongbg-=1.000=0=0=0 // don't automatically add -songbackground-
;
#KEYSOUNDS:;
#ATTACKS:;

//---------------dance-single - ----------------
#NOTES:
     dance-single:
     :
     Hard:
     12:
     0.866836,0.917380,0.204207,0.123983,0.940809,832.000000,804.000000,28.000000,17.000000,0.000000,0.000000,0.866836,0.917380,0.204207,0.123983,0.940809,832.000000,804.000000,28.000000,17.000000,0.000000,0.000000:
0000
0000
0000
0000
,
0000
0000
0000
0000
,
0002
0000
0000
0003
,
1001
0000
0000
1001
0000
0000
0001
1000
0001
0000
0010
0000
0100
0000
0000
0000
,
0202
0000
0000
0000
0000
0000
0303
0101
,
1010
0000
0000
0110
0000
0000
1000
0100
0010
0100
0010
0001
0000
0000
0000
0000
,
2000
3020
0230
0302
,
1003
0010
0100
0001
1000
0010
1000
0010
,
0100
0001
0100
0001
1000
0001
1000
0001
,
2002
0000
0000
3003
,
1001
0000
0000
0000
0110
0000
0000
0000
1001
0000
0000
0000
1000
0100
0010
0001
,
1000
0000
0001
0100
0001
0000
1000
0010
1000
0010
0100
0001
0100
0001
0100
0000
,
1000
0001
1000
0000
0010
0000
0100
0000
0001
0010
1000
0010
0001
0000
1000
0000
,
1010
0000
0000
0000
1001
0000
0000
0101
0000
0001
1000
0001
1000
0000
0100
0000
,
0010
0000
1000
0010
1000
0000
0001
0100
0001
0000
1000
0100
0010
0001
0010
0100
,
1000
0000
0001
0100
0001
0100
0001
0100
0000
0000
0010
1000
0010
1000
0010
1000
,
0010
0100
0010
0000
1000
0001
1000
0000
0010
1000
0010
2000
0000
3000
0001
1000
,
0001
0000
1000
0100
0010
0000
0100
0010
0001
0000
1000
0010
2000
0000
0000
0000
,
3001
0000
0010
0000
0100
0000
1000
0100
0010
0000
0100
0000
0001
0000
1000
0000
,
0001
0000
1000
0001
1000
0000
0010
1000
0010
1000
0001
0100
0001
0100
0000
0000
,
0001
1000
0001
0000
1000
0010
1000
0000
0001
0010
0100
1000
0100
0010
0001
0000
,
1001
0000
0000
0000
0101
0000
0000
1010
0000
0000
1000
0010
0100
0000
0010
0000
,
0001
0000
1000
0100
1000
0000
0001
0010
0001
0000
0100
0010
0100
0000
0001
0000
,
1000
0000
1000
0100
0010
0001
0010
0100
1000
0000
0001
0010
0100
1000
0100
0010
,
0001
0000
0010
0000
0100
0000
1000
0000
0001
0000
0100
0000
0010
0000
1000
0001
,
1000
0000
1010
0000
0101
0001
1000
0000
,
2000
0000
0000
3001
,
0001
0000
0000
0000
1000
0010
1000
0010
1000
0000
0001
0100
0001
0000
1000
0000
,
0010
0000
0000
0000
0100
1000
0100
1000
0100
0000
0010
0001
0010
0000
0100
0000
,
0100
0000
0000
0000
0010
0001
0010
0001
0010
0000
0100
1000
0100
0000
0010
0000
,
1000
0000
0001
1000
0001
0000
0000
0000
0101
0000
0000
0001
0010
0100
0010
0001
,
0010
0000
1000
0100
1000
0100
0000
0010
0000
0100
0010
0000
1000
0000
1000
0001
,
0000
0001
0100
0000
1000
0000
0000
1000
0001
0100
0010
1000
0002
0000
0000
0000
,
0000
0000
0000
1003
0100
0010
0001
1000
0001
0000
0000
0000
,
1001
0000
0000
0101
0000
0000
1010
0000
0000
0000
0000
0000
1000
0000
0010
0000
,
0100
0001
1000
0010
1000
0001
0100
0001
,
0010
1000
0010
0100
0001
0100
0001
1000
,
0100
0010
0001
1000
0010
0100
1000
0001
,
0100
0010
0001
0010
0200
0000
0301
0010
,
0100
1000
0010
0100
0001
1000
0010
1000
,
0001
0100
0001
0010
1000
0010
0100
0001
,
0010
0000
0100
0000
1000
0000
0100
0000
0010
0000
0001
0000
0010
0000
0000
1010
,
0000
1000
0001
0100
0010
0000
1000
0010
,
0100
0010
1000
0100
0001
0100
0010
0100
,
0001
0010
0100
1000
0010
0100
1000
0001
,
0100
0010
1000
0001
0010
0100
0010
0001
,
1000
0100
0010
0100
1000
0001
1000
0100
,
0010
0001
1000
0010
0100
0001
0010
0100
,
0001
0000
0010
0000
1000
0000
0001
0000
0100
0000
0010
0000
1000
0001
0000
0000
,
0001
1000
0000
0000
2002
0000
0000
0000
3003
0000
0000
0000
1001
0000
0000
0000
,
0101
0000
0000
0000
1010
0000
1000
0000
0001
0000
0000
0000
1000
0000
0010
0100
,
1000
0100
0010
0000
0000
0000
0100
0010
0001
0010
0100
0000
0000
0000
1000
0010
,
1000
0010
1000
0001
0100
0001
0100
0001
0100
0000
0000
0000
0010
0100
1000
0100
,
0010
0100
1000
0000
0000
0000
0001
0010
0100
0010
0001
0010
0100
0000
0000
0000
,
1000
0000
0001
0010
0100
1000
0100
0010
0001
0010
0100
0000
1000
0010
1000
0010
,
1000
0010
1000
0000
0001
0000
0100
0001
0100
0001
0100
0001
0000
0000
1000
0100
,
0010
0001
0010
0100
0010
0001
0010
0100
0010
0001
0000
0000
1000
0001
1000
0001
,
1000
0001
1000
0000
0000
0000
0010
0000
0100
0010
0100
0010
0100
0010
0000
0000
,
1000
0000
0000
0100
0000
0000
1000
0000
0000
0100
0000
0000
1000
0000
0000
0000
0010
0000
0000
0000
0100
0000
0000
0000
0001
0000
0000
0000
0000
0000
0000
0000
0000
0000
0000
0000
0001
0000
0000
0000
0000
0000
0100
0000
0000
0010
0000
0000
,
0001
0010
0100
0000
0000
0000
0010
0100
1000
0100
0010
0000
0000
0000
0001
0100
,
0001
0100
0001
1000
0010
1000
0010
1000
0010
0000
0000
0000
0100
0010
0001
0010
,
0100
0010
0001
0000
0000
0000
1000
0100
0010
0100
1000
0100
0010
0000
0000
0000
,
0001
0000
1000
0100
0010
0001
0010
0100
1000
0100
0010
0000
0001
0100
0001
0100
,
0001
0100
0001
0000
1000
0000
0010
1000
0010
1000
0010
1000
0000
0000
0001
0010
,
0100
1000
0100
0010
0100
1000
0100
0010
0100
1000
0000
0000
0001
1000
0001
1000
,
0001
0000
0000
1000
0000
0000
0001
0000
0000
0000
0000
0000
0000
0000
0000
0000
0000
0000
0100
0000
0000
0000
0000
0000
0001
0000
0000
0000
0100
0000
0000
0000
0010
0000
0000
0000
1000
0000
0000
0000
0000
0000
0000
0000
0000
0000
0000
0000
,
1001
0000
0000
0000
0000
0000
0000
0000
0000
0000
0000
0000
0001
0000
0000
0000
0010
0000
0000
0000
0100
0000
0000
0000
1000
0000
0000
0000
0000
0000
0000
0000
0000
0000
0000
0000
0001
0000
0000
0010
0000
0000
0100
0000
0000
0010
0000
0000
,
0001
0010
0100
0000
1000
0100
0010
0100
1000
0100
0010
0000
1000
0010
1000
0010
,
1000
0010
1000
0000
0100
0001
0100
0001
0100
0001
0100
0000
0001
0010
0100
1000
,
0100
0010
0001
0000
1000
0100
0010
0001
0010
0100
1000
0000
0000
0000
0001
0000
,
0010
0000
0100
0000
1000
0001
0000
0001
1000
0000
0001
0000
1000
0001
1000
0001
,
1000
0001
1000
0000
0010
0100
0010
0100
0010
0100
0010
0000
1000
0100
0010
0000
,
0100
0010
0001
0000
1000
0100
0010
0001
0010
0100
1000
0000
0001
0000
0000
0100
,
0010
0000
1000
0000
0001
0000
1000
0000
0001
1000
0001
0000
0000
0000
0100
0000
,
0010
0000
0000
0001
0000
0000
1000
0000
0010
0000
0100
0000
0001
0000
0010
0000
0100
0000
1000
0000
0000
0000
0000
0000
,
1000
0100
0010
0100
1000
0000
0001
0010
0100
0010
0001
0000
0001
0100
0001
0100
,
0010
1000
0010
1000
0000
0000
1000
0001
1000
0001
0000
0000
1000
0100
0010
0001
,
0010
0100
1000
0000
0001
0010
0100
1000
0100
0010
0001
0000
0000
0000
1000
0000
,
0100
0000
0010
0000
0001
1000
0000
1000
0001
0000
1000
0000
0001
1000
0001
1000
,
0001
1000
0001
0000
0100
0010
0100
0010
0100
0010
0100
0000
0001
0010
0100
0000
,
0010
0100
1000
0000
0001
0010
0100
1000
0100
0010
0001
0000
1000
0000
0000
0010
,
0100
0000
0001
0000
1000
0000
0001
0000
1000
0001
1000
0000
0000
0000
0010
0000
,
0100
0000
0000
1000
0000
0000
0001
0000
0100
0000
0010
0000
1000
0000
0100
0000
0010
0000
0001
0000
0000
0000
0000
0000
,
1000
0100
0010
0100
1000
0000
0001
0010
0100
0010
0001
0000
0000
0000
0100
0010
,
0100
0010
0100
0000
0001
1000
0001
1000
0001
0000
0000
0000
1000
0100
0010
0001
,
0010
0100
1000
0000
0001
0010
0100
1000
0100
0010
0001
0000
1000
0000
0000
0001
,
1000
0000
0000
0010
0200
0000
0000
0000
0000
0000
0000
0000
0300
0000
0000
0000
;

//---------------dance-single - ----------------
#NOTES:
     dance-single:
     :
     Medium:
     7:
     0.357362,0.379606,0.072931,0.094810,0.021879,343.000000,333.000000,10.000000,13.000000,0.000000,0.000000,0.357362,0.379606,0.072931,0.094810,0.021879,343.000000,333.000000,10.000000,13.000000,0.000000,0.000000:
0000
0000
0000
0000
,
0000
0000
0000
0000
,
2000
0000
0000
3000
,
0010
0000
0000
1010
0000
0000
1000
0000
0010
0000
0001
0000
0100
0000
0000
0000
,
2200
0000
0000
0000
0000
0000
3300
0001
,
0010
0000
0000
0101
0000
0000
0010
0000
0100
0000
0001
0000
1000
0000
0000
0000
,
0010
0001
0100
1000
,
0010
0001
0100
1000
,
0001
0100
0010
0001
,
2020
0000
0000
3030
,
0010
0001
1000
0010
,
0001
1000
0010
0100
,
0010
0001
1000
1000
,
0010
1000
1100
0010
,
0001
0010
1000
0100
,
0010
1000
0100
0001
,
1000
0000
0010
0000
0001
0100
0002
0003
,
1000
0001
1000
0020
,
1030
0100
0001
1000
,
1000
0010
0001
1000
,
1000
0010
1000
0100
,
1000
0100
0011
0100
,
1000
0010
1000
0100
,
0010
0001
0010
0100
,
1000
0100
1000
0001
,
0010
0001
0100
1000
,
0020
0000
0000
1030
,
1000
0010
0010
1000
,
0001
0100
0010
0001
,
0100
0001
1000
0100
,
0010
1000
0100
0001
,
0010
1000
0100
0010
,
0001
0000
0000
0000
0010
0000
0000
0010
0000
0100
0000
0010
2000
0000
0000
0000
,
0000
3010
1000
0100
,
0010
0000
0000
0100
0000
0000
0011
0000
0000
0000
0000
0000
0010
0000
0000
0000
,
0100
0001
1000
0100
,
0001
0001
1000
1000
,
0100
1000
0001
0010
,
0100
1000
0200
1300
,
0100
0010
1000
0001
,
1000
1000
0010
0100
,
0001
0010
0001
0001
,
0011
1000
0001
0010
,
0100
0010
1000
0001
,
1000
0100
0001
0010
,
0100
0010
0001
0100
,
1000
0001
0010
1000
,
0001
0010
0100
0001
,
1000
0010
0100
0010
,
1000
2020
3030
1000
,
0100
0011
1000
0010
,
0010
0001
1000
0100
,
0010
0100
1000
0001
,
0001
0010
0100
0100
,
0010
0100
1000
0010
,
0010
1000
0100
0001
,
0010
0001
0100
1000
,
0010
0001
0100
1000
,
0010
0010
1000
0100
,
1000
0001
0010
0100
,
1000
0001
1000
0010
,
0100
1000
0001
0100
,
1000
0001
0010
1000
,
0100
0010
0001
1000
,
0010
0001
0100
1000
,
0010
0001
1000
0010
,
1000
1000
0010
0001
,
1000
0100
0010
0001
,
1000
0100
0001
1000
,
0100
0010
0001
0100
,
0001
0010
1000
0010
,
0010
0001
0001
0010
,
0100
0010
0001
1000
,
0001
1000
1000
0100
,
0001
0010
1000
0010
,
0010
0010
0100
1000
,
0001
0100
0010
0010
,
0001
1000
0100
0001
,
0100
0010
1000
0100
,
0001
0010
0100
1000
,
0001
1000
0100
0010
,
0100
0001
1000
0100
,
0001
1000
0010
1000
,
0010
0001
0100
1000
,
0100
1000
1000
0010
,
0001
1000
0100
0010
,
0010
0200
0000
0300
;

//---------------dance-single - ----------------
#NOTES:
     dance-single:
     :
     Easy:
     3:
     0.173992,0.189803,0.000000,0.036465,0.007293,167.000000,167.000000,0.000000,5.000000,0.000000,0.000000,0.173992,0.189803,0.000000,0.036465,0.007293,167.000000,167.000000,0.000000,5.000000,0.000000,0.000000:
// measure 0
0000
0000
0000
0000
,  // measure 1
0000
0000
0000
0000
,  // measure 2
0010
0000
0000
0000
,  // measure 3
0001
0000
0001
0000
,  // measure 4
0020
0000
0000
0030
,  // measure 5
0001
0000
0100
0000
,  // measure 6
0001
0000
0100
0000
,  // measure 7
1000
0000
0010
0000
,  // measure 8
1000
0000
0001
0000
,  // measure 9
0020
0000
0000
0030
,  // measure 10
0001
0000
0010
0000
,  // measure 11
1000
0000
0001
0000
,  // measure 12
0001
0000
0010
0000
,  // measure 13
0001
0000
0100
0000
,  // measure 14
1000
0000
0010
0000
,  // measure 15
0001
0000
0100
0000
,  // measure 16
0010
0000
1000
0000
,  // measure 17
0010
0000
0010
0000
,  // measure 18
0001
0000
1000
0000
,  // measure 19
0010
0000
1000
0000
,  // measure 20
0010
0000
0010
0000
,  // measure 21
0010
0000
1000
0000
,  // measure 22
0010
0000
0010
0000
,  // measure 23
0001
0000
0001
0000
,  // measure 24
0010
0000
0010
0000
,  // measure 25
0001
0000
0100
0000
,  // measure 26
0002
0000
0000
0003
,  // measure 27
0010
0000
0001
0000
,  // measure 28
1000
0000
0001
0000
,  // measure 29
0100
0000
0010
0000
,  // measure 30
0001
0000
0100
0000
,  // measure 31
0001
0000
0100
0000
,  // measure 32
1000
0000
0000
0000
0000
0000
0000
0001
0000
0000
0000
0001
0020
0000
0000
0000
,  // measure 33
0000
0030
0010
0000
,  // measure 34
0001
0000
0000
1000
0000
0000
0001
0000
,  // measure 35
0000
0010
0000
1000
,  // measure 36
0000
0100
0000
0001
,  // measure 37
0000
0100
0000
1000
,  // measure 38
0000
0010
0000
0001
,  // measure 39
0000
0100
0000
0010
,  // measure 40
0000
1000
0000
0001
,  // measure 41
0000
1000
0000
0100
,  // measure 42
0000
0001
0000
1000
,  // measure 43
0000
0100
0000
0010
,  // measure 44
0000
0001
0000
1000
,  // measure 45
0000
0100
0000
0001
,  // measure 46
0000
0010
0000
0001
,  // measure 47
0000
1000
0000
0100
,  // measure 48
0000
0010
0000
0001
,  // measure 49
0000
0100
0000
0010
,  // measure 50
0000
1000
0000
0001
,  // measure 51
0000
1000
0000
0100
,  // measure 52
0000
0100
0000
1000
,  // measure 53
0000
0001
0000
0100
,  // measure 54
0000
0100
0000
0001
,  // measure 55
0000
0010
0000
1000
,  // measure 56
0000
1000
0000
0010
,  // measure 57
0000
1000
0000
0010
,  // measure 58
0000
0001
0000
0100
,  // measure 59
0000
1000
0000
0100
,  // measure 60
0000
1000
0000
0001
,  // measure 61
0000
0010
0000
0100
,  // measure 62
0000
1000
0000
0010
,  // measure 63
0000
0001
0000
0010
,  // measure 64
0000
1000
0000
0010
,  // measure 65
0000
1000
0000
0001
,  // measure 66
0000
0010
0000
1000
,  // measure 67
0000
0100
0000
1000
,  // measure 68
0000
0100
0000
0010
,  // measure 69
0000
0001
0000
0100
,  // measure 70
0000
0001
0000
0001
,  // measure 71
0000
1000
0000
0001
,  // measure 72
0000
0001
0000
0010
,  // measure 73
0000
0010
0000
0100
,  // measure 74
0000
0001
0000
0001
,  // measure 75
0000
0001
0000
0010
,  // measure 76
0000
0100
0000
0001
,  // measure 77
0000
0010
0000
1000
,  // measure 78
0000
0001
0000
0100
,  // measure 79
0000
0001
0000
0010
,  // measure 80
0000
0010
0000
0001
,  // measure 81
0000
1000
0000
0100
,  // measure 82
0000
0010
0000
0010
,  // measure 83
0000
1000
0000
0010
,  // measure 84
0000
0010
0000
0001
,  // measure 85
0000
0010
0000
0001
,  // measure 86
0000
0200
0000
0300
;
