#TITLE:Classic Party 3;
#SUBTITLE:;
#ARTIST:小野秀幸;
#TITLETRANSLIT:;
#SUBTITLETRANSLIT:;
#ARTISTTRANSLIT:Hideyuki Ono;
#GENRE:;
#CREDIT:;
#BANNER:CLASSIC PARTY 3.png;
#BACKGROUND:CLASSIC PARTY 3-BG.png;
#LYRICSPATH:;
#CDTITLE:;
#MUSIC:Classic Party 3.ogg;
#OFFSET:1.634000;
#SAMPLESTART:14.738000;
#SAMPLELENGTH:12.000000;
#LASTBEATHINT:1.606133;
#SELECTABLE:YES;
#DISPLAYBPM:*;
#BPMS:0.000000=152.000000
,4.000000=76.000000
,14.000000=66.000000
,15.000000=56.000000
,16.000000=60.000000
,18.000000=156.000000
,22.000000=174.000000
,90.000000=170.000000
,92.000000=158.000000
,93.000000=154.000000
,94.000000=146.000000
,95.000000=140.000000
,96.000000=134.000000
,98.000000=125.999992
,100.000000=118.000000
,124.000000=116.000000
,128.000000=112.000000
,130.000000=94.000000
,132.000000=180.000000
,180.000000=186.000000
,212.000000=190.000000
,228.000000=194.000000
,232.000000=210.000000
,236.000000=220.000000
,240.000000=230.000000
,244.000000=240.000000
,252.000000=170.000000
,254.000000=100.000000
,254.500000=90.000000
,255.000000=80.000000
,256.000000=100.000000
;
#STOPS:
;
#BGCHANGES:0.000=CLASSIC PARTY 3.avi=1.000=1=0=1===CrossFade==,
99999=-nosongbg-=1.000=0=0=0 // don't automatically add -songbackground-
;
#KEYSOUNDS:;
#ATTACKS:;

//---------------dance-single - ----------------
#NOTES:
     dance-single:
     :
     Hard:
     10:
     0.588989,0.827523,0.597383,0.225243,0.259519,421.000000,360.000000,61.000000,23.000000,0.000000,0.000000,0.588989,0.827523,0.597383,0.225243,0.259519,421.000000,360.000000,61.000000,23.000000,0.000000,0.000000:
0000
0000
0000
0000
,
2002
0000
0000
3003
1000
0100
0010
0001
,
2020
0000
3030
0100
0202
0000
0303
0010
,
2002
0000
3003
0010
1010
0000
0101
0000
,
2002
0000
0000
3000
0200
0000
0000
0000
,
0000
0303
1001
1000
,
0100
0000
0010
0000
0001
0000
0000
0100
,
1000
0100
0000
0000
1001
0000
0000
0001
,
0100
0000
0001
0000
0000
0000
1000
0100
0010
0100
1000
0000
0000
0000
0001
0010
,
0100
0010
0001
0000
0000
0000
1000
0000
0100
0000
0010
0000
0001
0000
1000
0000
,
0100
1000
0000
0000
0001
0000
0000
0100
,
1000
0100
0000
0000
1000
0000
0000
0010
,
0001
0000
0010
0000
0000
0000
1000
0010
0001
0010
1000
0000
0000
0000
0001
0100
,
1000
0100
0001
0000
0000
0000
1000
0000
0010
0000
0100
0000
0001
0000
0000
0000
,
1000
0001
1000
0000
1000
0000
0010
0000
,
0100
0001
0000
1000
0100
0010
0100
1000
,
0100
0010
0001
0000
1000
0010
0100
0001
,
0010
0100
1000
0100
0010
0000
0001
0010
,
0100
1000
0100
0010
0001
0000
0100
0000
,
0010
1000
0000
0001
0010
0100
0010
0001
,
0010
0100
1000
0000
0001
0100
0010
1000
,
0100
0010
0001
0010
0100
0000
1000
0100
,
0010
0001
0010
0100
1000
0100
0010
0100
,
1000
0100
0010
0001
0010
0100
1000
0010
0100
0001
0100
0010
,
1000
0000
1001
0000
0001
0000
1000
0100
,
0001
0000
1001
0000
1010
0000
1000
0010
,
0001
0000
0101
0000
1010
0000
0010
0100
,
0001
1100
0110
0011
,
1000
0100
0001
0010
1000
0000
0001
0010
,
1000
0000
1001
0000
0101
0000
0001
0100
,
1000
1010
0101
0100
,
1010
1000
1001
0001
,
0101
0100
0110
0010
,
1000
0100
0010
0100
1000
0100
0010
0000
0001
0010
0100
0010
0001
0010
0100
0000
,
1000
0010
1000
0010
1000
0010
1000
0010
1000
0000
0000
0000
0000
0000
0000
0000
,
0001
0010
0100
0010
0001
0010
0100
0000
1000
0100
0010
0100
1000
0100
0010
0000
,
0001
0100
0001
0100
0001
0100
0001
0100
0001
0000
0000
0000
0000
0000
0000
0000
,
1000
0010
0001
0010
1000
0010
0001
0000
1000
0100
0001
0100
1000
0100
0001
0000
,
1000
0001
1000
0001
1000
0001
1000
0001
1000
0000
0000
0000
1001
0000
0000
0000
,
1000
0100
0001
0100
1000
0100
0001
0000
1000
0010
0001
0010
1000
0010
0001
0000
,
1000
0100
0010
0001
1000
0100
1000
0001
,
0010
0100
0010
0001
1000
0100
0010
0100
,
1000
0001
0010
0100
1000
0100
0010
0001
,
1000
0100
1000
0100
1000
0010
1000
0010
,
0001
0100
0001
0100
0001
0010
0001
0010
,
0001
0101
1010
0110
,
1001
1100
0011
0110
,
2002
0000
3003
0000
,
0202
0000
0303
0000
,
2020
0000
3030
0000
,
2002
0000
3003
0000
,
1000
0100
0010
0001
0010
0100
1000
0100
,
0010
0001
0010
0100
1000
0100
0010
0001
,
1000
0000
0000
0000
,
0000
0000
0000
0000
,
0000
0000
0000
0000
,
1001
0110
1001
1100
,
0110
0011
0110
1100
,
1001
1001
1001
1001
,
0110
0110
0110
0110
,
1010
0000
1010
0000
,
0101
0000
0101
0000
,
1001
0000
0000
0000
,
2002
0000
0000
0000
0000
0000
0000
0000
0000
0000
0000
0000
3003
0000
0000
0001
,
2002
0000
0000
3003
,
1001
0000
0000
0000
;

//---------------dance-single - ----------------
#NOTES:
     dance-single:
     :
     Medium:
     6:
     0.321776,0.413761,0.264416,0.176277,0.000000,230.000000,203.000000,27.000000,18.000000,0.000000,0.000000,0.321776,0.413761,0.264416,0.176277,0.000000,230.000000,203.000000,27.000000,18.000000,0.000000,0.000000:
0000
0000
0000
0000
,
2000
0000
0000
3000
0001
0000
0100
0000
,
0002
0000
0003
0010
2000
0000
3000
0100
,
2002
0000
3003
0100
0001
0010
0100
1000
,
2000
0000
0000
0000
,
0000
3000
1000
0001
,
0010
0100
1001
0000
,
0001
0000
1001
0000
,
0010
0000
0100
0000
,
0010
0000
0010
1000
,
0001
0000
1001
0000
,
0001
0000
0101
0000
,
1000
0000
1000
0000
,
0001
0010
0100
1000
,
0001
0100
0010
1000
,
0010
0100
0001
0010
,
0100
1000
0001
0010
,
0100
0010
0100
1000
,
0100
0010
0001
0010
,
0100
1000
0100
0010
,
0100
0001
1000
0100
,
0010
1000
0010
0001
,
0010
1000
0001
0100
,
0001
0010
0100
1000
,
0001
1001
1000
0001
,
1000
0001
0100
0001
,
1000
0010
0001
0100
,
1000
0001
0010
0100
,
0001
0010
1000
0100
,
0101
1000
0010
1000
,
0001
0001
1000
0010
,
0101
0001
1000
1010
,
0010
0110
0100
0101
,
0001
0010
0100
1000
,
0001
1000
0001
0000
,
1000
0100
0010
0001
,
1000
0010
0100
0000
,
0001
0010
0100
1000
,
0001
0100
0010
1000
,
0001
0100
0010
1000
,
0001
1000
0010
0100
,
0001
0010
0100
1000
,
0001
0100
0010
1000
,
0001
1000
0001
1000
,
0010
0100
1000
0100
,
1001
1000
0001
0010
,
1001
0010
0100
0010
,
2002
0000
3003
0000
,
2020
0000
3030
0000
,
0202
0000
0303
0000
,
2002
0000
3003
0000
,
0001
0010
0100
0010
,
0100
1000
0001
0100
,
0001
0000
0000
0000
,
0000
0000
0000
0000
,
0000
0000
0000
0000
,
0101
0100
0001
0010
,
0110
1000
0100
0010
,
1001
0001
0001
0001
,
0110
0010
0010
0010
,
0101
0000
0001
0000
,
1010
0000
0010
0000
,
1001
0000
0000
0000
,
2002
0000
0000
3003
,
2002
0000
0000
3003
,
1001
0000
0000
0000
;

//---------------dance-single - ----------------
#NOTES:
     dance-single:
     :
     Easy:
     3:
     0.176277,0.254622,0.107725,0.137104,0.000000,126.000000,115.000000,11.000000,14.000000,0.000000,0.000000,0.176277,0.254622,0.107725,0.137104,0.000000,126.000000,115.000000,11.000000,14.000000,0.000000,0.000000:
// measure 0
0000
0000
0000
0000
,  // measure 1
0002
0000
0000
0003
0000
0000
0000
0000
,  // measure 2
2000
3000
0002
0003
,  // measure 3
2002
3003
1000
0010
,  // measure 4
0002
0000
0000
0000
,  // measure 5
0000
0003
0001
0000
,  // measure 6
0100
0000
0001
0000
,  // measure 7
1000
0000
0001
0000
,  // measure 8
0100
0000
0010
0000
,  // measure 9
0100
0000
0100
0000
,  // measure 10
1000
0000
0001
0000
,  // measure 11
1000
0000
0010
0000
,  // measure 12
0001
0000
0001
0000
,  // measure 13
1000
0000
0010
0000
,  // measure 14
1000
0000
0100
0000
,  // measure 15
0001
0000
1000
0000
,  // measure 16
0010
0000
1000
0000
,  // measure 17
0010
0000
0100
0000
,  // measure 18
0010
0000
0001
0000
,  // measure 19
0010
0000
1000
0000
,  // measure 20
0010
0000
0100
0000
,  // measure 21
1000
0000
0001
0000
,  // measure 22
0100
0000
1000
0000
,  // measure 23
1000
0000
0010
0000
,  // measure 24
1000
0000
0001
0000
,  // measure 25
0001
0000
0010
0000
,  // measure 26
0001
0000
1000
0000
,  // measure 27
0001
0000
0100
0000
,  // measure 28
1000
0000
0001
0000
,  // measure 29
0010
0000
0100
0000
,  // measure 30
1000
0000
0001
0000
,  // measure 31
0010
0000
0001
0000
,  // measure 32
0100
0000
0010
0000
,  // measure 33
1000
0000
0010
0000
,  // measure 34
1000
0000
1000
0000
,  // measure 35
0001
0000
0100
0000
,  // measure 36
0001
0000
0010
0000
,  // measure 37
1000
0000
0010
0000
,  // measure 38
1000
0000
0100
0000
,  // measure 39
0010
0000
0100
0000
,  // measure 40
0001
0000
0100
0000
,  // measure 41
1000
0000
0010
0000
,  // measure 42
1000
0000
0100
0000
,  // measure 43
0001
0000
1000
0000
,  // measure 44
0100
0000
0001
0000
,  // measure 45
0001
0000
1000
0000
,  // measure 46
0001
0000
0010
0000
,  // measure 47
0002
0000
0003
0000
,  // measure 48
0200
0000
0300
0000
,  // measure 49
0020
0000
0030
0000
,  // measure 50
2000
0000
3000
0000
,  // measure 51
1000
0000
0010
0000
,  // measure 52
0001
0000
0100
0000
,  // measure 53
1000
0000
0000
0000
,  // measure 54
0000
0000
0000
0000
,  // measure 55
0000
0000
0000
0000
,  // measure 56
1001
0000
1000
0000
,  // measure 57
0110
0000
0010
0000
,  // measure 58
1001
0000
0100
0000
,  // measure 59
1001
0000
0001
0000
,  // measure 60
0110
0000
1000
0000
,  // measure 61
0110
0000
0001
0000
,  // measure 62
1001
0000
0000
0000
,  // measure 63
2002
0000
0000
3003
,  // measure 64
2002
0000
0000
3003
,  // measure 65
1001
0000
0000
0000
;
