#TITLE:BRILLIANT STAR ~煌星の雫~;
#SUBTITLE:;
#ARTIST:Shimizushi;
#TITLETRANSLIT:;
#SUBTITLETRANSLIT:;
#ARTISTTRANSLIT:;
#GENRE:;
#CREDIT:;
#BANNER:BRILLIANT STAR.png;
#BACKGROUND:BRILLIANT STAR-BG.png;
#LYRICSPATH:;
#CDTITLE:;
#MUSIC:BRILLIANT STAR.ogg;
#OFFSET:-0.073001;
#SAMPLESTART:79.787003;
#SAMPLELENGTH:24.000000;
#SELECTABLE:YES;
#BPMS:0.000000=140.000000
;
#STOPS:
;
#BGCHANGES:0.000=Brilliant Star.avi=1.000=1=0=1===CrossFade==,
99999=-nosongbg-=1.000=0=0=0 // don't automatically add -songbackground-
;
#KEYSOUNDS:;
#ATTACKS:;

//---------------dance-single - ----------------
#NOTES:
     dance-single:
     :
     Hard:
     11:
     0.581003,0.915587,0.033835,0.033835,0.551518,601.000000,596.000000,5.000000,5.000000,0.000000,0.000000,0.581003,0.915587,0.033835,0.033835,0.551518,601.000000,596.000000,5.000000,5.000000,0.000000,0.000000:
// measure 0
0000
0000
0000
0000
,  // measure 1
0000
0000
0000
0000
,  // measure 2
1000
0000
0100
0000
1000
0000
0001
0000
0010
0000
0001
1000
0000
1000
0001
0000
,  // measure 3
0100
0000
0010
0100
0010
0000
0100
0001
1000
0000
0001
1000
0100
0000
0010
0100
,  // measure 4
0010
0000
1000
0100
1000
0000
0001
0010
0001
0000
0100
0001
0100
0000
0010
1000
,  // measure 5
0010
0000
1000
0100
1000
0000
0001
0010
0001
0000
1000
0100
0010
0100
1000
0100
,  // measure 6
0010
0000
0000
0000
0100
0000
0000
0010
0000
0000
1000
0000
0001
0000
0010
0000
,  // measure 7
0100
0001
0000
0000
1000
0000
0001
0000
0000
1000
0000
0000
0010
0100
0010
0000
,  // measure 8
1000
0001
0000
0000
0001
0000
0000
0010
0000
0000
0100
0000
0010
0000
0001
0000
,  // measure 9
1000
0001
0000
0000
0010
0000
0100
0000
0000
0010
0000
0000
0100
0010
1000
0000
,  // measure 10
0001
0000
1000
0000
0010
0000
0100
0000
0001
0000
0010
0000
0100
0010
0100
0000
,  // measure 11
0001
0000
1000
0010
1000
0000
0001
0000
0100
0000
0010
0000
1000
0010
1000
0000
,  // measure 12
0001
0000
0010
0100
0010
0000
1000
0010
1000
0000
0001
0100
0001
0000
1000
0100
,  // measure 13
0010
0100
1000
0100
0010
0001
0010
0100
0010
0001
0010
0100
2000
0000
0000
0000
,  // measure 14
3001
0100
0010
0100
,  // measure 15
0001
1000
0100
1001
,  // measure 16
0001
0010
0001
0010
,  // measure 17
0100
1000
0010
0100
,  // measure 18
0001
0000
1000
0000
0100
0010
1000
0001
,  // measure 19
0100
0010
0001
0100
,  // measure 20
0010
0000
1000
0000
0001
1000
0010
0100
,  // measure 21
0001
0010
0100
0010
,  // measure 22
1000
0001
0100
0010
,  // measure 23
0100
0001
1000
1010
,  // measure 24
1000
0001
0100
0010
,  // measure 25
0100
1000
0001
0010
,  // measure 26
0001
0000
0100
0000
0010
1000
0100
0010
,  // measure 27
0001
0010
0100
0001
,  // measure 28
0010
0000
0100
0000
1000
0001
0100
0010
,  // measure 29
0002
0000
1003
0010
,  // measure 30
0100
0000
0000
0000
0000
0000
0001
0010
0001
0000
1000
0100
1000
0000
0010
0100
,  // measure 31
0010
0000
0001
0100
0001
0000
1000
0010
1000
0000
0100
0010
0100
0000
0001
0010
,  // measure 32
0001
0000
1000
0100
1000
0000
0010
1000
0010
0000
0100
0001
0100
0000
0010
0100
,  // measure 33
0010
0000
1000
0001
1000
0000
0001
1000
0001
0000
1000
0100
1000
0000
0001
0010
,  // measure 34
0001
0000
0100
0010
0100
0000
1000
0100
1000
0000
0001
0010
0001
0000
1000
0010
,  // measure 35
1000
0000
0001
0100
0001
0000
1000
0100
0010
0000
0001
0010
0100
0000
1000
0010
,  // measure 36
0100
0000
0001
0100
0010
0000
1000
0010
0001
0000
0001
0100
1000
0000
1000
0100
,  // measure 37
1000
0000
0001
0010
0001
0000
0100
0010
0100
0000
0001
0010
0100
0000
0010
0100
,  // measure 38
1000
0000
0000
0000
0001
0000
0010
0000
0100
0000
1000
0000
0010
0100
0000
0000
,  // measure 39
0010
0000
0000
0100
0001
0000
1000
0000
0010
0000
0100
0000
0001
0000
0000
0000
,  // measure 40
1000
0000
0000
0000
0010
0000
0000
0000
0100
0000
0010
0000
0001
1000
0000
0000
,  // measure 41
0100
0000
0000
0010
0100
0000
0001
0000
1000
0000
0001
0100
0001
0000
1000
0010
,  // measure 42
1000
0000
0000
0100
0010
0000
0010
0100
0000
0000
1000
0100
0010
0100
1000
0100
,  // measure 43
0010
0000
0001
0010
0000
0010
0001
0000
0001
0010
0100
0010
0001
0010
0100
0010
,  // measure 44
0001
1000
0010
0100
0001
1000
0100
1000
,  // measure 45
0002
0000
0000
0000
0000
0000
0003
0000
0000
1000
0010
0100
,  // measure 46
0001
0000
1000
0010
,  // measure 47
1010
0001
0100
0010
,  // measure 48
0100
0001
1000
1010
,  // measure 49
0010
0100
0001
0010
,  // measure 50
0001
1000
0010
0100
,  // measure 51
0001
0000
0010
0000
0010
0100
1000
0100
,  // measure 52
0010
0001
1000
0010
,  // measure 53
0100
0000
0001
0000
1000
0010
0100
0010
,  // measure 54
0001
1000
0010
0100
,  // measure 55
0001
0010
0100
0001
,  // measure 56
1000
0010
0100
0101
,  // measure 57
0001
1000
0010
0100
,  // measure 58
0001
0010
0001
1000
,  // measure 59
0100
0000
1000
0000
0010
0100
0010
0001
,  // measure 60
0010
0000
1000
0100
1000
0000
0010
0000
,  // measure 61
0100
0010
0001
1000
0100
1000
0001
0010
,  // measure 62
0001
0010
0001
0010
0001
0000
2000
0000
3010
0000
0100
0000
0010
0100
0010
0100
,  // measure 63
0010
0000
1000
0000
0001
0000
0000
0010
0000
0010
0100
0000
1000
0100
1000
0100
,  // measure 64
1000
0000
0000
0000
0100
0010
0000
0010
0000
0010
0100
0000
0010
0100
0010
0001
,  // measure 65
0010
0000
0000
0100
1000
0000
0001
0000
0010
0100
0000
0000
0010
0100
0010
0001
,  // measure 66
0010
0000
0000
0000
0001
0000
0000
0000
1000
0000
0100
0000
0010
0001
0000
0000
,  // measure 67
0100
0001
0000
0000
1000
0000
0010
0000
0100
0010
0000
0000
0010
0000
0000
0000
,  // measure 68
0100
0010
0000
0100
0001
0000
0000
0001
0000
0001
1000
0000
1000
0100
0000
0000
,  // measure 69
0010
0100
0000
0000
0001
0000
0000
1000
0000
1000
0001
0000
0010
0100
0000
0000
,  // measure 70
0010
0001
1000
0010
,  // measure 71
0100
0010
0000
1000
0000
0000
0001
0000
0001
0100
0000
0000
0100
0010
0100
0010
,  // measure 72
0100
0000
0000
0000
1000
0000
0000
0001
0000
0001
1000
0000
0010
0100
1000
0100
,  // measure 73
0010
0100
0000
0000
0100
0000
0000
0010
0000
0010
0001
0000
1000
0100
1000
0100
,  // measure 74
1000
0100
0000
0000
0010
0000
0000
0000
0100
0000
0000
0010
0000
0000
0001
0000
,  // measure 75
1000
0001
0000
0000
1000
0100
0010
0100
1000
0100
0010
0001
0010
0100
0010
0001
,  // measure 76
0010
0100
1000
0010
0100
0001
0010
0100
1000
0100
0010
0001
0100
0010
1000
0100
,  // measure 77
0010
0001
0010
0100
1000
0010
0100
0001
0010
0100
1000
0100
0010
0100
1000
0100
,  // measure 78
0010
0000
0000
0001
0000
0000
0010
0000
0000
0100
0000
0000
0010
0000
0000
0001
0000
0000
0010
0000
0000
0100
0000
0000
1000
0000
0000
0100
0000
0000
0010
0000
0000
0100
0000
0000
1000
0000
0000
0000
0010
0000
0000
0000
0100
0000
0000
0000
,  // measure 79
0002
0000
0000
0000
,  // measure 80
0000
0000
0000
0000
,  // measure 81
0000
0000
0000
0000
,  // measure 82
0003
0000
0000
0000
;

//---------------dance-single - ----------------
#NOTES:
     dance-single:
     :
     Medium:
     6:
     0.295819,0.277451,0.020301,0.033835,0.000000,306.000000,303.000000,3.000000,5.000000,0.000000,0.000000,0.295819,0.277451,0.020301,0.033835,0.000000,306.000000,303.000000,3.000000,5.000000,0.000000,0.000000:
0000
0000
0000
0000
,
0000
0000
0000
0000
,
1000
0001
0100
1000
,
0010
0001
0010
1000
,
0100
0001
0010
0001
,
1000
0001
0010
0100
,
0001
0100
0010
1000
,
0001
0100
1000
0100
,
1000
0010
0100
0001
,
1000
0100
0001
0010
,
1000
0100
0001
0100
,
0010
1000
0001
1000
,
0010
0001
0100
0010
,
1000
0010
0001
2000
,
3010
0001
0100
0001
,
0010
1000
0001
1000
,
0010
0100
0010
0100
,
0001
1000
0100
0001
,
0010
1000
0001
0100
,
0010
0100
0010
0001
,
0100
1000
0010
1000
,
0001
0100
0001
0100
,
1000
0010
0001
0100
,
0001
0010
1000
0100
,
1000
0010
0001
0100
,
0001
1000
0010
0100
,
0010
0001
0100
1000
,
0010
0100
0001
0010
,
0100
0001
1000
0001
,
0020
0000
1030
0100
,
0001
0100
0010
1000
,
0100
0001
0010
0001
,
0100
1000
0100
0010
,
0001
1000
0010
1000
,
0010
0100
0001
0100
,
0010
0001
0100
1000
,
0100
0001
0010
1000
,
0001
0100
0001
0100
,
1000
0010
0001
1000
,
0100
0010
1000
0010
,
1000
0100
0001
1000
,
0001
0100
0010
0001
,
0100
0001
0100
0001
,
1000
0010
0100
0010
,
0001
1000
0001
0001
,
0020
0000
0030
1100
,
0011
0000
1000
0100
,
1000
0010
0001
0100
,
0001
0010
1000
0100
,
0100
0001
0010
0100
,
0010
1000
0100
0001
,
0010
0100
0100
1000
,
0001
0010
1000
0100
,
0001
0010
1000
0001
,
0100
1000
0100
0001
,
0010
0100
0001
0010
,
1000
0100
0001
0010
,
0010
1000
0100
0001
,
0010
0100
0010
1000
,
0001
1000
0100
0001
,
0010
1000
0001
0100
,
0001
0010
0001
1000
,
0100
0010
2000
3000
,
0100
1000
0100
0001
,
1000
0001
0100
0001
,
0010
1000
0001
0100
,
0010
0010
1000
0010
,
0001
1000
0100
0100
,
0001
0010
0010
1000
,
0100
0010
1000
0001
,
0100
0010
1000
0100
,
0001
1000
0001
0100
,
0001
1000
0010
0100
,
0001
1000
0100
0010
,
0000
0100
0001
0100
,
1010
0001
0100
0010
,
0001
0010
1000
0010
,
1000
0001
0100
0001
,
0100
0010
0100
0001
,
0020
0000
0000
0000
,
0000
0000
0000
0000
,
0000
0000
0000
0000
,
0030
0000
0000
0000
;

//---------------dance-single - ----------------
#NOTES:
     dance-single:
     :
     Easy:
     2:
     0.150809,0.166470,0.000000,0.033835,0.000000,156.000000,156.000000,0.000000,5.000000,0.000000,0.000000,0.150809,0.166470,0.000000,0.033835,0.000000,156.000000,156.000000,0.000000,5.000000,0.000000,0.000000:
0000
0000
0000
0000
,
0000
0000
0000
0000
,
1000
0000
0010
0000
,
0001
0000
0001
0000
,
0010
0000
0001
0000
,
1000
0000
0001
0000
,
0100
0000
0001
0000
,
0100
0000
1000
0000
,
1000
0000
0010
0000
,
1000
0000
0100
0000
,
1000
0000
0100
0000
,
0001
0000
0100
0000
,
0001
0000
0010
0000
,
1000
0000
0100
2000
,
3001
0000
0010
0000
,
0001
0000
0100
0000
,
0001
0000
0001
0000
,
0100
0000
0010
0000
,
0001
0000
0100
0000
,
0001
0000
0001
0000
,
0010
0000
0001
0000
,
0100
0000
0100
0000
,
1000
0000
0100
0000
,
0100
0000
1000
0000
,
1000
0000
0100
0000
,
0100
0000
0001
0000
,
0001
0000
0010
0000
,
0001
0000
0100
0000
,
0010
0000
1000
0000
,
0002
0000
1003
0000
,
0100
0000
0001
0000
,
0010
0000
0001
0000
,
0010
0000
0010
0000
,
0100
0000
0001
0000
,
0001
0000
0100
0000
,
0001
0000
0010
0000
,
0010
0000
0001
0000
,
0100
0000
0100
0000
,
1000
0000
0100
0000
,
0010
0000
1000
0000
,
1000
0000
0100
0000
,
0100
0000
0001
0000
,
0010
0000
0010
0000
,
1000
0000
0010
0000
,
0100
0000
0100
0000
,
0002
0000
0003
1000
,
0100
0000
1000
0000
,
1000
0000
0100
0000
,
0100
0000
1000
0000
,
0010
0000
0001
0000
,
0001
0000
0010
0000
,
0001
0000
0010
0000
,
0100
0000
1000
0000
,
0100
0000
1000
0000
,
0010
0000
0010
0000
,
0001
0000
0100
0000
,
1000
0000
0100
0000
,
0001
0000
0010
0000
,
0001
0000
0001
0000
,
0100
0000
0010
0000
,
0001
0000
0100
0000
,
0100
0000
0100
0000
,
0010
0000
2000
3000
,
0010
0000
0010
0000
,
1000
0000
0010
0000
,
0001
0000
0100
0000
,
0001
0000
1000
0000
,
0100
0000
0010
0000
,
0100
0000
0001
0000
,
0010
0000
1000
0000
,
0010
0000
1000
0000
,
0100
0000
0100
0000
,
0100
0000
0001
0000
,
0100
0000
0010
0000
,
0001
0000
0100
0000
,
1000
0000
0010
0000
,
0100
0000
1000
0000
,
1000
0000
0010
0000
,
0010
0000
0010
0000
,
0002
0000
0000
0000
,
0000
0000
0000
0000
,
0000
0000
0000
0000
,
0003
0000
0000
0000
;
