#TITLE:Blacksphere;
#SUBTITLE:;
#ARTIST:Iriss;
#TITLETRANSLIT:;
#SUBTITLETRANSLIT:;
#ARTISTTRANSLIT:;
#GENRE:;
#CREDIT:;
#BANNER:Blacksphere.png;
#BACKGROUND:Blacksphere-BG.png;
#LYRICSPATH:;
#CDTITLE:;
#MUSIC:Blacksphere.ogg;
#OFFSET:-0.088000;
#SAMPLESTART:1.688000;
#SAMPLELENGTH:24.000000;
#SELECTABLE:YES;
#BPMS:0.000000=150.000000
;
#STOPS:
;
#BGCHANGES:0.000=Blacksphere.avi=1.000=1=0=1===CrossFade==,
99999=-nosongbg-=1.000=0=0=0 // don't automatically add -songbackground-
;
#KEYSOUNDS:;
#ATTACKS:;

//---------------dance-single - ----------------
#NOTES:
     dance-single:
     :
     Hard:
     12:
     0.758110,0.861238,0.237174,0.051882,0.644817,716.000000,684.000000,32.000000,7.000000,0.000000,0.000000,0.758110,0.861238,0.237174,0.051882,0.644817,716.000000,684.000000,32.000000,7.000000,0.000000,0.000000:
0000
0000
0000
0000
,
1001
0000
0000
1000
0001
0000
0000
0000
0101
0000
0000
0100
0010
0000
0000
0000
,
1010
0000
0000
0010
1000
0000
0100
0000
1000
0100
0000
0000
1000
0000
0000
0000
,
1010
0000
0000
0010
0100
0000
0000
0000
0101
0000
0000
0100
0001
0000
0000
0000
,
0011
0000
0000
0000
0000
0000
0000
0000
0000
0010
0000
0000
1000
0000
0000
0000
0000
0000
0001
0000
0000
0000
0000
0000
0100
0000
0000
0010
0000
0000
0000
0000
0000
0000
0000
0000
1000
0000
0000
0000
0100
0000
0000
0000
0010
0000
0000
0000
,
0001
0000
0000
0001
1000
0000
0000
0000
1100
0000
0000
0100
0010
0000
0000
0000
,
0110
0000
0000
0010
0001
0000
1000
0000
0010
0000
0000
0000
0100
0000
0000
0000
,
1001
0000
0000
0001
1000
0000
0000
0000
0110
0000
0000
0010
0100
0000
0000
0000
,
0101
0000
0000
0000
0000
0000
0001
0000
0000
0000
0000
0000
1000
0000
0000
0000
0000
0000
0000
0000
0001
0010
0100
1000
0001
0000
0000
0000
0010
0000
0000
0000
,
0100
0000
0000
0100
0001
0000
1000
0000
0010
0000
0000
0010
1000
0000
0001
0000
,
0100
0000
1000
0100
1000
0000
0010
0000
0100
0010
0000
0010
0001
0000
1000
0000
,
0001
0000
0000
0001
1000
0000
0100
0000
0010
0000
0000
0010
1000
0000
0001
0000
,
0100
0000
0000
0000
0000
0000
1000
0000
0000
0010
0000
0000
1000
0000
0000
0000
0000
0000
0001
0000
0000
0000
0000
0000
0100
0000
0000
0001
0000
0000
0000
0000
0000
1000
0000
0000
0010
0000
0000
0000
0100
0000
0000
0000
0001
0000
0000
0000
,
1000
0000
0100
0000
1000
0000
0010
0000
1000
0000
0100
0010
0001
0000
0100
0000
,
0010
0000
1000
0000
0001
0000
0100
0000
0010
0000
1000
0100
1000
0000
0001
0000
,
1000
0100
0010
0001
0010
0100
0010
0001
0010
0100
1000
0100
0010
0100
1000
0100
,
0010
0000
0000
0001
,
1001
0000
0000
1000
0100
0000
0010
0000
0100
0000
0001
0000
1000
0000
0010
0000
,
0100
0000
0000
0100
0001
0000
0010
0000
1000
0000
0001
0000
0100
0000
0000
0000
,
0010
0000
0000
0010
1000
0000
0001
0000
0100
0000
1000
0000
0001
0000
0010
0000
,
0100
0000
0000
0000
0010
0000
1000
0000
0001
0010
0100
0010
0001
0010
0100
0010
,
0001
0000
0000
0100
1000
0000
0010
0000
0100
0000
0001
0000
1000
0000
0010
0000
,
0001
0000
0000
0001
0010
0000
0100
0000
0010
0000
1000
0000
0100
1000
0100
1000
,
0100
0000
0000
0010
0100
0000
0001
0000
1000
0000
0001
0010
0100
0000
0010
0000
,
2000
0000
0000
0000
3002
0000
0000
0000
1003
0100
1000
0100
0010
0001
0010
0001
,
1000
0100
0010
0000
0001
0010
0100
0010
,
0001
0000
1000
0100
0010
0100
1000
0000
,
0001
0000
0000
0001
1000
0000
0100
0000
0010
0000
0100
0000
0010
0000
0001
0000
,
0010
0000
0100
0010
2000
0000
0000
3001
,
0010
0000
0000
0010
0100
0000
0010
0000
1000
0000
0100
0000
0010
0000
0001
0000
,
1000
0000
0000
1000
0010
0000
0100
0000
0002
0000
0000
0000
0000
0000
1003
0000
,
0100
0000
0000
0010
0000
0000
0100
0000
0001
0010
0100
0010
1000
0000
0001
0100
,
0001
0000
0010
1000
0000
0010
1000
0000
0001
0000
0100
0000
0002
0000
0000
0003
,
1001
0000
1000
0000
0001
1000
0000
0001
1000
0000
0001
1000
0000
0001
1000
0000
,
0001
0000
1000
0000
0001
1000
0000
0001
1000
0000
0001
1000
0000
0001
1000
0001
,
0100
0000
0010
0000
0100
0010
0000
0100
0010
0000
0100
0010
0000
0100
0010
0000
,
0100
0000
0010
0000
0100
0010
0000
0100
0010
0000
0100
0010
0000
0100
0010
0100
,
0001
0000
0100
0000
0001
0100
0000
0001
0100
0000
0001
0100
0000
0001
0100
0001
,
0100
0000
0010
0000
1000
0010
0000
1000
0010
0000
1000
0010
0000
1000
0010
1000
,
0010
0000
0100
0000
0010
0100
0000
0010
0100
0000
0010
0100
0000
0010
0100
0000
,
0001
0010
0100
1000
0010
0100
0001
0010
,
0100
1000
0001
0010
0001
1000
0100
1000
,
0010
0100
0010
0001
0100
0001
1000
0010
,
1000
0100
0010
0001
0100
0010
1000
0001
,
0010
0001
0010
0001
1000
0100
1000
0100
,
1000
0010
0100
0010
0100
0010
1000
0001
,
1000
0001
1000
0010
0100
0001
1000
0100
,
0001
0100
0001
0100
0010
1000
0010
1000
0001
0000
0100
0000
0010
0000
1000
0000
,
0001
0000
0000
0000
,
0000
0000
0000
0000
,
0000
0000
0000
0000
0000
0000
0000
0000
1000
0000
0000
0010
1000
0000
0000
0000
,
0001
0000
0100
0001
0100
0000
0010
0000
1000
0000
0010
1000
0010
0000
0100
0000
,
0002
0000
2003
0000
3001
0000
0010
0100
,
0010
0000
1000
0000
0001
0000
0010
1000
0010
0000
0100
0001
0100
0000
0010
0000
,
1000
0000
0001
0000
0100
0000
0010
0000
0000
1000
0000
0000
0001
0000
0000
0100
0000
0000
1000
0000
0000
0010
0000
0000
,
0001
0000
1000
0100
1000
0100
1000
0100
1000
0000
0001
0010
0001
0010
0001
0010
,
0001
0000
0100
0010
0100
0010
0100
0010
0100
0000
0001
0000
0010
0000
1000
0001
,
1000
0000
0010
0000
0001
0010
0100
0010
,
0001
0000
0000
1000
0000
0001
0010
0100
1000
0000
0010
0000
0100
0000
0001
0000
,
0010
0000
0000
0000
0100
0000
0000
0000
0010
0000
0000
0000
1000
0000
0000
0000
0000
0000
0001
0000
0000
0100
0000
0000
,
0001
0000
1000
0010
1000
0000
0001
0000
0100
0000
0010
0000
1000
0000
0001
0000
,
0010
0000
0000
0000
0100
0000
0000
0000
0100
0010
0100
0000
0001
0000
0100
0000
,
1000
0000
0010
0100
0010
0001
1000
0100
,
1000
0000
0000
0000
0001
0000
0100
0001
0100
0000
0000
0000
0010
0000
0100
0000
,
0001
0010
0001
0010
0100
1000
0100
1000
0001
0010
0100
1000
0100
0010
0001
0010
,
0100
0000
0000
0010
1000
0000
0001
0000
0100
0000
0010
0100
0010
0000
1000
0000
,
0001
0000
0000
0000
0000
0000
1000
0000
0000
0010
0000
0000
1000
0000
0000
0000
0000
0000
0001
0000
0000
0000
0000
0000
0100
0000
0000
0000
0000
0000
0001
0000
0010
0000
0100
0000
1000
0000
0000
0000
0000
0000
0000
0000
0000
0000
0000
0000
,
0001
0000
1000
0100
1000
0000
0010
0000
0100
0000
0001
0010
0001
0000
1000
0000
,
0001
0000
0010
0100
0010
0000
1000
0000
0001
0000
0000
0000
0100
0000
0010
0000
,
1000
0000
0001
0000
0100
0000
0010
1000
0010
0000
0100
0001
0100
0000
0010
0000
,
1000
0000
0100
0000
0010
0000
0001
0000
0000
1000
0000
0000
0001
0000
0000
0000
0000
0000
0100
0000
0000
0000
0000
0000
,
0010
0000
1000
0010
1000
0010
1000
0010
1000
0000
0001
0100
0001
0100
0001
0100
,
0001
0000
1000
0001
1000
0001
1000
0001
1000
0000
0010
0000
0100
0000
0010
0100
,
0010
0000
1000
0000
0001
0100
0010
1000
,
0100
0000
0000
0001
0010
0100
0010
0100
1000
0000
0010
0000
0100
0000
0001
0000
,
1001
1010
0110
0101
,
1001
0000
0000
1010
0000
0000
1100
0000
0000
0001
0100
0010
,
1000
1010
0101
0110
,
1001
0000
0000
0000
1100
0000
0000
0000
0011
0000
0000
0001
1000
0000
0100
0000
,
0010
1000
0010
1000
0010
1000
0010
1000
,
0001
0100
0001
0100
0001
0100
0001
0100
,
0001
0010
0001
0010
0001
0010
0001
0010
0100
1000
0100
1000
0100
1000
0100
1000
,
0000
0000
0101
0000
0000
1010
0000
0000
0101
0000
0000
0110
0000
0000
1001
0000
,
1001
0000
0000
0000
;

//---------------dance-single - ----------------
#NOTES:
     dance-single:
     :
     Medium:
     7:
     0.418231,0.492136,0.096352,0.051882,0.011118,395.000000,382.000000,13.000000,7.000000,0.000000,0.000000,0.418231,0.492136,0.096352,0.051882,0.011118,395.000000,382.000000,13.000000,7.000000,0.000000,0.000000:
0000
0000
0000
0000
,
0101
0001
0011
1000
,
1100
0100
0100
0100
,
1100
0010
0011
0001
,
1001
0100
0010
0100
,
0001
0100
0110
1000
,
1010
0001
1000
0010
,
0101
0100
1010
0010
,
0011
0000
0000
0001
,
0010
0001
1000
0100
,
0010
0100
0010
0001
,
0001
0100
1000
0100
,
0010
0100
0010
1000
,
0100
0100
0100
0001
,
1000
0001
0000
0100
,
0100
0010
1000
0001
1000
0100
1000
0100
,
1000
0000
0000
0001
,
0101
0010
0010
0100
,
0010
0001
0100
0010
,
1000
0100
0010
0001
,
0010
0000
1000
0000
0001
0010
0001
0010
,
0001
0100
0010
0100
,
0001
0000
1000
0000
1000
0000
0010
0100
,
0010
0010
0100
0010
,
0200
0000
0302
0000
0103
0010
1000
0001
,
0100
1000
0001
0010
,
0001
0100
1000
0100
,
0001
0100
1000
1000
,
1000
0000
0010
0000
0200
0000
0000
0300
,
1000
0010
0100
1000
,
0100
0000
1000
0000
0002
0000
0000
0003
,
0010
0000
0000
0000
0001
0010
0100
1000
,
0001
0000
1000
0000
0000
0010
0000
0000
0001
0000
0000
0000
0002
0000
0000
0003
,
0101
0100
0001
0000
0100
0001
0000
0100
,
0001
0100
0001
0000
0100
0001
0000
0100
,
0010
1000
0010
0000
1000
0010
0000
1000
,
0010
1000
0010
0000
1000
0010
0000
1000
,
0001
0010
0001
0000
0010
0001
0000
0010
,
0010
1000
0100
0000
1000
0100
0000
1000
,
1000
0010
1000
0000
0010
1000
0000
0010
,
0001
0010
1000
0001
,
0010
0001
0001
0010
,
1000
1000
0010
0100
,
0100
1000
0010
0100
,
1000
1000
0100
0100
,
0100
0010
0010
0100
,
0100
0100
0010
0100
,
0001
1000
0010
0100
0001
0000
1000
0000
,
0001
0000
0000
0000
,
0000
0000
0000
0000
,
0000
0000
0100
0100
,
0001
0010
0010
0000
0100
1000
1000
0000
,
0002
0203
0301
1000
,
1000
0000
0001
1000
1000
0010
0010
0000
,
0100
1000
0001
0100
,
0001
0010
0100
0010
0100
1000
0001
1000
,
0001
1000
0010
1000
0010
0000
1000
0100
,
0100
1000
0001
0010
,
0001
0000
0100
1000
0100
0000
0010
0000
,
1000
0001
0100
0001
,
0001
0100
0100
0000
0010
0000
0100
0000
,
1000
0000
0010
0000
0010
1000
0001
0000
,
0100
1000
1000
0100
,
0100
0000
0001
0010
0010
0000
1000
0000
,
0001
1000
0010
0100
0001
1000
0010
0100
,
0010
0000
0100
0001
0010
1000
1000
0000
,
0001
0100
0100
0001
0010
0001
0100
0000
,
0001
0100
0100
0000
0010
0001
0001
0000
,
0001
1000
1000
0000
0001
0000
0010
0000
,
0100
0000
0010
1000
1000
0010
0010
0000
,
0100
0001
0001
0010
,
1000
0010
0100
0010
0100
1000
0001
1000
,
0001
1000
0100
1000
0100
0000
0010
1000
,
1000
0100
0001
1000
,
0010
0000
1000
0010
0100
0000
0010
0000
,
0100
1000
0010
0001
,
0100
1000
0100
0001
,
0100
1000
0010
1000
,
0001
0100
1000
0100
,
1000
1000
1000
1000
,
0001
0001
0001
0001
,
0001
1000
0001
1000
0010
0100
0010
0100
,
0000
0000
0010
0000
0000
0100
0000
0000
0001
0000
0000
1000
0000
0000
0100
0000
,
0001
0000
0000
0000
;

//---------------dance-single - ----------------
#NOTES:
     dance-single:
     :
     Easy:
     4:
     0.221292,0.276827,0.000000,0.037058,0.000000,209.000000,209.000000,0.000000,5.000000,0.000000,0.000000,0.221292,0.276827,0.000000,0.037058,0.000000,209.000000,209.000000,0.000000,5.000000,0.000000,0.000000:
// measure 0
0000
0000
0000
0000
,  // measure 1
1000
0000
0100
0000
,  // measure 2
0010
0000
1000
0000
,  // measure 3
0010
0000
0001
0000
,  // measure 4
0010
0000
0100
0000
,  // measure 5
0001
0000
1000
0000
,  // measure 6
0010
0000
0010
0000
,  // measure 7
0001
1000
0000
0100
,  // measure 8
0000
0000
0000
0001
,  // measure 9
0000
0001
0000
1000
,  // measure 10
0000
1000
0000
0001
,  // measure 11
0000
1000
0000
1000
,  // measure 12
0000
1000
0000
0010
,  // measure 13
0000
1000
0000
0001
,  // measure 14
0000
0001
0000
1000
,  // measure 15
1000
0010
0010
0010
,  // measure 16
0010
0000
0000
0001
,  // measure 17
0000
0100
0000
1000
,  // measure 18
0000
0001
0000
0100
,  // measure 19
0000
1000
0000
0001
,  // measure 20
0000
0010
0001
0001
,  // measure 21
0001
1000
0000
1000
,  // measure 22
0000
0010
0000
0100
,  // measure 23
0100
0000
1000
0000
,  // measure 24
0002
0000
1003
0010
,  // measure 25
1000
0000
0001
0000
,  // measure 26
0001
0000
0010
0000
,  // measure 27
0001
0000
0010
0000
,  // measure 28
0010
0000
0000
0000
2000
0000
0000
3000
,  // measure 29
0010
0000
1000
0000
,  // measure 30
1000
0000
0000
0000
0002
0000
0000
0003
,  // measure 31
0100
0000
0001
1000
,  // measure 32
0001
0000
0000
0000
0000
0000
0000
0000
0001
0000
0000
0000
0002
0000
0000
0003
,  // measure 33
1000
0001
1000
0000
,  // measure 34
0001
0001
1000
0000
,  // measure 35
0100
0100
0010
0000
,  // measure 36
0100
0100
0010
0000
,  // measure 37
0001
0001
0100
0000
,  // measure 38
0100
1000
0010
0000
,  // measure 39
0010
0010
0100
0000
,  // measure 40
0001
0100
0000
0001
,  // measure 41
0000
0001
0000
0100
,  // measure 42
0000
0010
0000
1000
,  // measure 43
0000
0010
0000
1000
,  // measure 44
0000
0010
0000
1000
,  // measure 45
0000
0100
0000
1000
,  // measure 46
0000
1000
0000
1000
,  // measure 47
0001
0100
0001
0000
,  // measure 48
0001
0000
0000
0000
,  // measure 49
0000
0000
0000
0000
,  // measure 50
0000
0000
1000
0000
,  // measure 51
0001
0100
1000
0010
,  // measure 52
2000
0000
3000
0010
,  // measure 53
0000
0001
0010
0100
,  // measure 54
0000
0010
0000
1000
,  // measure 55
0001
1000
1000
0001
,  // measure 56
0001
0100
0100
0010
,  // measure 57
1000
0000
0001
0000
,  // measure 58
0001
1000
1000
0000
,  // measure 59
0010
0000
1000
0000
,  // measure 60
0001
1000
0100
0000
,  // measure 61
0010
0000
0100
0001
,  // measure 62
1000
0000
0010
0000
,  // measure 63
1000
0001
0100
0010
,  // measure 64
0001
0100
0001
0100
,  // measure 65
0100
1000
0100
0010
,  // measure 66
0001
1000
0100
1000
,  // measure 67
0001
1000
0100
0001
,  // measure 68
0001
0010
0001
0000
,  // measure 69
1000
0100
0010
0100
,  // measure 70
1000
0000
0001
0000
,  // measure 71
0010
1000
1000
0001
,  // measure 72
0001
1000
1000
0100
,  // measure 73
0010
0000
0001
0000
,  // measure 74
0100
0010
1000
0100
,  // measure 75
0000
0010
0000
0001
,  // measure 76
0000
0010
0000
0001
,  // measure 77
0000
0010
0000
0010
,  // measure 78
0000
1000
0000
1000
,  // measure 79
0000
0010
0000
0010
,  // measure 80
0000
0001
0000
0001
,  // measure 81
0001
0001
0100
0100
,  // measure 82
0000
0100
0000
0000
0001
0000
0000
1000
,  // measure 83
0001
0000
0000
0000
;
