#VERSION:0.83;
#TITLE:Battle on the 48 Bars;
#SUBTITLE:;
#ARTIST:Asahi vs Miller;
#TITLETRANSLIT:;
#SUBTITLETRANSLIT:;
#ARTISTTRANSLIT:;
#GENRE:;
#ORIGIN:;
#CREDIT:;
#BANNER:Battle on the 48 Bars.png;
#BACKGROUND:Battle on the 48 Bars-BG.png;
#PREVIEWVID:;
#JACKET:Battle on the 48 Bars-Jacket.png;
#CDIMAGE:;
#DISCIMAGE:;
#LYRICSPATH:;
#CDTITLE:;
#MUSIC:Battle on the 48 Bars.ogg;
#OFFSET:-2.409000;
#SAMPLESTART:11.585000;
#SAMPLELENGTH:24.000000;
#SELECTABLE:YES;
#BPMS:0.000=85.000;
#STOPS:;
#DELAYS:;
#WARPS:;
#TIMESIGNATURES:0.000=4=4;
#TICKCOUNTS:0.000=4;
#COMBOS:0.000=1;
#SPEEDS:0.000=1.000=0.000=0;
#SCROLLS:0.000=1.000;
#FAKES:;
#LABELS:0.000=Song Start;
#BGCHANGES:-1.000=Battle on the 48 Bars.avi=1.000=1=0=1===CrossFade==,
99999=-nosongbg-=1.000=0=0=0 // don't automatically add -songbackground-
;
#KEYSOUNDS:;
#ATTACKS:
;

//---------------dance-single - ----------------
#NOTEDATA:;
#CHARTNAME:;
#STEPSTYPE:dance-single;
#DESCRIPTION:;
#CHARTSTYLE:;
#DIFFICULTY:Hard;
#METER:9;
#RADARVALUES:0.811117,0.831094,0.014071,0.070357,1.727268,807.000000,805.000000,2.000000,10.000000,0.000000,0.000000,0.000000,0.000000,0.000000,0.811117,0.831094,0.014071,0.070357,1.727268,807.000000,805.000000,2.000000,10.000000,0.000000,0.000000,0.000000,0.000000,0.000000;
#CREDIT:;
#NOTES:
// measure 0
1000
0000
0000
0000
0000
0000
0000
0000
0001
0000
0000
0000
0000
0000
0000
0000
0010
0000
0000
0000
1000
0000
0001
0100
0001
0100
0001
0100
0001
0000
1000
0010
,  // measure 1
1000
0010
1000
0010
1000
0000
1010
0000
1000
0000
0000
0000
0000
0000
0000
0000
0001
0000
0000
0000
0000
0000
0000
0000
0000
0000
0000
0000
0000
0000
0000
0000
,  // measure 2
0010
0000
0000
0000
0000
0000
0000
0000
0100
0000
0000
0000
0000
0000
0000
0000
0010
0000
0000
0000
1000
0100
0010
0100
1000
0100
0010
0001
0010
0100
0010
0001
,  // measure 3
0010
0100
1000
0100
0010
0001
0010
0000
0001
0000
0000
0000
0000
0000
0000
0000
1000
0000
0000
0000
0010
0100
0010
0100
0000
0000
0100
0000
0000
0000
0001
0000
,  // measure 4
1000
0100
0010
0001
0000
0010
0000
0100
1000
0000
0000
0000
0000
0000
0000
0000
1000
0000
0000
0000
0010
0000
0100
0010
0001
0010
0100
0010
0001
0000
1000
0100
,  // measure 5
0010
0100
1000
0100
0010
0000
0100
0000
0001
0000
0000
0000
0000
0000
0000
0000
1000
0000
0000
0000
0001
0100
0001
0100
0000
0000
0001
0000
0010
1000
0010
1000
,  // measure 6
0000
0000
0000
0000
0010
0000
0000
0000
1000
0100
0010
0001
0000
0000
0000
0000
0001
0010
0100
1000
0000
0000
0010
0000
0001
0000
1000
0000
0100
0000
0010
0000
0000
0000
0100
0000
0000
0000
0010
0000
0000
0000
0001
0000
0000
0000
1000
0000
0100
0000
1000
0000
0100
0000
0010
0000
0001
0000
0010
0000
0001
0000
0000
0000
,  // measure 7
1000
0100
0010
0001
0010
0100
1000
0000
0001
0000
0000
0000
0010
0100
0010
0100
0000
0000
0010
0000
1000
0000
0001
0000
0100
0000
0010
0000
1000
0010
1000
0010
,  // measure 8
0000
0000
0000
0000
0100
0000
0010
0000
0001
0000
0000
0000
1000
0000
0000
0000
0010
0000
0000
0000
1000
0100
0010
0001
0000
0000
0010
0000
1000
0000
0010
0000
1000
0000
0000
0000
0001
0000
0000
0000
0100
0000
0001
0000
0100
0000
0001
0000
0100
0000
0000
0000
0010
0000
0000
0000
0001
0000
0010
0000
0100
0000
1000
0000
,  // measure 9
0100
0000
0010
0000
0001
0010
0001
0000
1000
0000
0000
0000
0010
1000
0010
1000
0010
0000
0001
0000
0010
0000
0100
0000
1000
0000
0001
0000
0100
0010
0100
1000
,  // measure 10
0100
0000
0000
0000
0001
0000
0100
0000
0001
0000
0000
0000
1000
0000
0000
0000
0010
0000
0000
0000
0001
0010
0100
1000
0000
0000
0010
0000
1000
0000
0010
0000
1000
0000
0000
0000
0001
0000
0000
0000
0001
0010
0100
1000
0000
0000
0001
0000
0100
0000
0000
0000
0010
0000
0000
0000
1000
0100
0010
0001
0000
0000
0010
0000
,  // measure 11
0100
0000
0001
0010
0001
0000
1000
0000
0010
0000
0000
0000
1000
0100
1000
0100
1000
0000
0001
0000
0010
0001
0010
0001
0010
0000
0100
0000
1000
0010
1000
0010
,  // measure 12
1000
0000
0000
0000
0001
0000
0100
0000
0001
0000
0000
0000
0010
0000
0000
0000
0100
0000
0000
0000
1000
0100
0010
0001
0000
0000
0010
0000
1000
0000
0000
0000
0010
0000
0000
0000
0100
0000
0000
0000
0001
0010
0100
1000
0000
0000
0000
0000
0001
0000
0000
0000
0000
0000
0000
0000
1000
0100
0010
0001
0000
0000
0000
0000
,  // measure 13
1000
0000
0000
0000
0000
0000
0100
0000
0000
0000
0000
0000
1000
0000
0000
0000
0000
0000
0000
0000
0000
0000
0000
0000
0001
0000
0000
0000
0000
0000
0000
0000
0000
0000
0000
0000
0010
0000
0000
0000
0000
0000
0000
0000
0000
0000
0000
0000
0100
0000
0000
0000
0000
0000
0000
0000
0000
0000
0000
0000
0000
0000
0000
0000
0000
0000
0000
0000
0000
0000
0000
0000
1000
0000
0000
0100
0000
0000
0010
0000
0000
0001
0000
0000
0000
0000
0000
0000
0000
0000
0000
0000
0000
0000
0000
0000
0010
0000
0000
0000
0000
0000
0000
0000
0000
0000
0000
0000
0000
0000
0000
0000
0000
0000
0000
0000
0000
0000
0000
0000
0100
0000
0000
0000
0000
0000
0000
0000
0000
0000
0000
0000
0000
0000
0000
0000
0000
0000
0000
0000
0000
0000
0000
0000
0010
0000
0000
0000
0000
0000
0000
0000
1000
0000
0000
0000
0000
0000
0000
0000
0100
0000
0000
0000
0000
0000
0000
0000
0010
0000
0000
0000
0000
0000
0000
0000
0001
0000
0000
0000
0000
0000
0000
0000
0000
0000
0000
0000
0000
0000
0000
0000
,  // measure 14
1000
0100
1000
0100
1000
0000
0001
0000
0010
0000
0100
0000
1000
0010
1000
0000
0001
0000
0100
0000
0010
0100
0010
0000
2000
0000
0000
0000
0000
0000
0000
0000
,  // measure 15
0000
0000
0000
0000
3001
0000
0000
0000
1000
0000
0000
0000
0010
0000
0000
0000
0100
0000
0000
0000
0001
0010
0001
0000
1000
0000
0010
0000
0100
0000
0001
0000
,  // measure 16
0010
0000
1000
0000
0100
0000
1000
0000
0010
0000
0000
0000
0100
0000
0000
0000
0001
0000
0000
0000
1000
0100
1000
0000
0100
0000
0010
0000
0001
0000
1000
0000
,  // measure 17
0100
0000
1000
0000
0001
0000
0010
0000
0100
0000
0000
0000
0010
0000
0000
0000
1000
0000
0000
0000
0001
0010
0001
0000
0100
0000
1000
0000
0001
0000
0010
0000
,  // measure 18
1000
0100
0001
0010
1000
0000
1000
0001
0000
0001
0100
0010
1000
0100
1000
0001
,  // measure 19
0010
0000
0001
0000
1000
0000
0010
0000
0200
0000
0000
0000
0000
0000
0000
0000
0310
0000
0000
0000
0100
0001
0100
0000
0010
0000
1000
0000
0001
0000
0100
0000
,  // measure 20
0010
0000
0100
0000
1000
0000
0001
0000
0010
0000
0000
0000
0100
0000
0000
0000
0001
0000
0000
0000
1000
0010
1000
0000
0001
0000
0100
0000
0010
0000
1000
0000
,  // measure 21
0100
0000
0010
0000
0001
0000
0010
0000
0100
0000
0000
0000
0010
0000
0000
0000
1000
0000
0000
0000
0010
1000
0100
0000
0001
0000
0010
0000
0001
0000
1000
0000
,  // measure 22
0100
1000
0001
0010
0100
0000
0010
1000
0000
1000
0001
0100
0010
1000
0100
1000
,  // measure 23
0001
0010
0001
1000
0001
1000
0000
0010
0000
0100
0010
0001
0000
1000
0100
0010
,  // measure 24
0000
0000
0100
0000
0000
0000
0001
0000
0010
0000
0000
0000
0100
0000
1000
0000
0000
0000
0010
0001
0010
0000
0100
0000
0000
0100
0010
0100
0000
0000
0001
0000
,  // measure 25
1000
0000
0000
0000
0010
0000
0000
0000
0100
0000
0000
0000
0010
0000
0000
0000
0001
0000
0000
0000
0000
0000
0000
0000
0000
0000
0000
0000
0000
0000
0000
0000
1000
0000
0100
0000
1000
0000
0100
0000
1000
0000
0000
0000
0000
0001
0010
0100
1000
0000
0000
0000
0000
0000
0000
0000
1000
0100
0010
0001
0000
0000
0000
0000
,  // measure 26
0100
0000
0000
0000
0010
0100
0010
0100
0010
0000
0000
0000
0000
0000
0000
0000
0010
0000
0000
0000
1000
0000
0001
0100
0001
0100
0001
0100
0000
0010
1000
0010
,  // measure 27
1000
0010
1000
0000
0001
0000
0100
0000
0010
0000
1000
0000
0000
0000
1000
0000
0000
0000
0100
0000
0010
0000
0001
0000
0000
0000
1000
0000
0010
0000
0200
0000
,  // measure 28
0000
0320
0000
1030
0001
0000
0100
0020
0000
2030
0000
3001
0000
0010
0100
0010
,  // measure 29
0001
0000
0010
0000
0100
0000
1000
0000
0100
0010
0100
0010
0100
0000
0001
1000
0001
0000
1000
0000
0000
0000
1000
0100
0010
0100
1000
0000
0001
0000
0000
0000
,  // measure 30
0010
0000
0000
0000
0100
0000
0000
0000
0010
0000
1000
0100
1000
0000
0010
0001
0010
0000
1000
0000
0100
0000
0010
0000
0001
0000
0100
0000
0010
0000
1000
0000
,  // measure 31
0100
0010
0001
0100
1000
0010
0000
0100
0000
0001
0010
0100
0000
1000
0100
1000
,  // measure 32
0001
0000
0010
0000
0001
0000
2000
0000
0000
0000
3001
0010
0001
0000
1000
0000
0010
0000
0100
0000
0001
0000
0010
0100
0010
0000
1000
0100
1000
0000
0001
0000
,  // measure 33
0010
0000
0100
0000
1000
0000
0100
0000
0010
0000
0000
0000
0010
0100
0010
0100
0010
0000
1000
0000
0001
0010
0001
0000
0100
0000
0010
0000
0100
0000
1000
0000
,  // measure 34
0001
0000
0010
0000
0100
0000
0010
0000
0001
0000
1000
0100
1000
0100
1000
0000
0001
0000
0010
0000
1000
0100
1000
0000
0010
0000
0100
0000
0001
0000
1000
0000
,  // measure 35
0010
0100
0001
0010
1000
0100
0000
0100
0000
0010
0001
1000
0000
0100
1000
0001
,  // measure 36
0010
0000
0100
0000
0010
0000
0002
0000
0000
0000
1003
0000
0001
0000
0010
0000
0100
0000
1000
0000
0010
0000
0200
0000
0000
0000
0310
0100
0010
0000
1000
0000
,  // measure 37
0001
0000
0100
0000
0010
0000
1000
0000
0001
0000
0010
0100
0010
0100
0010
0000
1000
0000
0001
0000
0100
0010
0100
0000
1000
0000
0100
0000
1000
0000
0001
0000
,  // measure 38
0010
0000
0001
0000
1000
0000
0100
0000
0010
0000
0001
0010
0001
0010
0001
0000
1000
0000
0100
0000
1000
0001
1000
0000
0010
0000
0100
0000
0001
0000
1000
0000
,  // measure 39
0100
0000
1000
0000
0001
0000
0010
0000
0001
0000
0010
0100
0010
0100
0010
0000
1000
0000
0001
1000
0001
0000
0010
0000
0100
0000
0001
0000
1000
0000
0100
0000
,  // measure 40
0020
0000
0000
0000
0000
0000
0000
0000
1030
0100
1000
0100
1000
0000
0001
0000
0010
0000
0000
0000
0010
0000
1000
0100
1000
0000
0010
0000
1000
0000
0001
0000
,  // measure 41
0100
0010
0100
0000
0010
0000
0000
0000
1000
0100
1000
0100
1000
0100
1000
0100
0000
0000
0010
0000
0001
0000
0001
0100
0001
0100
0001
0100
0001
0000
1000
0010
,  // measure 42
1000
0010
1000
0010
1000
0000
0001
0000
0100
0000
0000
0000
0010
0000
0100
0010
0100
0000
0001
0000
1000
0000
0100
0000
0010
0100
1000
0001
0010
0000
0100
0000
,  // measure 43
1000
0000
0100
0000
0010
0000
0100
0000
0001
0000
0000
0000
0000
0000
0000
0000
1000
0100
1000
0100
1000
0000
0001
0000
0100
0010
0100
0000
0010
0000
1000
0001
,  // measure 44
1000
0000
0000
0000
0001
0000
0000
0000
1000
0010
1000
0010
1000
0000
0001
0000
0100
0001
0100
0001
0100
0000
0010
0100
0010
0000
1000
0001
1000
0000
0001
0100
,  // measure 45
0001
0000
1000
0010
1000
0000
0000
0000
1000
0010
0100
0001
0000
0000
0001
0010
0100
1000
0000
0000
0010
0100
0010
0100
0001
1000
0001
1000
0000
0000
1000
0100
,  // measure 46
1000
0100
0000
0000
0010
0000
0000
0000
0001
0010
0001
0010
0000
0000
0100
0010
0100
0010
0000
0000
1000
0100
1000
0100
0010
0001
0010
0001
0000
0000
1000
0001
,  // measure 47
1000
0001
0000
0000
0000
0000
0000
0000
1001
0000
0000
0000
0000
0000
0000
0000
0000
0000
0000
0000
0000
0000
0000
0000
0000
0000
0000
0000
0000
0000
0000
0000
;

//---------------dance-single - ----------------
#NOTEDATA:;
#CHARTNAME:;
#STEPSTYPE:dance-single;
#DESCRIPTION:;
#CHARTSTYLE:;
#DIFFICULTY:Medium;
#METER:5;
#RADARVALUES:0.249265,0.282572,0.007036,0.000000,0.035179,248.000000,247.000000,1.000000,0.000000,0.000000,0.000000,0.000000,0.000000,0.000000,0.249265,0.282572,0.007036,0.000000,0.035179,248.000000,247.000000,1.000000,0.000000,0.000000,0.000000,0.000000,0.000000,0.000000;
#CREDIT:;
#NOTES:
1000
0001
0100
0001
,
0010
0010
0100
0000
0010
0000
1000
0000
,
0001
0000
0000
0000
1000
0000
0000
0000
0010
0000
0000
0000
0000
0000
0001
1000
,
0010
0100
0010
1000
0001
0000
0000
0000
0100
0000
0000
0000
0001
0000
0000
0000
,
0010
0000
0000
0000
1000
0000
0000
0000
0010
0000
0000
0000
0000
0001
1000
0000
,
0001
1000
0000
0001
1000
0000
0000
0000
0010
0000
0000
0000
0100
0000
0000
0000
,
0001
0010
1000
0010
,
0100
0001
0010
0100
,
1000
0010
0001
0100
,
0010
0000
0000
0001
1000
0000
0000
0000
0001
0000
0000
0000
0100
0000
0000
0000
,
0010
0100
1000
0001
,
0010
0000
0000
0100
0001
0000
0000
0000
0100
0000
0000
0000
0010
0000
0000
0000
,
1000
0000
0000
1000
0001
0000
0000
0000
0100
0000
0000
0000
0001
0000
0000
0000
,
1000
0000
0000
0100
0010
0000
0000
0000
1000
0000
0000
0000
0100
0000
0000
0000
,
0010
0100
0001
1000
,
0001
0000
0010
0000
0100
0000
0010
0001
,
1000
0000
0100
0000
0001
0000
0010
0100
,
0010
0000
1000
0000
0001
0000
0100
0010
,
0100
0000
0001
0000
1000
0001
1000
0000
,
0010
0000
0100
0000
0010
0000
1000
0010
,
0001
0000
0010
0000
0100
0000
0010
1000
,
0010
0100
0010
0000
0001
0000
0100
0010
,
0100
0000
1000
0000
0001
0010
0100
0000
,
0001
0000
1000
0000
0010
0000
0100
0010
,
0100
0000
0010
0000
1000
0000
0001
0100
,
0001
0000
0010
0000
0100
0000
0001
1000
,
0001
0000
0010
0000
0100
0000
0010
0100
,
0010
0000
1000
0000
0010
0000
0100
1000
,
0100
0000
0001
0000
0100
0000
0001
0100
,
0010
0100
1000
0000
0010
0000
0100
0010
,
1000
0000
0001
0000
0100
0000
0010
1000
,
0010
0100
0010
1000
0001
0100
1000
0001
,
0010
0001
0100
0010
1000
0001
0100
0010
,
0100
0001
0010
0000
1000
0000
0010
0000
,
0100
0000
0001
0000
1000
0100
0010
0001
,
0010
0000
1000
0010
0100
0001
1000
0100
,
1000
0001
0010
0001
0100
0010
0100
0001
,
1000
0001
1000
0000
0010
0000
0100
0000
,
0001
1000
0010
0001
,
0100
0010
1000
0001
,
1000
0010
0100
0000
0010
0000
0001
0010
,
0001
0000
0100
0000
0010
0000
1000
0100
,
0010
0000
0001
0000
0100
0100
0000
0010
,
0001
0000
0010
0000
1000
0000
0001
0100
,
0001
0000
0010
0000
1000
0000
0001
0100
,
0010
0000
1000
0000
0100
0000
0010
0100
,
0001
0000
0010
0000
0100
0000
0001
1000
,
0010
1001
0000
0000
;

//---------------dance-single - ----------------
#NOTEDATA:;
#CHARTNAME:;
#STEPSTYPE:dance-single;
#DESCRIPTION:;
#CHARTSTYLE:;
#DIFFICULTY:Easy;
#METER:2;
#RADARVALUES:0.123628,0.149597,0.000000,0.000000,0.000000,123.000000,123.000000,0.000000,0.000000,0.000000,0.000000,0.000000,0.000000,0.000000,0.123628,0.149597,0.000000,0.000000,0.000000,123.000000,123.000000,0.000000,0.000000,0.000000,0.000000,0.000000,0.000000,0.000000;
#CREDIT:;
#NOTES:
0000
0010
0000
0000
,
0000
1000
0000
0000
,
0000
0100
0000
0000
,
0000
0010
0000
0000
,
0000
0100
0000
0000
,
0000
0100
0000
0000
,
0000
0001
0000
0000
,
0000
0010
0000
0000
,
0000
0001
0010
0000
,
0000
0100
0010
0000
,
0000
1000
0100
0000
,
0000
0010
1000
0000
,
0000
0010
1000
0000
,
0000
0001
0100
0000
,
0000
1000
0010
0100
,
0010
0001
1000
0000
,
0100
1000
0010
0001
,
0000
0100
0010
1000
,
0000
0010
0100
0000
,
0001
1000
0001
0100
,
0000
0001
0000
0001
,
0000
0001
0010
1000
,
0000
0100
0010
0000
,
0010
0100
0000
1000
,
0000
0001
0100
0010
,
0000
0001
1000
0010
,
0000
0001
1000
0001
,
0000
0100
0001
1000
,
0000
0010
1000
0010
,
0000
0100
0001
1000
,
0000
0010
1000
0001
,
0000
0001
0010
0100
,
0001
0010
0100
0001
,
1000
0010
0100
0000
,
1000
0010
0100
0001
,
0001
0100
1000
0100
,
0100
0001
1000
1000
,
0100
0100
0000
1000
,
0000
0100
0000
0010
,
0000
0001
0100
0010
,
0100
1000
0001
0010
,
0000
1000
0001
0000
,
0001
0010
1000
0000
,
0010
0001
0100
0000
,
0010
0001
0100
0000
,
0001
0100
1000
0000
,
0010
0001
1000
0000
,
0001
0010
0000
0000
;
