#TITLE:BPM160の練習曲;
#SUBTITLE:;
#ARTIST:Alice.;
#TITLETRANSLIT:BPM160 Études;
#SUBTITLETRANSLIT:;
#ARTISTTRANSLIT:;
#GENRE:;
#CREDIT:;
#BANNER:BPM160.png;
#BACKGROUND:BPM160-BG.png;
#LYRICSPATH:;
#CDTITLE:;
#MUSIC:BPM160.ogg;
#OFFSET:-1.533000;
#SAMPLESTART:43.533001;
#SAMPLELENGTH:24.000000;
#SELECTABLE:YES;
#BPMS:0.000000=160.000000
;
#STOPS:
;
#BGCHANGES:;
#KEYSOUNDS:;
#ATTACKS:;

//---------------dance-single - ----------------
#NOTES:
     dance-single:
     :
     Hard:
     11:
     0.714008,0.808424,0.129579,0.370226,0.222136,540.000000,526.000000,14.000000,40.000000,0.000000,0.000000,0.714008,0.808424,0.129579,0.370226,0.222136,540.000000,526.000000,14.000000,40.000000,0.000000,0.000000:
// measure 0
0000
0000
0000
0000
,  // measure 1
0000
0000
0000
0000
,  // measure 2
0000
0000
0000
0000
,  // measure 3
0000
0000
0000
0000
,  // measure 4
1000
0100
0010
0100
1000
0001
0100
0010
,  // measure 5
1000
0001
0100
0001
1000
0002
2000
3003
,  // measure 6
1000
0100
0010
0001
1000
0010
0100
0001
,  // measure 7
0010
0100
1000
0001
1000
0010
0220
0330
,  // measure 8
0100
0001
1000
0001
0100
0010
0001
1000
,  // measure 9
0100
0010
0001
0010
0100
0020
0200
0330
,  // measure 10
0100
0001
1000
0010
0100
1000
0001
0010
,  // measure 11
1000
0001
0100
0010
0100
1000
2002
3003
,  // measure 12
0010
1000
0001
1000
0010
0100
1000
0001
,  // measure 13
0010
0100
1000
0100
0010
0200
0020
0330
,  // measure 14
0010
1000
0001
0100
0010
0001
1000
0100
,  // measure 15
0001
1000
0010
0100
0010
0001
2002
3003
,  // measure 16
0001
0010
0100
0010
0001
1000
0010
0100
,  // measure 17
0001
1000
0010
1000
0001
2000
0002
3003
,  // measure 18
0001
0010
0100
1000
0001
0100
0010
0100
,  // measure 19
1000
0100
0010
0001
1000
0100
0010
0001
1000
0000
0001
0000
0220
0000
0330
0000
,  // measure 20
1000
0000
0010
0000
1000
0100
1000
0100
1000
0000
0010
0000
0100
0010
0100
0010
,  // measure 21
0100
0001
0010
0100
1000
0001
0010
0100
,  // measure 22
0001
0000
0100
0000
0001
0010
0001
0010
0001
0000
0100
0000
0010
0100
0010
0100
,  // measure 23
0010
1000
0100
0010
0001
1000
0100
0010
,  // measure 24
1000
0000
0010
0000
1000
0010
1000
0010
1000
0000
0001
0000
0100
0001
0100
0001
,  // measure 25
0100
0010
0100
1000
0100
0010
0001
0010
,  // measure 26
1000
0000
0010
1000
0010
0000
0100
0000
0001
0000
0010
0000
0001
0000
0100
0000
,  // measure 27
1000
0000
0001
0100
0001
0000
0010
0000
1000
0000
0000
0000
1001
0000
0000
0000
,  // measure 28
1000
0010
0100
0001
1000
0100
0010
0100
,  // measure 29
1000
0001
0010
0100
0010
0002
0200
0303
,  // measure 30
0010
0100
1000
0001
0010
0100
0010
0001
,  // measure 31
1000
0010
0100
0001
0010
1000
2002
3003
,  // measure 32
0001
0100
0010
1000
0001
0010
0100
0010
,  // measure 33
0001
1000
0100
0010
0100
2000
0020
3030
,  // measure 34
0100
0010
0001
1000
0100
0010
0100
1000
,  // measure 35
0001
0000
0100
0010
0001
0010
0100
0010
0001
0000
0000
0000
2002
0000
3003
0000
,  // measure 36
1000
0000
0000
0010
1000
0000
0100
0000
0001
0000
0010
0000
0100
0000
0010
0000
,  // measure 37
0001
0000
0000
1000
0010
0000
0100
0000
0010
0000
0001
0000
1000
0000
0100
0000
,  // measure 38
0010
0000
0000
0100
0010
0000
1000
0000
0001
0000
0010
0000
0001
0000
1000
0000
,  // measure 39
0100
0000
0000
0001
1000
0000
0010
0000
0100
0000
0001
0000
1000
0000
0010
0000
,  // measure 40
0001
0000
0000
0100
0001
0000
0010
0000
1000
0000
0100
0000
0010
0000
0100
0000
,  // measure 41
1000
0000
0000
0001
0100
0000
0010
0000
0100
0000
1000
0000
0001
0000
0010
0000
,  // measure 42
0100
0000
0000
0010
0100
0000
0001
0000
1000
0000
0100
0000
1000
0000
0001
0000
,  // measure 43
0010
0000
0000
1000
0001
0000
0100
0000
0010
0000
1000
0000
0001
0000
0000
0000
,  // measure 44
1000
0000
0000
0000
0001
0100
0001
0100
0001
0000
0000
0000
1000
0010
1000
0010
,  // measure 45
1000
0000
1000
0100
0010
0001
1000
0000
,  // measure 46
0001
0000
0000
0000
1000
0010
1000
0010
1000
0000
0000
0000
0001
0100
0001
0100
,  // measure 47
0001
0000
0001
0010
0100
1000
0001
0010
,  // measure 48
0001
0000
1000
0000
0100
1000
0100
1000
0100
0000
0001
0000
0010
0001
0010
0001
,  // measure 49
0010
1000
0100
0010
0001
1000
0010
0100
,  // measure 50
0001
0000
0000
1000
0001
0000
0010
0000
0100
0000
0010
0000
0001
0000
0010
0000
,  // measure 51
1000
0000
0000
0001
1000
0000
0100
0000
0010
0000
0100
0000
1000
0000
0100
0000
,  // measure 52
0010
0000
1010
0000
,  // measure 53
0101
0000
0000
0001
1000
0000
0100
0000
0010
0000
0000
0000
1001
0000
0000
0000
,  // measure 54
0001
0010
0100
0010
0001
1000
0010
0100
,  // measure 55
0001
1000
0010
1000
0001
2000
0002
3003
,  // measure 56
0001
0010
0100
1000
0001
0100
0010
1000
,  // measure 57
0100
0010
0001
1000
0001
0100
0220
0330
,  // measure 58
0010
1000
0001
1000
0010
0100
1000
0001
,  // measure 59
0010
0100
1000
0100
0010
0200
0020
0330
,  // measure 60
0010
1000
0001
0100
0010
0001
1000
0100
,  // measure 61
0001
1000
0010
0100
0010
0001
2002
3003
,  // measure 62
0100
0001
1000
0001
0100
0010
0001
1000
,  // measure 63
0100
0010
0001
0010
0100
0020
0200
0330
,  // measure 64
0100
0001
1000
0010
0100
1000
0001
0010
,  // measure 65
1000
0001
0100
0010
0100
1000
2002
3003
,  // measure 66
1000
0100
0010
0100
1000
0001
0100
0010
,  // measure 67
1000
0001
0100
0001
1000
0002
2000
3003
,  // measure 68
1000
0100
0010
0001
1000
0010
0100
0010
,  // measure 69
0001
0010
0100
1000
0001
0010
0100
1000
0001
0000
1000
0000
0220
0000
0330
0000
;

//---------------dance-single - ----------------
#NOTES:
     dance-single:
     :
     Medium:
     7:
     0.375515,0.420381,0.037023,0.185113,0.000000,284.000000,280.000000,4.000000,20.000000,0.000000,0.000000,0.375515,0.420381,0.037023,0.185113,0.000000,284.000000,280.000000,4.000000,20.000000,0.000000,0.000000:
0000
0000
0000
0000
,
0000
0000
0000
0000
,
0000
0000
0000
0000
,
0000
0000
0000
0000
,
0010
0001
0010
0100
,
0010
0000
0100
0000
0010
0000
2000
3000
,
0010
0001
0010
0100
,
0001
0000
0010
0000
0010
0000
0002
0003
,
0100
0010
0100
1000
,
0100
0000
1000
0000
0100
0000
0002
0003
,
0100
0010
0100
1000
,
0010
0000
0100
0000
0100
0000
2000
3000
,
0001
1000
0001
0010
,
0001
0000
0010
0000
0001
0000
0200
0300
,
0001
1000
0001
0010
,
1000
0000
0001
0000
0001
0000
0020
0030
,
1000
0100
1000
0001
,
1000
0000
0001
0000
1000
0000
0020
0030
,
1000
0100
1000
0001
,
0010
0001
0010
0001
0010
0000
0002
0003
,
0010
0000
0010
0001
0010
0000
0100
1000
,
0100
0001
0010
0001
,
1000
0000
1000
0001
1000
0000
0001
0100
,
0001
0100
1000
0100
,
0010
0000
0010
0001
0010
0000
0100
1000
,
0100
0100
0100
1000
,
0010
0001
1000
1000
,
0010
1000
0010
1010
,
0010
0100
0010
0001
,
0010
0000
0001
0000
0001
0000
0200
0300
,
0001
0010
0001
0001
,
0010
0000
0100
0000
0001
0000
0020
0030
,
1000
0001
1000
0100
,
1000
0000
0100
0000
0100
0000
0002
0003
,
0100
1000
0100
0100
,
1000
0100
1000
0100
1000
0000
0020
0030
,
0010
0010
1000
0100
,
1000
0001
0001
0010
,
0001
0001
1000
1000
,
0100
0010
0100
0010
,
1000
1000
0010
0001
,
0010
0100
0100
1000
,
0100
0100
0010
0010
,
0001
1000
0001
1000
,
0010
0000
1000
0100
1000
0000
0010
0001
,
0010
0010
0001
0010
,
1000
0000
0010
0001
0010
0000
1000
0100
,
1000
1000
0100
1000
,
1000
0000
0100
0010
0100
0000
0001
1000
,
0001
0100
1000
0001
,
1000
1000
0100
1000
,
0010
0010
0001
0010
,
0001
0000
0011
0000
,
1100
0010
0001
1010
,
1000
0100
1000
0001
,
1000
0000
0001
0000
1000
0000
2000
3000
,
1000
0100
1000
0001
,
0100
0000
1000
0000
1000
0000
0200
0300
,
0001
1000
0001
0010
,
0001
0000
0010
0000
0001
0000
0002
0003
,
0001
1000
0001
0010
,
1000
0000
0001
0000
0001
0000
0020
0030
,
0100
0010
0100
1000
,
0100
0000
1000
0000
0100
0000
0200
0300
,
0100
0010
0100
1000
,
0010
0000
0100
0000
0100
0000
2000
3000
,
0010
0001
0010
0100
,
0010
0000
0100
0000
0010
0000
0020
0030
,
0010
0001
0010
0100
,
1000
0100
1000
0100
1000
0000
0002
0003
;

//---------------dance-single - ----------------
#NOTES:
     dance-single:
     :
     Easy:
     3:
     0.178502,0.192980,0.000000,0.000000,0.000000,135.000000,135.000000,0.000000,0.000000,0.000000,0.000000,0.178502,0.192980,0.000000,0.000000,0.000000,135.000000,135.000000,0.000000,0.000000,0.000000,0.000000:
0000
0000
0000
0000
,
0000
0000
0000
0000
,
0000
0000
0000
0000
,
0000
0000
0000
0000
,
0001
0000
0001
0000
,
0010
0000
0001
0000
,
0100
0000
0001
0000
,
1000
0000
0001
0000
,
0100
0000
1000
0000
,
0010
0000
0100
0000
,
0100
0000
0100
0000
,
0001
0000
0100
0000
,
1000
0000
0010
0000
,
1000
0000
0100
0000
,
1000
0000
1000
0000
,
0010
0000
1000
0000
,
0010
0000
1000
0000
,
0001
0000
0010
0000
,
0100
0000
0010
0000
,
0001
0000
0010
0000
,
1000
0000
0001
0000
,
0100
0000
0001
0000
,
0010
0000
0010
0000
,
1000
0000
0010
0000
,
0001
0000
0010
0000
,
1000
0000
0100
0000
,
0001
0000
0010
0000
,
0001
0000
0001
0010
,
0001
0000
0001
0000
,
0001
0000
0010
0000
,
1000
0000
1000
0000
,
0001
0000
1000
0000
,
0010
0000
0001
0000
,
0010
0000
0100
0000
,
0001
0000
0100
0000
,
0010
0000
1000
0000
,
0100
0000
0010
0000
,
0001
0000
0100
0000
,
1000
0000
0010
0000
,
0100
0000
0001
0000
,
0010
0000
0001
0000
,
0010
0000
1000
0000
,
0100
0000
0001
0000
,
1000
0000
1000
0000
,
0001
0000
0010
0000
,
0001
0000
1000
0000
,
0010
0000
0001
0000
,
0100
0000
0100
0000
,
1000
0000
0100
0000
,
1000
0000
0010
0000
,
0010
0000
0100
0000
,
0001
0000
1000
0000
,
1000
0000
0001
0000
,
0010
0000
1000
0001
,
0010
0000
0010
0000
,
0010
0000
0001
0000
,
1000
0100
0000
1000
,
0100
0000
0010
0000
,
1000
0000
1000
0000
,
0010
0000
0100
0000
,
0001
0000
1000
0000
,
0010
0000
1000
0000
,
0100
0000
1000
0000
,
0100
0000
0010
0000
,
0001
0000
0100
0000
,
0001
0000
1000
0000
,
0001
0000
0010
0000
,
0001
0000
0100
0000
,
0001
0000
0100
0000
,
1000
0000
1000
0000
;
