#TITLE:あるぷす☆いちまんじゃく;
#SUBTITLE:;
#ARTIST:ディヴェラ;
#TITLETRANSLIT:Arupusu☆Ichimanjaku;
#SUBTITLETRANSLIT:;
#ARTISTTRANSLIT:DIVELA;
#GENRE:;
#CREDIT:;
#BANNER:Arupusu Ichimanjaku.png;
#BACKGROUND:Arupusu Ichimanjaku-BG.png;
#LYRICSPATH:;
#CDTITLE:;
#MUSIC:Arupusu Ichimanjaku.ogg;
#OFFSET:-0.431000;
#SAMPLESTART:56.491001;
#SAMPLELENGTH:24.000000;
#SELECTABLE:YES;
#BPMS:0.000000=240.000000
;
#STOPS:
;
#BGCHANGES:;
#KEYSOUNDS:;
#ATTACKS:;

//---------------dance-single - ----------------
#NOTES:
     dance-single:
     :
     Hard:
     12:
     0.856317,0.815930,0.264805,0.012037,0.000000,498.000000,476.000000,22.000000,1.000000,0.000000,0.000000,0.856317,0.815930,0.264805,0.012037,0.000000,498.000000,476.000000,22.000000,1.000000,0.000000,0.000000:
1000
0000
0010
0100
0001
0000
1000
0010
,
1000
0001
0100
0010
,
1000
0100
0010
0001
,
0001
1000
0010
0000
0110
0000
1010
0000
,
0001
0000
1000
0000
0010
1000
0010
0000
,
0100
0001
0100
0000
0010
0000
0100
0000
,
0002
1000
1000
1003
,
0010
0100
0101
1100
,
0010
0000
1000
0001
0010
0000
0100
0010
,
1000
0000
0001
0000
0100
0000
0010
0001
,
0010
0000
1000
0100
0010
0000
0100
0010
,
1000
0010
0011
1010
,
0001
0000
0100
0000
,
0010
0000
1000
0000
,
1000
0000
1000
0000
,
0001
0000
0001
0000
,
0010
0000
0010
0000
,
0100
0001
0000
0010
1000
0000
0001
0000
,
0010
0000
0010
1000
0000
0001
0000
0100
,
0000
0010
0000
1000
0100
0010
0100
1000
,
0000
0001
0100
0010
0000
1000
0000
0001
,
0000
1000
0000
0010
0100
0000
0001
0000
,
1000
0000
0100
0010
0000
1000
0000
0100
,
0000
0001
0000
0010
0100
1000
0100
0010
,
0110
0000
0000
0110
0000
1000
0000
0001
,
0000
0010
0000
0100
0010
1000
0100
0001
,
1001
0000
0000
0101
0000
0010
0000
1000
,
0000
0001
0000
0100
0010
0001
0010
0100
,
0110
0000
0000
1010
0000
1000
0000
0001
,
0000
0100
0000
0010
0100
1000
0001
0010
,
0110
0000
0000
1010
0000
1000
0000
0001
,
0000
0100
0000
0010
0100
1000
0001
0010
,
0011
0000
1000
0010
0100
0001
1000
0100
,
0010
0100
1000
0001
0010
0100
0010
0001
,
1000
0100
1000
0010
0100
0010
0001
0100
,
0001
1000
0010
1000
0001
0100
0001
0010
,
0100
0010
1000
0100
0010
0001
0100
0010
,
1000
0001
0010
0001
0100
0010
0100
1000
,
0010
1000
0001
0100
0001
0010
1000
0100
,
1000
0100
0010
0001
0010
0001
1000
0100
,
0010
0100
1000
0100
0010
0001
0010
0100
,
0010
0001
1000
0010
1000
0010
1000
0001
,
0100
0001
0100
0001
0010
0100
0010
0100
,
0010
1000
0001
1000
0001
1000
0100
0001
,
0010
0100
1000
0010
0100
0001
0010
0100
,
0001
1000
0100
1000
0001
0010
0001
0100
,
0010
0100
1000
0100
1000
0010
0100
0001
,
0010
1000
0001
0100
1000
0010
0100
0001
,
0010
0000
1000
0001
0000
0010
0100
0000
,
1000
0000
0010
0100
0000
0000
1010
0000
,
0001
0000
1000
0100
0010
0001
0010
0100
,
1000
0100
0010
0001
0010
0100
1000
0100
,
0010
0000
0100
0001
0000
1000
0010
0000
,
0100
0000
0001
1000
0000
0000
1010
0000
,
1000
0000
0001
0010
0100
1000
0100
0010
,
0001
0010
0100
1000
0100
0010
0001
0000
,
1000
0000
0100
1000
0001
0010
0100
0000
,
1000
0000
0001
0100
0010
0000
0101
0000
,
0001
0000
1000
0100
1000
0100
1000
0010
,
1000
0010
1000
0001
1000
0001
1000
0010
,
1000
0000
0001
0100
0010
1000
0100
0000
,
0001
0000
1000
0010
0001
0000
0101
0000
,
0010
0000
0001
0010
0001
0010
0001
0100
,
0001
0100
0001
1000
0001
1000
0001
0100
,
0010
0000
1000
0010
0100
0001
1000
0000
,
0010
0000
0100
1000
0001
0000
1100
0000
,
0100
0000
1000
0010
1000
0010
0100
0001
,
0100
0001
0010
1000
0010
1000
0001
0100
,
0001
0000
0100
1000
0001
0010
1000
0000
,
0100
0000
0010
0001
0100
0000
1100
0000
,
0001
0000
0001
0100
0001
0100
0010
1000
,
0010
1000
0100
0001
0100
0001
1000
0010
,
1000
0000
0010
1000
0010
0000
1000
0100
,
0010
0100
1000
0001
0010
0100
0010
0001
,
1000
0000
0010
0001
0010
0000
0001
0010
,
0100
0010
0001
1000
0100
0010
0100
1000
,
0001
0000
1000
0100
1000
0000
0100
0001
,
1000
0001
0100
0010
1000
0001
1000
0010
,
0100
0000
1000
0010
1000
0000
0010
1000
,
0001
1000
0010
0100
0001
0000
1001
0000
;

//---------------dance-single - ----------------
#NOTES:
     dance-single:
     :
     Medium:
     8:
     0.524451,0.479959,0.012037,0.012037,0.000000,305.000000,304.000000,1.000000,1.000000,0.000000,0.000000,0.524451,0.479959,0.012037,0.012037,0.000000,305.000000,304.000000,1.000000,1.000000,0.000000,0.000000:
1000
0100
0010
1000
,
1000
0010
0001
0100
,
1000
0001
0100
0010
,
0010
0100
0001
1000
,
0010
1000
0100
0100
,
0001
0001
0100
0001
,
0020
0000
0000
0030
,
0100
0001
0010
1000
,
0100
1000
0100
0001
,
1000
0010
0001
0100
,
0100
1000
0100
0001
,
1000
0100
0100
1000
,
0010
0000
0001
0000
,
0100
0000
1000
0000
,
1000
0000
1000
0000
,
0010
0000
0010
0000
,
0100
0000
0100
0000
,
0001
0010
1000
0010
,
0100
0100
1000
0010
,
0100
1000
0001
0001
,
0010
0001
0100
1000
,
0010
0100
0001
0010
,
1000
0001
1000
0100
,
0001
0010
0001
0001
,
0100
1000
0010
0001
,
0010
0100
0100
0001
,
1000
0100
0001
0100
,
1000
0001
0100
0100
,
0001
1000
0010
0100
,
0001
0100
0001
0010
,
0001
1000
0100
0010
,
0001
0100
0001
0010
,
0100
1000
0001
1000
,
0100
1000
0100
0100
,
1000
1000
0001
0010
,
0010
0100
0010
0010
,
0001
1000
0100
0001
,
1000
0100
0001
0001
,
0100
0010
0010
1000
,
1000
0100
0100
1000
,
0100
1000
0100
0100
,
0100
1000
1000
1000
,
0001
0001
0100
0100
,
0100
0010
0010
0001
,
0100
1000
0001
0100
,
0010
0001
0010
0010
,
0100
1000
1000
0001
,
0100
0010
1000
0001
,
0100
1000
0000
0001
,
1000
0100
0000
1000
,
0010
1000
0100
0100
,
1000
0100
0100
1000
,
0100
0001
0100
0100
,
0001
0010
0000
1000
,
1000
0010
0001
0001
,
0010
0001
0001
0010
,
1000
0001
0010
0001
,
1000
0010
0100
0001
,
0010
1000
0001
0100
,
0001
0100
0010
0100
,
1000
0010
0100
0001
,
0010
1000
0010
0001
,
0100
0010
0100
0001
,
1000
0001
0100
0010
,
0100
1000
0001
1000
,
0100
0001
0010
1000
,
0001
1000
1000
0001
,
0001
0100
0100
0010
,
0010
0001
0010
1000
,
0001
0100
0001
1000
,
0010
0010
0010
0100
,
0100
0001
0001
1000
,
1000
0100
0001
1000
,
0010
1000
0010
0001
,
1000
0100
1000
0010
,
0001
0010
0001
0001
,
0010
1000
0100
0001
,
1000
0010
1000
0100
,
0001
1000
0010
0100
,
0010
0100
0010
1001
;

//---------------dance-single - ----------------
#NOTES:
     dance-single:
     :
     Easy:
     4:
     0.276842,0.287975,0.012037,0.000000,0.000000,161.000000,160.000000,1.000000,0.000000,0.000000,0.000000,0.276842,0.287975,0.012037,0.000000,0.000000,161.000000,160.000000,1.000000,0.000000,0.000000,0.000000:
// measure 0
1000
0000
0100
0000
,  // measure 1
1000
0000
0010
0000
,  // measure 2
1000
0000
0001
0000
,  // measure 3
0100
0000
1000
0000
,  // measure 4
0100
0000
0001
0000
,  // measure 5
0010
0000
1000
0000
,  // measure 6
0100
0000
0000
0000
,  // measure 7
0001
0000
0100
0000
,  // measure 8
1000
0000
0001
0000
,  // measure 9
1000
0000
0010
0000
,  // measure 10
0100
0000
0001
0000
,  // measure 11
1000
0000
0001
0000
,  // measure 12
0100
0000
0010
0000
,  // measure 13
0001
0000
1000
0000
,  // measure 14
0010
0000
1000
0000
,  // measure 15
0001
0000
0100
0000
,  // measure 16
0001
0000
1000
0000
,  // measure 17
0010
0000
1000
0000
,  // measure 18
0001
0000
1000
0000
,  // measure 19
0001
0000
0010
0000
,  // measure 20
0100
0000
0001
0000
,  // measure 21
0100
0000
0010
0000
,  // measure 22
1000
0000
1000
0000
,  // measure 23
0010
0000
0010
0000
,  // measure 24
0001
0000
0100
0000
,  // measure 25
0100
0000
0001
0000
,  // measure 26
1000
0000
0010
0000
,  // measure 27
1000
0000
0001
0000
,  // measure 28
0010
0000
0100
0000
,  // measure 29
0010
0000
0010
0000
,  // measure 30
0010
0000
0001
0000
,  // measure 31
0010
0000
0010
0000
,  // measure 32
0001
0000
0010
0000
,  // measure 33
0001
0000
0001
0000
,  // measure 34
1000
0000
0010
0000
,  // measure 35
0100
0000
0100
0000
,  // measure 36
0010
0000
0001
0000
,  // measure 37
1000
0000
0010
0000
,  // measure 38
0001
0000
0100
0000
,  // measure 39
1000
0000
0001
0000
,  // measure 40
0001
0000
0001
0000
,  // measure 41
0001
0000
1000
0000
,  // measure 42
0010
0000
0001
0000
,  // measure 43
0001
0000
0100
0000
,  // measure 44
0001
0000
0010
0000
,  // measure 45
0100
0000
0100
0000
,  // measure 46
0001
0000
1000
0000
,  // measure 47
0001
0000
1000
0000
,  // measure 48
0001
0000
0000
0010
,  // measure 49
0000
0001
0000
1000
,  // measure 50
0000
1000
0000
0001
,  // measure 51
0000
0001
0000
1000
,  // measure 52
0000
0010
0000
0001
,  // measure 53
0000
0100
0000
1000
,  // measure 54
0000
0100
0000
0010
,  // measure 55
0000
0010
0000
0100
,  // measure 56
0000
0010
0000
0010
,  // measure 57
0000
0100
0000
0010
,  // measure 58
0000
1000
0000
0001
,  // measure 59
0000
0001
0000
0001
,  // measure 60
0000
0100
0000
0010
,  // measure 61
0000
1000
0000
0010
,  // measure 62
0000
0100
0000
0010
,  // measure 63
0000
0010
0001
0000
,  // measure 64
0001
0000
0010
0000
,  // measure 65
0001
0000
0100
0000
,  // measure 66
0010
0000
1000
0000
,  // measure 67
0010
0000
0001
0000
,  // measure 68
0100
0000
0001
0000
,  // measure 69
0010
0000
1000
0000
,  // measure 70
0100
0000
0010
0000
,  // measure 71
0001
0000
0010
0000
,  // measure 72
1000
0000
0010
0000
,  // measure 73
0100
0000
0001
0000
,  // measure 74
1000
0000
0010
0000
,  // measure 75
0100
0000
0001
0000
,  // measure 76
0100
0000
0001
0000
,  // measure 77
1000
0000
1000
0000
,  // measure 78
0010
0000
0100
0000
,  // measure 79
1000
0000
0010
0110
;
