#TITLE:ℵ0;
#SUBTITLE:;
#ARTIST:LeaF;
#TITLETRANSLIT:Aleph-Zero;
#SUBTITLETRANSLIT:;
#ARTISTTRANSLIT:;
#GENRE:;
#CREDIT:;
#BANNER:Aleph-Zero.png;
#BACKGROUND:Aleph-Zero-BG.png;
#LYRICSPATH:;
#CDTITLE:;
#MUSIC:Aleph-Zero.ogg;
#OFFSET:0.904000;
#SAMPLESTART:46.848000;
#SAMPLELENGTH:12.000000;
#SELECTABLE:YES;
#DISPLAYBPM:*;
#BPMS:0.000000=249.999985
,8.000000=2.441000
,8.229167=65536.000000
,48.000000=249.999985
,92.000000=65536.000000
,100.000000=249.999985
,134.000000=35.000000
,142.000000=4.881000
,142.062500=65536.000000
,147.000000=249.999985
,147.250000=124.999992
,148.000000=249.999985
,165.000000=251.000000
,166.000000=251.999985
,167.000000=253.000000
,168.000000=253.999985
,169.000000=255.000000
,170.000000=256.000000
,171.000000=257.000000
,172.000000=258.000061
,173.000000=259.000122
,174.000000=260.000183
,175.000000=261.000244
,176.000000=262.000305
,177.000000=263.000366
,178.000000=264.000427
,179.000000=265.000488
,180.000000=266.000427
,181.000000=267.000366
,182.000000=268.000305
,183.000000=269.000366
,184.000000=270.000427
,185.000000=271.000488
,186.000000=272.000000
,187.000000=273.000183
,188.000000=274.000244
,189.000000=275.000305
,190.000000=276.000366
,191.000000=277.000427
,192.000000=278.000488
,193.000000=279.000000
,194.000000=280.000061
,195.000000=281.000122
,196.000000=282.000183
,197.000000=283.000244
,198.000000=284.000305
,199.000000=285.000366
,200.000000=286.000427
,201.000000=287.000488
,202.000000=288.000000
,203.000000=289.000061
,204.000000=290.000122
,205.000000=291.000183
,206.000000=292.000244
,207.000000=293.000305
,208.000000=294.000366
,209.000000=295.000427
,210.000000=296.000488
,211.000000=297.000000
,212.000000=297.999939
,213.000000=299.000000
,214.000000=300.000061
,215.000000=301.000122
,216.000000=302.000183
,217.000000=303.000244
,218.000000=304.000305
,219.000000=305.000366
,220.000000=306.000427
,221.000000=307.000488
,222.000000=308.000000
,223.000000=309.000061
,224.000000=310.000122
,225.000000=311.000183
,226.000000=312.000244
,227.000000=313.000305
,228.000000=314.000366
,229.000000=315.000427
,230.000000=316.000488
,231.000000=317.000000
,232.000000=317.999939
,233.000000=319.000000
,234.000000=320.000183
,235.000000=321.000244
,236.000000=322.000305
,237.000000=323.000366
,238.000000=324.000427
,239.000000=325.000488
,240.000000=326.000000
,241.000000=327.000061
,242.000000=328.000122
,243.000000=329.000183
,244.000000=330.000244
,245.000000=331.000427
,246.000000=332.000488
,247.000000=333.000427
,248.000000=334.000488
,249.000000=335.000000
,250.000000=336.000183
,251.000000=337.000244
,252.000000=338.000305
,253.000000=339.000366
,254.000000=340.000427
,255.000000=341.000488
,256.000000=342.000000
,257.000000=342.999939
,258.000000=344.000000
,259.000000=345.000061
,260.000000=346.000122
,261.000000=347.000183
,262.000000=348.000244
,263.000000=349.000305
,264.000000=350.000366
,265.000000=351.000427
,266.000000=352.000488
,267.000000=353.000000
,268.000000=354.000061
,269.000000=355.000244
,270.000000=356.000305
,271.000000=357.000366
,272.000000=358.000427
,273.000000=359.000488
,274.000000=360.000000
,275.000000=360.999939
,276.000000=362.000000
,277.000000=363.000061
,278.000000=364.000122
,279.000000=365.000183
,280.000000=366.000244
,281.000000=367.000305
,282.000000=368.000366
,283.000000=369.000427
,284.000000=370.000488
,285.000000=371.000000
,286.000000=372.000061
,287.000000=373.000122
,288.000000=374.000061
,289.000000=375.000122
,290.000000=376.000183
,291.000000=377.000244
,292.000000=378.000305
,293.000000=379.000366
,294.000000=380.000427
,295.000000=381.000488
,296.000000=382.000000
,297.000000=382.999939
,298.000000=384.000122
,299.000000=385.000061
,300.000000=386.000122
,301.000000=387.000183
,302.000000=388.000244
,303.000000=389.000305
,304.000000=390.000366
,305.000000=391.000427
,306.000000=392.000366
,307.000000=393.000427
,308.000000=394.000488
,309.000000=395.000000
,310.000000=396.000061
,311.000000=397.000122
,312.000000=398.000183
,313.000000=399.000244
,314.000000=400.000183
,346.000000=249.999985
,357.000000=50.000000
,358.000000=249.999985
,361.000000=50.000000
,361.500000=249.999985
,367.000000=50.000000
,368.000000=249.999985
,371.000000=50.000000
,371.500000=249.999985
,382.000000=50.000000
,383.500000=65536.000000
,392.000000=124.999992
,424.000000=249.999985
,488.000000=7.812500
,489.000000=249.999985
;
#STOPS:48.000000=0.945000,
100.000000=0.515000,
147.000000=1.000000,
147.250000=0.468000
;
#BGCHANGES:8.000=Aleph-Zero.avi=1.000=0=0=1=====,
99999=-nosongbg-=1.000=0=0=0 // don't automatically add -songbackground-
;
#KEYSOUNDS:;
#ATTACKS:;

//---------------dance-single - ----------------
#NOTES:
     dance-single:
     :
     Hard:
     10:
     0.577851,1.173233,0.639800,0.071089,0.046208,569.000000,479.000000,90.000000,10.000000,0.000000,0.000000,0.577851,1.173233,0.639800,0.071089,0.046208,569.000000,479.000000,90.000000,10.000000,0.000000,0.000000:
0000
0000
0000
0000
,
0000
0000
0000
0000
,
0000
0000
0000
0000
,
0000
0000
0000
0000
,
0000
0000
0000
0000
,
0000
0000
0000
0000
,
0000
0000
0000
0000
,
0000
0000
0000
0000
,
0000
0000
0000
0000
,
0000
0000
0000
0000
,
0000
0000
0000
0000
,
0000
0000
0000
0000
,
0000
0000
0000
0000
,
0000
0000
0000
0000
1001
0000
1000
0100
,
0010
0000
0100
0001
0000
1000
0010
0000
,
1010
0000
0001
0100
0010
1000
0001
0000
,
0101
0000
0001
1000
0001
0000
0010
0000
,
0110
0000
0000
0101
0000
0000
1001
0000
,
1000
0001
0100
0010
1000
0000
1001
0000
,
0101
0000
0001
0010
1000
0000
0001
0000
,
0101
0000
1000
0010
0100
0000
0101
0000
,
1010
0000
0000
0101
0000
0000
1001
0000
,
1000
0010
0000
0100
0001
0000
1000
0000
,
0001
0000
0000
0000
,
0000
0000
0000
0000
,
0000
0000
0000
0000
1001
0000
0001
0100
,
0001
0000
1010
0000
0101
0000
0000
1001
,
0000
0000
0101
0000
1000
0010
0000
0100
,
0001
0000
0010
0000
1010
0000
0001
1000
,
0000
0001
0000
0000
1010
0000
0010
0100
,
0010
0000
1010
0000
0101
0000
0000
1001
,
0000
0000
0110
0000
1000
0100
0000
0010
,
0001
1000
0001
0010
,
0100
0000
0000
0000
0000
0000
0000
0000
1000
0000
0000
0000
0000
0000
0000
0000
0001
0000
0000
0000
0000
0000
0000
0000
0000
0000
1000
0000
0001
1000
0000
0000
,
0010
0000
0000
0100
0010
0000
0000
0000
0000
0000
0001
0000
0010
0001
0000
0000
1000
0000
0010
0000
0100
0000
0001
0000
0010
0000
0100
0000
1000
0000
0010
0000
,
0100
0001
0010
0100
1000
0001
0010
0100
1000
0000
0000
0000
0000
0000
0000
0000
,
0000
0000
0000
0000
,
0000
0000
0000
0000
,
0000
0000
0000
0000
,
0000
0000
0000
0000
,
0000
0000
0000
1000
,
0001
0000
1000
0001
0010
0000
0100
0000
,
0010
0000
0010
0100
0000
0010
0000
0001
,
1000
0000
1000
0001
0000
0001
0000
0000
,
1001
0110
1001
0110
,
1001
0000
0010
0000
0100
0010
1000
0000
,
0001
0000
1000
0001
1000
0000
0001
0000
,
0010
0100
0000
0100
0010
0000
0010
0000
,
0110
1001
0110
1001
,
0110
0000
0100
0000
0010
0100
0001
0000
,
1000
0000
0001
1000
0001
0000
0001
0000
,
0100
0010
0000
0010
0100
0000
0100
0000
,
0101
1010
0101
1010
,
0101
0000
0010
0000
0100
0010
1000
0000
,
0001
0000
1000
0001
1000
0000
1000
0000
,
0010
0100
0000
0100
0010
0000
0010
0000
,
1010
0101
1010
0101
,
1010
1000
0010
0100
,
0001
1000
0100
0010
,
0001
1000
0000
1000
0001
0000
0010
0000
,
1100
0110
0011
0110
,
1100
0001
0100
0010
,
1000
0001
0010
0100
,
1000
0001
0000
0001
1000
0000
0100
0000
,
0011
0110
1100
0110
,
0011
1000
0001
0100
,
0010
1000
0001
0100
,
0100
0010
0000
0010
0100
0000
0010
0000
,
1001
1001
0110
1001
,
1001
0001
1000
0010
,
0100
0001
1000
0010
,
0010
0100
0000
0100
0010
0000
0100
0000
,
0110
1001
1001
0110
,
1000
0100
1000
0100
1000
0000
0001
0010
,
0001
0010
0001
0000
0100
0010
0100
0010
,
0100
0000
1000
0001
1000
0001
1000
0000
,
0100
0010
0100
0010
0100
0000
0001
0100
,
0001
0100
0001
0000
1000
0010
1000
0010
,
1000
0010
1000
0010
1000
0000
0000
0000
,
0000
0000
0000
0000
,
0000
0000
0000
0000
,
0000
0000
0000
0000
,
0000
0000
0000
0000
1000
0100
0010
0001
,
1000
0010
0100
0001
1000
0100
0010
0100
,
1000
0100
0010
0000
0000
0000
0001
0010
,
0100
1000
0001
0100
0010
1000
0001
0010
,
0100
0010
0001
0010
0100
0000
0000
0000
,
0000
0000
0000
0000
,
0000
0000
0000
0000
1000
0001
1000
0001
,
1000
0000
2002
0000
3003
0000
0010
0100
,
1000
0000
0220
0330
0000
0010
0100
0001
,
0010
0100
1000
0001
0100
0010
2002
0000
,
3003
0000
0010
0100
0001
0010
0220
0330
,
0000
0100
0001
0010
1000
0000
0000
0000
,
0000
0001
0010
0100
,
1000
0000
0001
0000
1000
0000
0000
1001
,
0000
0000
0000
0000
,
0000
0000
0000
0000
,
0000
0000
1001
0101
,
1001
0000
1010
0101
,
1001
0000
0110
1010
,
0101
0110
1010
1001
,
0110
0000
1010
0110
,
0101
0000
0101
0000
,
1010
0000
0000
0000
,
0110
0000
1001
0101
,
1000
0010
0100
0001
1000
0100
1000
0100
,
0010
0001
0010
0001
0100
0010
0100
0010
,
0100
0000
0000
0000
,
0100
1000
0001
0010
0100
0001
0100
0001
,
1000
0010
1000
0010
0001
1000
0001
1000
,
0001
0100
0010
1000
0001
0010
0001
0010
,
0100
1000
0100
1000
0010
0100
0010
0100
,
0010
0000
0000
0000
,
0010
0001
1000
0100
0010
1000
0010
1000
,
0001
0100
0001
0100
1000
0001
1000
0001
,
1000
0000
0000
0000
,
1000
0010
0100
0001
1000
0100
1000
0100
,
0010
0001
0010
0001
0100
0010
0100
0010
,
0100
0010
1000
0100
0010
0001
0100
0010
,
1000
0001
0010
0100
1000
0100
0010
0100
,
0010
0000
0000
0000
,
2002
3003
0000
0000
;

//---------------dance-single - ----------------
#NOTES:
     dance-single:
     :
     Medium:
     8:
     0.387942,0.695249,0.227484,0.042653,0.007109,382.000000,350.000000,32.000000,6.000000,0.000000,0.000000,0.387942,0.695249,0.227484,0.042653,0.007109,382.000000,350.000000,32.000000,6.000000,0.000000,0.000000:
0000
0000
0000
0000
,
0000
0000
0000
0000
,
0000
0000
0000
0000
,
0000
0000
0000
0000
,
0000
0000
0000
0000
,
0000
0000
0000
0000
,
0000
0000
0000
0000
,
0000
0000
0000
0000
,
0000
0000
0000
0000
,
0000
0000
0000
0000
,
0000
0000
0000
0000
,
0000
0000
0000
0000
,
0000
0000
0000
0000
,
0000
0000
1000
0001
,
0100
0001
0010
0100
,
1000
0010
0100
0010
,
0001
0010
0010
0100
,
0001
0000
0000
0011
0000
0000
1000
0000
,
0100
0001
1000
0010
,
0001
0010
1000
0010
,
0001
1000
0100
0010
,
1000
0000
0000
0011
0000
0000
1000
0000
,
1000
0100
0010
1000
,
0010
0000
0000
0000
,
0000
0000
0000
0000
,
0000
0000
1000
0001
,
0010
0000
1000
0000
0010
0000
0000
1010
,
0000
0001
0100
1000
,
0010
0100
1000
0010
,
0001
0010
1000
0100
,
0001
0000
0010
0000
0001
0000
0000
1010
,
0000
0100
1000
0001
,
0010
1000
0010
0100
,
0001
0000
0000
0000
1000
0000
0000
0000
0010
0000
0000
0000
0000
1000
0010
0000
,
0100
0000
0001
0000
0000
0010
0100
0000
1000
0000
0001
0000
0100
0000
0010
0000
,
0001
0100
1000
0100
0001
0000
0000
0000
,
0000
0000
0000
0000
,
0000
0000
0000
0000
,
0000
0000
0000
0000
,
0000
0000
0000
0000
,
0000
0000
0000
1000
,
0010
1000
0100
0001
,
0100
0100
0001
0010
,
1000
1000
0010
0100
,
0001
0101
0100
1100
,
1000
0100
0001
1000
,
0010
1000
0100
0010
,
0100
0001
0100
0100
,
0001
0011
0010
1010
,
1000
0001
0100
0010
,
1000
0010
0001
0010
,
0001
0010
0001
0100
,
1000
1100
0100
0101
,
0001
0100
0001
1000
,
0010
1000
0100
0001
,
0010
0001
0100
0001
,
0010
0011
0001
0101
,
0100
1000
0100
0001
,
0010
1000
0001
0100
,
0010
0001
0010
0100
,
1000
1100
0100
1100
,
1000
0010
0001
0100
,
1000
0010
0100
0001
,
1000
0010
1000
0001
,
0010
0011
0001
0011
,
0010
1000
0010
0001
,
0100
1000
0010
0001
,
0001
0100
0001
0100
,
1000
1010
0010
1010
,
1000
0010
1000
0100
,
0001
0010
1000
0100
,
0100
0001
0100
0001
,
1000
1010
0010
1010
,
1000
0001
0100
0010
,
0100
0001
0100
0001
,
1000
0100
0001
0010
,
0001
1000
0001
0010
,
1000
0010
1000
0100
,
0001
0010
1000
0000
,
0000
0000
0000
0000
,
0000
0000
0000
0000
,
0000
0000
0000
0000
,
0000
0000
1000
0100
,
1000
0001
1000
0100
,
1000
0100
0001
0010
,
0001
0010
0100
0010
,
0001
0010
0001
0000
,
0000
0000
0000
0000
,
0000
0000
1000
0010
,
1000
0020
0030
0100
,
1000
0000
0200
0300
0000
0000
0001
0000
,
0100
1000
0001
0020
,
0030
0000
0100
0000
0010
0000
0002
0003
,
0000
0010
1000
0000
,
0000
0010
0100
0001
,
1000
0000
0010
0000
1000
0000
0000
1010
,
0000
0000
0000
0000
,
0000
0000
0000
0000
,
0000
0000
0010
0010
,
1010
0000
1000
1000
,
1010
0000
0100
0100
,
0101
0001
0011
0010
,
1010
0000
0001
0001
,
0011
0000
0011
0000
,
1100
0000
0000
0000
,
0101
0000
0010
0011
,
1000
0001
0100
0010
,
0001
0100
1000
0001
,
0010
0000
0000
0000
,
0001
0100
0010
0001
,
1000
0100
0010
0001
,
0010
1000
0001
0010
,
0001
0100
1000
0100
,
0001
0000
0000
0000
,
0100
1000
0001
0010
,
0100
0001
0100
0010
,
1000
0000
0000
0000
,
1000
0001
0100
0001
,
1000
0010
0100
0001
,
0100
0010
0100
0001
,
1000
0100
0001
0100
,
0010
0000
0000
0000
,
2002
3003
0000
0000
;

//---------------dance-single - ----------------
#NOTES:
     dance-single:
     :
     Easy:
     4:
     0.218344,0.391078,0.028436,0.014218,0.007109,215.000000,211.000000,4.000000,2.000000,0.000000,0.000000,0.218344,0.391078,0.028436,0.014218,0.007109,215.000000,211.000000,4.000000,2.000000,0.000000,0.000000:
// measure 0
0000
0000
0000
0000
,  // measure 1
0000
0000
0000
0000
,  // measure 2
0000
0000
0000
0000
,  // measure 3
0000
0000
0000
0000
,  // measure 4
0000
0000
0000
0000
,  // measure 5
0000
0000
0000
0000
,  // measure 6
0000
0000
0000
0000
,  // measure 7
0000
0000
0000
0000
,  // measure 8
0000
0000
0000
0000
,  // measure 9
0000
0000
0000
0000
,  // measure 10
0000
0000
0000
0000
,  // measure 11
0000
0000
0000
0000
,  // measure 12
0000
0000
0000
0000
,  // measure 13
0000
0000
1000
0000
,  // measure 14
0001
0000
0100
0000
,  // measure 15
1000
0000
0001
0000
,  // measure 16
0010
0000
0100
0000
,  // measure 17
0010
0000
0000
0100
0000
0000
1000
0000
,  // measure 18
0001
0000
1000
0000
,  // measure 19
0010
0000
1000
0000
,  // measure 20
0010
0000
0001
0000
,  // measure 21
1000
0000
0000
0010
0000
0000
1000
0000
,  // measure 22
1000
0000
0100
0000
,  // measure 23
0100
0000
0000
0000
,  // measure 24
0000
0000
0000
0000
,  // measure 25
0000
0000
1000
0000
,  // measure 26
0100
0000
0000
0000
0100
0000
0000
1000
,  // measure 27
0000
0010
0001
0000
,  // measure 28
0100
0000
1000
0000
,  // measure 29
0010
0000
1000
0000
,  // measure 30
0010
0000
0000
0000
0001
0000
0000
1000
,  // measure 31
0000
0001
1000
0000
,  // measure 32
0100
0000
0100
0000
,  // measure 33
0010
0000
0000
0000
0000
0000
0000
0000
0100
0000
0000
0000
0000
1000
0000
0000
,  // measure 34
0001
0000
0000
0000
0000
0100
0000
0000
1000
0000
0000
0000
0001
0000
0000
0000
,  // measure 35
0010
1000
0010
0000
,  // measure 36
0000
0000
0000
0000
,  // measure 37
0000
0000
0000
0000
,  // measure 38
0000
0000
0000
0000
,  // measure 39
0000
0000
0000
0000
,  // measure 40
0000
0000
0000
1000
,  // measure 41
0100
0000
0001
0000
,  // measure 42
0001
0000
0010
0000
,  // measure 43
1000
0000
0100
0000
,  // measure 44
0010
0100
0001
1000
,  // measure 45
0001
0000
0010
0000
,  // measure 46
0100
0000
0001
0000
,  // measure 47
0001
0000
0001
0000
,  // measure 48
0010
0100
0001
0100
,  // measure 49
0010
0000
0001
0000
,  // measure 50
1000
0000
0001
0000
,  // measure 51
0100
0000
0010
0000
,  // measure 52
1000
0001
0100
0001
,  // measure 53
1000
0000
0010
0000
,  // measure 54
0100
0000
0001
0000
,  // measure 55
0100
0000
0001
0000
,  // measure 56
1000
0100
0010
0100
,  // measure 57
1000
0000
0001
0000
,  // measure 58
0100
0000
0010
0000
,  // measure 59
0100
0000
0100
0000
,  // measure 60
0010
0001
1000
0001
,  // measure 61
0010
0000
0010
0000
,  // measure 62
1000
0000
0001
0000
,  // measure 63
0100
0000
0010
0000
,  // measure 64
1000
0001
0010
0001
,  // measure 65
1000
0000
0100
0000
,  // measure 66
0001
0000
0100
0000
,  // measure 67
0010
0000
0010
0000
,  // measure 68
0010
0100
1000
0100
,  // measure 69
0010
0000
1000
0000
,  // measure 70
0010
0000
1000
0000
,  // measure 71
0001
0000
0001
0000
,  // measure 72
1000
0010
1000
0010
,  // measure 73
1000
0000
0001
0000
,  // measure 74
0100
0000
0001
0000
,  // measure 75
1000
0000
0010
0000
,  // measure 76
0100
0000
1000
0000
,  // measure 77
0010
0000
0001
0000
,  // measure 78
0100
0000
1000
0000
,  // measure 79
0000
0000
0000
0000
,  // measure 80
0000
0000
0000
0000
,  // measure 81
0000
0000
0000
0000
,  // measure 82
0000
0000
1000
0000
,  // measure 83
0100
0000
0001
0000
,  // measure 84
0010
0000
0001
0000
,  // measure 85
0100
0000
1000
0000
,  // measure 86
0010
0000
1000
0000
,  // measure 87
0000
0000
0000
0000
,  // measure 88
0000
0000
1000
0000
,  // measure 89
1000
0100
0000
0001
,  // measure 90
0000
0001
0000
0010
,  // measure 91
0000
1000
0000
0100
,  // measure 92
0000
0001
0000
0010
,  // measure 93
0000
0100
1000
0000
,  // measure 94
0000
0100
0000
0010
,  // measure 95
0000
0000
0100
0000
0000
0000
0000
1000
,  // measure 96
0000
0000
0000
0000
,  // measure 97
0000
0000
0000
0000
,  // measure 98
0000
0000
0100
0000
,  // measure 99
1000
0000
1000
0000
,  // measure 100
1000
0000
0001
0000
,  // measure 101
0001
0000
0010
0000
,  // measure 102
0010
0000
0010
0000
,  // measure 103
0100
0000
1010
0000
,  // measure 104
1010
0000
0000
0000
,  // measure 105
1010
0000
0100
0010
,  // measure 106
1000
0000
0001
0000
,  // measure 107
0010
0000
1000
0000
,  // measure 108
0100
0000
0000
0000
,  // measure 109
0010
0000
0100
0000
,  // measure 110
1000
0000
0100
0000
,  // measure 111
0100
0000
0010
0000
,  // measure 112
0010
0000
1000
0000
,  // measure 113
0010
0000
0000
0000
,  // measure 114
0001
0000
0010
0000
,  // measure 115
0001
0000
0001
0000
,  // measure 116
1000
0000
0000
0000
,  // measure 117
1000
0000
0001
0000
,  // measure 118
0010
0000
0100
0000
,  // measure 119
0001
0000
0001
0000
,  // measure 120
1000
0000
0010
0000
,  // measure 121
0100
0000
0000
0000
,  // measure 122
2002
3003
0000
0000
;
