#TITLE:ATHAZA;
#SUBTITLE:;
#ARTIST:LeaF;
#TITLETRANSLIT:;
#SUBTITLETRANSLIT:;
#ARTISTTRANSLIT:;
#GENRE:;
#CREDIT:;
#BANNER:ATHAZA.png;
#BACKGROUND:ATHAZA-BG.png;
#LYRICSPATH:;
#CDTITLE:;
#MUSIC:ATHAZA.ogg;
#OFFSET:0.430000;
#SAMPLESTART:41.570000;
#SAMPLELENGTH:12.000000;
#SELECTABLE:YES;
#BPMS:0.000000=280.000000
,284.000000=270.000000
,285.000000=260.000000
,286.000000=249.999985
,287.000000=240.000000
,288.000000=270.000000
,320.000000=280.000000
,340.000000=270.000000
,344.000000=260.000000
,348.000000=249.999985
,350.000000=240.000000
,352.000000=280.000000
;
#STOPS:
;
#BGCHANGES:2.000=ATHAZA.avi=1.000=0=0=1=====,
99999=-nosongbg-=1.000=0=0=0 // don't automatically add -songbackground-
;
#KEYSOUNDS:;
#ATTACKS:;

//---------------dance-single - ----------------
#NOTES:
     dance-single:
     :
     Hard:
     11:
     0.728908,0.985152,0.301752,0.246888,0.000000,744.000000,700.000000,44.000000,36.000000,0.000000,0.000000,0.728908,0.985152,0.301752,0.246888,0.000000,744.000000,700.000000,44.000000,36.000000,0.000000,0.000000:
0000
0000
0000
0000
,
1000
0000
0001
0100
0001
0000
0010
0000
,
0100
1000
0001
0100
,
0010
0000
1000
0100
0010
0000
0001
0000
,
0100
0000
0010
0100
1000
0000
0001
0000
,
0202
0000
0000
0300
,
2000
0000
0000
3003
,
0001
0010
0100
0010
0001
0010
0100
1000
,
0100
0010
0100
1000
0100
0010
0001
0000
,
1000
0010
0100
0001
,
0010
0000
0001
0100
1000
0000
0100
0000
,
1000
0010
0001
0000
0100
0000
0010
0000
,
1000
0000
0001
0010
0100
0010
0001
0010
,
0100
0010
0001
0000
1000
0000
0010
0000
,
0100
0001
0010
0100
,
1000
0000
1000
0100
0010
0000
0100
0000
,
0001
0010
0101
0000
,
0001
0010
1000
0010
,
0001
0000
1000
0100
0001
0000
0010
0000
,
1000
0100
0010
0100
1000
0100
0010
0100
,
1000
0000
0001
0010
0200
0000
0000
0300
,
0010
0100
0010
0000
1000
0000
0001
0000
,
0100
0000
0010
0000
1000
0000
0100
0001
,
0100
0000
0010
1000
0010
0000
0100
0000
,
0002
0000
2000
3003
,
0001
0000
1000
0100
0010
0100
1000
0100
,
0010
0000
0100
0010
0001
0000
0010
0000
,
1000
0000
0001
0010
0100
0000
0001
0000
,
1000
0000
0010
1000
0000
0001
0100
0000
,
0101
0000
0001
0000
1000
0100
0010
0000
,
0100
0000
0010
1000
0000
0001
0100
0000
,
1010
0000
0000
0101
0000
0000
1001
0000
,
0001
0010
0100
1000
0100
0010
0001
0000
,
1010
0000
0010
0000
0100
0010
0100
0000
,
0101
0000
0000
1001
0000
0000
1010
0000
,
1000
0001
1001
1000
,
0001
0010
0200
0000
0000
0000
0300
0000
,
1001
0000
0001
0000
0100
0010
1000
0000
,
1010
0000
0100
0001
0000
1000
0010
0000
,
1001
0000
0000
0110
0000
0000
1001
0000
,
1000
0000
0000
0000
2002
0000
0000
3003
,
0202
0000
0000
0303
1001
0000
0110
0000
,
1001
0000
1000
0010
1000
0000
0001
0000
,
1000
0010
0100
0001
1000
0000
1001
0000
,
0002
0000
0000
0000
2000
0000
0000
3003
,
1000
0000
0001
0010
0100
1000
0100
0010
,
0001
0010
0100
1000
0100
0010
0001
0000
,
1001
0000
1000
0100
0010
0001
0010
0100
,
1000
0001
1000
0010
,
0200
0000
0001
0001
,
0001
0001
0302
0000
,
1003
0010
0100
0001
,
0010
0100
1000
0001
,
0100
0010
1000
0001
,
0010
0001
0100
0001
,
1000
0000
0010
0001
0100
0000
0010
0000
,
2000
0000
0001
0001
,
3001
0010
0100
0010
,
0001
1000
0100
0010
,
0100
1000
0001
0100
,
0010
0000
1000
0100
0001
0000
0010
0000
,
0001
1000
0100
1000
,
0010
0100
0010
0001
,
1000
0000
0010
0100
0010
0000
0010
0000
,
2000
0000
0000
0000
,
3001
0000
0000
0000
,
0000
0000
0000
0000
,
1001
0000
0001
0010
0100
1000
0001
0100
,
0010
1000
0010
0100
0001
1000
0100
0010
,
0001
0010
0100
1000
0000
0000
1000
0000
,
0001
0000
0000
0000
,
0000
0000
0000
0000
,
0001
0000
1000
0001
1000
0000
0010
0000
,
0100
0001
0010
0100
,
1000
0000
0001
1000
0001
0000
0010
0000
,
0100
0000
0010
0000
,
0100
0000
0010
1000
0010
0000
0100
0000
,
0001
1000
0010
0100
,
1000
0000
0001
0010
0100
0000
0010
0000
,
1000
0000
0001
0000
,
1001
0000
1010
0000
,
0101
0000
1001
0000
,
0110
0000
1001
0000
,
1010
0000
0101
0001
,
1000
0001
0000
0001
0100
0000
0100
0010
,
0000
0010
1000
0000
1000
0100
0010
0001
,
1000
0001
1000
0001
0100
0010
0100
0010
,
1000
0010
1000
0010
0100
0001
0100
0001
,
0100
0000
0000
0000
,
0000
0000
0000
0000
,
0000
0000
0000
0000
,
0000
0000
0000
0000
,
0000
0000
0000
0000
,
0000
0000
0000
0000
,
0000
0000
0000
0000
,
0000
0000
0000
0000
1000
0100
0010
0001
,
1000
0010
0100
0001
,
1000
0100
0010
0000
,
1000
0001
0010
0100
,
0010
0001
1000
0000
,
0010
0001
1000
0010
,
0100
0000
0001
0000
0010
0000
1000
0010
,
1000
0000
0001
0100
0001
0000
0010
0000
,
1000
0000
0000
0000
,
0001
0000
0100
0010
0100
0000
0010
0000
,
1000
0000
0100
0001
,
1000
0000
0010
1000
0010
0000
0100
0000
,
0001
0000
0010
1000
,
1001
0000
0001
1000
0001
0000
1001
0000
,
1000
0100
0010
0001
1000
0010
0100
0001
,
1000
0000
0001
0000
1000
0010
0100
0000
,
0001
0010
0100
0010
0001
0010
0100
0010
,
0001
0000
1000
0010
0000
0100
0001
0000
,
1000
0100
0010
0100
1000
0100
0010
0100
,
1000
0000
0001
0000
1000
0001
1000
0000
,
0001
0000
1000
0001
1000
0000
0001
1000
,
0001
0010
0100
1000
,
2002
0000
0000
3003
,
0010
0000
0100
0000
0001
0010
0100
0000
,
1000
0010
0100
0001
,
2000
0000
0000
0000
0000
0000
3001
1000
,
0001
0000
0000
0101
0000
0000
1010
0000
,
1001
0000
1001
0000
,
0101
0000
0001
0100
0001
0000
1000
0000
,
1000
0010
0100
0001
1000
0000
0001
0000
,
2000
0000
3001
0000
,
0001
0000
1000
0010
0100
0001
1000
0010
,
0100
0001
1000
0010
0100
0001
1000
0000
,
1001
0000
0010
0100
0010
0100
0010
0000
,
0001
0000
1000
0001
0000
0001
1000
0000
,
0100
0000
1000
0001
1000
0001
1000
0001
,
1000
0020
0230
0302
,
2003
0000
0001
0001
,
0001
0001
3002
0000
,
1003
0100
0010
0001
,
1000
0010
0100
0001
,
1000
1002
1000
1000
,
1003
0010
0100
0001
,
1000
0000
1000
0100
0001
0000
0010
0000
,
0200
0000
0310
1000
,
0002
0000
1000
1000
,
1000
1000
2003
0000
,
3001
0010
0100
1000
,
0001
0100
0010
1000
,
0001
2001
0001
0001
,
3001
0100
0010
1000
,
0001
0000
0001
0010
1000
0000
0100
0000
,
0020
0000
0130
0001
,
1000
0000
0010
0100
,
0001
0000
0001
0100
1000
0000
0010
0000
,
0100
0001
1000
0010
,
0100
1000
0001
0010
,
0200
0000
0301
1000
,
0010
0100
0001
0010
,
0100
1000
0001
1000
,
0002
0000
1003
0100
,
0020
0000
1030
0001
,
0100
0000
0001
0010
0100
0000
0010
0000
,
1000
0001
0100
0010
,
1000
0000
0001
1000
0001
0000
0010
0000
,
0100
0000
1000
0100
0001
0000
0010
0000
,
0100
1000
0001
0100
,
0010
0000
1000
0010
1000
0000
0001
0000
,
0200
0000
0301
1000
,
0001
1000
0000
1000
0010
0000
0010
0100
,
0000
0100
0001
0000
1000
0100
0010
0100
,
1000
0010
0001
0010
0100
0010
0001
0100
,
1000
0001
1000
0000
1000
0100
0010
0001
,
0000
0000
0000
0000
,
1001
0000
0000
0000
;

//---------------dance-single - ----------------
#NOTES:
     dance-single:
     :
     Medium:
     8:
     0.540803,0.579501,0.096012,0.178308,0.000000,552.000000,538.000000,14.000000,26.000000,0.000000,0.000000,0.540803,0.579501,0.096012,0.178308,0.000000,552.000000,538.000000,14.000000,26.000000,0.000000,0.000000:
0000
0000
0000
0000
,
0001
0100
1000
0010
,
0100
0001
1000
0100
,
0010
0001
0010
1000
,
0100
0010
0001
1000
,
2000
0000
0000
0000
,
0000
0000
0000
3000
,
1000
0010
0100
0001
,
0010
0100
1000
0010
,
0001
0010
0100
1000
,
0010
1000
0001
0100
,
0001
1000
0100
0010
,
0001
1000
0100
1000
,
0100
1000
0001
0010
,
0100
1000
0010
0100
,
0001
0001
0010
0100
,
1000
0010
1100
0000
,
1000
0010
0001
0010
,
1000
0001
1000
0010
,
0001
0010
0100
1000
,
0001
1000
0100
0000
,
0010
0010
0001
1000
,
0100
0010
0001
0100
,
0100
0010
0010
0100
,
2000
0000
0000
3000
,
1000
0001
0010
0100
,
1000
0100
1000
0010
,
0001
1000
0100
1000
,
0001
0010
0000
0100
,
0100
1000
0001
0010
,
0100
0010
0001
1000
,
0100
0000
0000
1001
0000
0000
0001
0000
,
1000
0010
0100
0010
,
1000
0001
0100
0010
,
1000
0000
0000
1001
0000
0000
0001
0000
,
0010
0100
1000
0001
,
1000
0200
0000
0300
,
1001
1000
0100
0001
,
0010
0100
1000
0010
,
0001
0000
0000
0110
0000
0000
1000
0000
,
0001
0000
2000
0000
,
0002
0000
0000
3003
0001
0000
0100
0000
,
1001
0001
0010
0100
,
1000
0100
0001
1000
,
2000
0000
0000
0000
0000
0000
0000
3000
,
0001
1000
0010
0100
,
0010
1000
0001
0100
,
0001
0010
0100
0010
,
0001
1000
0001
0010
,
0200
0000
0000
0000
,
0000
0000
2300
0000
,
3001
0010
0100
1000
,
0010
0100
0001
1000
,
0100
0010
0001
1000
,
0010
1000
0100
1000
,
0001
0010
1000
0010
,
0002
0000
0000
0000
,
0003
0010
0100
0010
,
1000
0001
0100
0010
,
0100
0001
1000
0100
,
0010
0001
1000
0010
,
1000
0001
0100
0001
,
0010
0100
0010
1000
,
0001
0010
0100
0010
,
0002
0000
0000
0000
,
1003
0000
0000
0000
,
0000
0000
0000
0000
,
0001
1000
0100
0010
,
0001
0010
1000
0100
,
1000
0100
0010
0001
,
1000
0000
0000
0000
,
0000
0000
0000
0000
,
1000
0010
0001
0010
,
0100
1000
0010
0100
,
0001
1000
1000
0010
,
0100
0000
0010
0000
,
0100
0010
0010
0100
,
1000
0001
0010
0100
,
0001
1000
0100
0010
,
0001
0000
1000
0000
,
0001
0000
0011
0000
,
1000
0000
1001
0000
,
0100
0000
1001
0000
,
0010
0000
1100
1000
,
0001
1000
0100
0100
,
0010
0001
0001
0100
,
0010
0100
1000
0100
,
0001
0010
0100
1000
,
0100
0000
0000
0000
,
0000
0000
0000
0000
,
0000
0000
0000
0000
,
0000
0000
0000
0000
,
0000
0000
0000
0000
,
0000
0000
0000
0000
,
0000
0000
0000
0000
,
0000
0000
0001
0010
,
0001
0010
0100
1000
,
0001
0100
0010
0000
,
0001
1000
0010
0100
,
0010
1000
0001
0000
,
0010
1000
0001
0010
,
0100
1000
0010
0001
,
0001
1000
1000
0010
,
0001
0000
0000
0000
,
1000
0100
0100
0010
,
0001
0000
0100
1000
,
0001
0010
0010
0100
,
1000
0000
0010
0001
,
1000
0100
0010
0001
,
0001
0010
0100
0010
,
0001
1000
0001
0100
,
1000
0010
0100
0010
,
1000
0001
0100
1000
,
0001
0010
0100
0010
,
0001
1000
0010
0100
,
1000
0100
0010
1000
,
1000
0010
0100
0001
,
2002
0000
0000
3003
,
0010
0100
1000
0100
,
0001
0010
0100
1000
,
0002
0000
0000
0000
0000
0003
1000
0000
,
1000
0000
0000
1100
0000
0000
0001
0000
,
1000
0000
1001
0000
,
0100
1000
1000
0001
,
0010
1000
0001
1000
,
0002
0000
1003
0000
,
1000
0001
0100
0010
,
1000
0010
0100
0001
,
1000
0010
0100
0010
,
1000
0001
0010
1000
,
0100
0001
0010
0100
,
1000
0010
0100
1000
,
0002
0000
0000
0000
,
0000
0000
2003
0000
,
3001
0100
0010
1000
,
0001
0010
0100
1000
,
0001
2000
0000
0000
,
3000
0010
0100
1000
,
0001
0000
0001
0100
1000
0000
0010
0000
,
0200
0000
0310
0001
,
2000
0000
0000
0000
,
0000
0000
3002
0000
,
1003
0010
0100
0001
,
1000
0100
0010
0001
,
1000
0002
0000
0000
,
0003
0100
0010
0001
,
1000
1000
0001
0100
,
0020
0000
0130
1000
,
0001
0000
0010
0100
,
1000
1000
0001
0010
,
0100
1000
0001
0010
,
0100
0001
1000
0010
,
0200
0000
1300
0001
,
0010
0100
1000
0010
,
0100
0001
1000
0001
,
2000
0000
3001
0100
,
0020
0000
0031
1000
,
0100
1000
0100
0010
,
0001
1000
0100
0010
,
0001
1000
1000
0010
,
0100
0001
1000
0010
,
0100
0001
1000
0100
,
0010
0001
0001
1000
,
0200
0000
1300
0001
,
1000
0100
0010
0010
,
0100
1000
0001
0010
,
0001
1000
0100
1000
,
0001
0010
0001
0010
,
1000
0000
0000
0000
,
1001
0000
0000
0000
;

//---------------dance-single - ----------------
#NOTES:
     dance-single:
     :
     Easy:
     5:
     0.284117,0.347701,0.013716,0.109728,0.000000,290.000000,288.000000,2.000000,16.000000,0.000000,0.000000,0.284117,0.347701,0.013716,0.109728,0.000000,290.000000,288.000000,2.000000,16.000000,0.000000,0.000000:
// measure 0
0000
0000
0000
0000
,  // measure 1
1000
0000
0001
0000
,  // measure 2
0100
0000
0001
0000
,  // measure 3
0010
0000
0010
0000
,  // measure 4
0100
0000
1000
0000
,  // measure 5
0001
0000
0000
0000
,  // measure 6
0000
0000
0000
0000
,  // measure 7
0001
0000
0100
0000
,  // measure 8
0010
0000
0001
0000
,  // measure 9
1000
0000
0100
0000
,  // measure 10
0010
0000
1000
0000
,  // measure 11
1000
0000
0100
0000
,  // measure 12
1000
0000
0001
0000
,  // measure 13
0010
0000
1000
0000
,  // measure 14
0001
0000
0010
0000
,  // measure 15
1000
0000
0010
0000
,  // measure 16
0001
0000
0100
0000
,  // measure 17
0001
0000
1000
0000
,  // measure 18
0001
0000
0010
0000
,  // measure 19
1000
0000
0100
0000
,  // measure 20
1000
0000
0100
0000
,  // measure 21
0010
0000
1000
0000
,  // measure 22
0100
0000
1000
0000
,  // measure 23
0100
0000
0010
0000
,  // measure 24
0001
0000
0000
0000
,  // measure 25
0001
0000
0010
0000
,  // measure 26
0001
0000
0001
0000
,  // measure 27
1000
0000
0100
0000
,  // measure 28
1000
0000
0100
0000
,  // measure 29
0010
0000
0001
0000
,  // measure 30
0100
0000
1000
0000
,  // measure 31
0100
0000
0000
0001
0000
0000
1000
0000
,  // measure 32
0001
0000
0010
0000
,  // measure 33
0100
0000
1000
0000
,  // measure 34
0001
0000
0000
0100
0000
0000
1000
0000
,  // measure 35
0010
0000
0001
0000
,  // measure 36
0001
0000
0000
0000
,  // measure 37
1000
0000
0100
0000
,  // measure 38
0010
0000
0001
0000
,  // measure 39
1000
0000
0000
0100
0000
0000
0001
0000
,  // measure 40
1000
0000
0002
0000
,  // measure 41
0000
0000
1003
0000
,  // measure 42
0001
0000
0010
0000
,  // measure 43
0001
0000
1000
0000
,  // measure 44
0002
0000
0000
0000
0000
0000
0000
0003
,  // measure 45
1000
0000
0100
0000
,  // measure 46
0010
0000
0001
0000
,  // measure 47
1000
0000
0100
0000
,  // measure 48
1000
0000
1000
0000
,  // measure 49
0200
0000
0000
0000
,  // measure 50
0000
0000
0000
0000
,  // measure 51
1300
0000
0100
0000
,  // measure 52
0010
0000
1000
0000
,  // measure 53
0100
0000
0001
0000
,  // measure 54
0010
0000
0100
0000
,  // measure 55
1000
0000
0001
0000
,  // measure 56
2000
0000
0000
0000
,  // measure 57
3000
0000
0100
0000
,  // measure 58
0001
0000
0100
0000
,  // measure 59
1000
0000
0001
0000
,  // measure 60
0010
0000
0100
0000
,  // measure 61
0010
0000
0001
0000
,  // measure 62
0010
0000
0100
0000
,  // measure 63
1000
0000
0100
0000
,  // measure 64
2000
0000
0000
0000
,  // measure 65
3000
0000
0000
0000
,  // measure 66
0000
0000
0000
0000
,  // measure 67
1000
0000
0100
0000
,  // measure 68
1000
0000
0001
0000
,  // measure 69
0001
0000
0010
0000
,  // measure 70
0001
0000
0000
0000
,  // measure 71
0000
0000
0000
0000
,  // measure 72
0001
0000
0100
0000
,  // measure 73
0010
0000
1000
0000
,  // measure 74
0100
0000
0010
0000
,  // measure 75
0001
0000
0010
0000
,  // measure 76
0100
0000
0010
0000
,  // measure 77
0001
0000
0010
0000
,  // measure 78
1000
0000
0100
0000
,  // measure 79
1000
0000
0001
0000
,  // measure 80
1000
0000
0010
0000
,  // measure 81
0001
0000
1000
0000
,  // measure 82
0100
0000
0001
0000
,  // measure 83
0010
0000
0100
0000
,  // measure 84
1000
0000
0100
0000
,  // measure 85
0010
0000
1000
0000
,  // measure 86
0010
0000
0001
0000
,  // measure 87
1000
0000
0100
0000
,  // measure 88
0100
0000
0000
0000
,  // measure 89
0000
0000
0000
0000
,  // measure 90
0000
0000
0000
0000
,  // measure 91
0000
0000
0000
0000
,  // measure 92
0000
0000
0000
0000
,  // measure 93
0000
0000
0000
0000
,  // measure 94
0000
0000
0000
0000
,  // measure 95
0000
0000
1000
0000
,  // measure 96
1000
0000
0100
0000
,  // measure 97
1000
0000
0010
0000
,  // measure 98
1000
0000
0010
0000
,  // measure 99
0010
0000
1000
0000
,  // measure 100
0010
0000
1000
0000
,  // measure 101
0100
0000
0010
0000
,  // measure 102
1000
0000
0001
0000
,  // measure 103
1000
0000
0000
0000
,  // measure 104
0001
0000
0100
0000
,  // measure 105
1000
0000
0100
0000
,  // measure 106
1000
0000
0010
0000
,  // measure 107
0001
0000
0010
0000
,  // measure 108
0001
0000
0010
0000
,  // measure 109
1000
0000
0100
0000
,  // measure 110
1000
0000
1000
0000
,  // measure 111
0001
0000
0100
0000
,  // measure 112
0001
0000
0100
0000
,  // measure 113
1000
0000
0100
0000
,  // measure 114
1000
0000
0010
0000
,  // measure 115
0001
0000
0010
0000
,  // measure 116
0001
0000
0100
0000
,  // measure 117
2002
0000
0000
3003
,  // measure 118
0010
0000
0001
0000
,  // measure 119
1000
0000
0100
0000
,  // measure 120
2000
0000
0000
0000
0000
3000
0000
0000
,  // measure 121
0001
0000
0000
0100
0000
0000
1000
0000
,  // measure 122
0001
0000
1000
0000
,  // measure 123
0100
0000
0001
0000
,  // measure 124
0010
0000
1000
0000
,  // measure 125
2000
0000
3000
0000
,  // measure 126
0001
0000
0100
0000
,  // measure 127
0001
0000
0100
0000
,  // measure 128
0001
0000
0100
0000
,  // measure 129
0001
0000
0010
0000
,  // measure 130
0100
0000
0010
0000
,  // measure 131
0001
0000
0100
0000
,  // measure 132
2000
0000
0000
0000
,  // measure 133
0000
0000
0000
0000
,  // measure 134
3000
0000
0010
0000
,  // measure 135
1000
0000
0100
0000
,  // measure 136
0002
0000
0000
0000
,  // measure 137
0003
0000
0010
0000
,  // measure 138
0001
0000
1000
0000
,  // measure 139
0100
0000
0010
0000
,  // measure 140
0002
0000
0000
0000
,  // measure 141
0000
0000
0000
0000
,  // measure 142
0003
0000
0100
0000
,  // measure 143
0001
0000
0010
0000
,  // measure 144
0001
0000
1000
0000
,  // measure 145
0100
0000
0010
0000
,  // measure 146
0001
0000
1000
0000
,  // measure 147
0020
0000
0030
0000
,  // measure 148
1000
0000
0010
0000
,  // measure 149
0001
0000
1000
0000
,  // measure 150
0100
0000
1000
0000
,  // measure 151
0100
0000
0001
0000
,  // measure 152
0200
0000
0300
0000
,  // measure 153
0010
0000
0001
0000
,  // measure 154
0100
0000
0001
0000
,  // measure 155
0002
0000
0003
0000
,  // measure 156
0010
0000
1000
0000
,  // measure 157
0100
0000
0100
0000
,  // measure 158
1000
0000
0010
0000
,  // measure 159
0001
0000
1000
0000
,  // measure 160
0100
0000
0001
0000
,  // measure 161
0100
0000
0001
0000
,  // measure 162
0010
0000
1000
0000
,  // measure 163
0200
0000
0300
0000
,  // measure 164
0001
0000
0010
0000
,  // measure 165
0100
0000
1000
0000
,  // measure 166
1000
0000
0100
0000
,  // measure 167
1000
0000
1000
0000
,  // measure 168
0001
0000
0000
0000
,  // measure 169
1001
0000
0000
0000
;
