#TITLE:3rd Estate;
#SUBTITLE:;
#ARTIST:LeaF;
#TITLETRANSLIT:;
#SUBTITLETRANSLIT:;
#ARTISTTRANSLIT:;
#GENRE:;
#CREDIT:;
#BANNER:3rd Estate.png;
#BACKGROUND:3rd Estate-BG.png;
#LYRICSPATH:;
#CDTITLE:;
#MUSIC:3rd Estate.ogg;
#OFFSET:-1.911000;
#SAMPLESTART:51.757000;
#SAMPLELENGTH:24.000000;
#SELECTABLE:YES;
#BPMS:0.000000=130.000000
;
#STOPS:
;
#BGCHANGES:;
#KEYSOUNDS:;
#ATTACKS:;

//---------------dance-single - ----------------
#NOTES:
     dance-single:
     :
     Hard:
     11:
     0.609190,0.839279,0.020904,0.000000,0.487750,612.000000,609.000000,3.000000,0.000000,0.000000,0.000000,0.609190,0.839279,0.020904,0.000000,0.487750,612.000000,609.000000,3.000000,0.000000,0.000000,0.000000:
1001
0000
0000
0000
0000
0000
0000
0000
0000
0000
1000
0100
1000
0000
0000
0000
,
1000
0000
0010
0000
0100
0000
0001
0000
1000
0000
0001
0010
0001
0000
1000
0000
,
0010
0000
0000
0000
0100
0000
0000
0000
0001
1000
0000
0000
0001
0000
0100
0000
,
0001
0000
1000
0000
0010
0000
0100
0000
0001
0010
0100
0010
0001
0000
1000
0000
,
0100
0000
0000
0000
0010
0000
0000
0000
1000
0100
1000
0000
0001
0000
0000
0000
,
0001
0000
0000
0001
1000
0000
0100
0000
0010
0100
0010
0000
1000
0100
1000
0000
,
0010
0000
0000
0100
0001
0000
1000
0100
0010
0100
1000
0000
0001
0000
0100
0000
,
0010
0000
0000
1000
0001
0000
0100
0000
0010
1000
0010
0000
0100
0001
0100
0000
,
0010
0000
0000
1000
0001
0000
0100
0000
0010
0000
1000
0010
0001
0010
1000
0000
,
0100
0001
1000
0010
0100
0001
0010
0100
,
1000
0010
0100
0001
0010
0100
0001
0100
,
1000
0010
0001
0100
0010
1000
0001
0100
,
1000
0010
0100
0001
0010
0001
1000
0100
,
0010
0000
0000
1000
0100
0000
0010
0000
0000
0100
0010
0000
0001
0010
0001
0000
,
1000
0000
0000
0010
0100
0000
0001
0010
0000
0100
1000
0000
0010
0000
0100
0000
,
0001
0000
0000
0010
0100
0000
0010
0000
0000
1000
0001
0000
0001
0010
0100
0000
,
0010
0000
0000
0100
1000
0000
0001
0010
0000
0100
1000
0100
0010
0100
1000
0000
,
0001
0000
0010
0100
0010
0000
1000
0000
0001
0000
0000
0010
0000
0000
0100
0000
,
0001
0000
0000
1000
0000
0000
0010
0000
1000
0000
0000
0000
0001
0000
0000
0000
,
0100
0000
0010
0100
0010
0000
1000
0000
0001
0000
0000
0010
0000
0000
0100
0000
,
1000
0000
0000
0001
0000
0000
0010
0000
0100
0000
0000
0000
0001
0000
0000
0000
,
1000
0000
0000
0010
0100
0010
0001
1000
,
0010
0000
0000
0100
0000
0000
0010
0000
1000
0000
0001
0000
0100
0000
0010
0000
,
0001
0000
0000
1000
0010
0100
0001
1000
,
0001
0000
0000
0000
0100
0000
0010
0000
0100
0000
0000
0001
1001
0000
0000
0000
,
0001
0000
0000
0000
0100
0000
0000
0000
0010
0100
0010
0000
1000
0000
0001
0000
,
0100
0000
0001
0010
1000
0010
0001
0000
1000
0100
1000
0000
0010
0000
0000
0000
,
0100
0000
0010
1000
0010
0000
0100
0000
0001
0000
0000
0001
1000
0000
0010
0000
,
0100
0000
0000
0010
0100
0000
0001
0000
1000
0000
0000
0000
0010
0000
0100
0000
,
0001
0000
1000
0010
1000
0000
0001
0000
0100
0000
0000
0001
1000
0000
0010
0000
,
0100
0000
0000
1000
0010
0000
0100
0000
0001
0000
0000
0000
1000
0000
0010
0000
,
0100
0000
0010
1000
0001
0100
1000
0010
,
0100
0000
0000
0010
1000
0000
0001
0000
0100
0000
0010
0000
1000
0000
0100
0000
,
1000
0000
0001
0010
0100
1000
0100
0010
,
0001
0000
0000
0000
1000
0000
0100
0000
1000
0000
0000
0010
0100
0000
0000
0000
,
0001
0000
1000
0010
1000
0000
0100
0000
0001
0000
0000
0010
0000
0000
1000
0000
,
0010
0000
0000
0001
0100
0000
0010
0000
1000
0000
0000
0000
0010
0000
0100
0000
,
0001
0000
1000
0100
1000
0000
0010
0000
0100
0000
0000
0001
0010
0000
0001
0000
,
1000
0000
0000
0001
0100
0000
0010
0000
1000
0000
0000
0000
0010
0000
1000
0000
,
0001
0000
0100
0010
1000
0001
0100
0010
,
1000
0000
0000
0001
0100
0000
0010
0000
1000
0000
0001
0000
0100
0000
0010
0000
,
0001
0000
1000
0010
0100
0001
1000
0100
,
0010
0000
0000
0000
0001
0000
1000
0000
0001
0000
0000
0010
0100
0000
0000
0000
,
0001
0000
0000
0000
1000
0000
0010
0000
0100
0000
0001
0000
1000
0100
0010
0001
,
0010
0100
1000
0000
0010
0000
0100
0000
0001
0010
0100
0010
0001
0000
0000
0000
,
1000
0000
0100
0000
1000
0100
1000
0000
0001
0000
0010
0000
0001
0010
0001
0010
,
0001
0000
1000
0000
0001
0000
1000
0000
0001
0000
1000
0000
0001
0000
0000
0100
0000
0000
0001
0000
0000
0000
0000
0000
0010
0000
0000
0000
0000
0000
1000
0000
0000
0010
0000
0000
1000
0000
0000
0000
0000
0000
0000
0000
0000
0000
0000
0000
,
0001
0000
0000
0001
1000
0000
0100
0000
0010
0100
0010
0000
1000
0001
1000
0000
,
0001
0000
0000
0001
0100
0000
0010
0100
1000
0100
0010
0000
0100
0000
0001
0000
,
0010
0000
0000
1000
0010
0000
0100
0000
0001
0010
0001
0000
1000
0100
1000
0000
,
0010
0000
0000
0100
0010
0000
0010
0100
1000
0100
0010
0001
0010
0100
1000
0000
,
0001
0010
0001
0010
0001
0010
0001
0010
0100
1000
0100
1000
0100
1000
0100
1000
,
0001
0100
0001
0100
0001
0100
0001
0100
0010
1000
0010
1000
0010
1000
0010
1000
,
0001
1000
0001
1000
0001
1000
0001
1000
0010
0100
0010
0100
0010
0100
0010
0100
,
0001
0010
0100
1000
0100
0010
0001
0010
0100
0010
0001
0010
0100
1000
0100
0010
,
0100
0000
0000
0000
0010
0000
0000
0000
0100
0010
0100
0000
1000
0000
0001
0000
,
1000
0000
0001
0010
0100
0010
0001
0000
1000
0100
1000
0000
0010
0000
0000
0000
,
0100
0000
0001
0010
0001
0000
1000
0000
0010
0000
0000
0100
0000
0000
0001
0000
,
0010
0000
0000
0100
1000
0000
0001
0000
0010
0000
0000
0000
0010
0000
0001
0000
,
1000
0000
0001
0100
0001
0000
0010
0000
1000
0000
0000
0010
0100
0000
0001
0000
,
0010
0000
0000
0100
1000
0000
0001
0000
0100
0000
0000
0000
0010
0000
1000
0000
,
0100
0000
1000
0010
0100
0001
0010
1000
,
0100
0000
0000
0001
0010
0000
0001
0000
0100
0000
0010
0000
1000
0000
0100
0000
,
0010
0000
0100
0001
1000
0010
0001
0100
,
0010
0000
0000
0000
1000
0000
0010
0000
0100
0000
0000
0001
0010
0000
0000
0000
,
0100
0000
0010
1000
0010
0000
0100
0000
0001
0000
0000
0010
0000
0000
1000
0000
,
0001
0000
0000
0100
0000
0000
0010
0000
1000
0000
0000
0000
0001
0000
0000
0000
,
0100
0000
0010
0001
0010
0000
1000
0000
0100
0000
0000
1000
0000
0000
0001
0000
,
0010
0000
0000
0100
0000
0000
0010
0000
1000
0000
0000
0000
0100
0000
0000
0000
,
0001
0000
0000
1000
0010
0100
0001
1000
,
0100
0000
0000
1000
0000
0000
0001
0000
0100
0000
0010
0000
1000
0000
0100
0000
,
0001
0000
0000
0001
0010
0100
0010
0100
,
1000
0000
0000
0000
0001
0000
0100
0000
0010
0000
0000
1000
0100
0000
0000
0000
,
1001
0000
0000
0000
;

//---------------dance-single - ----------------
#NOTES:
     dance-single:
     :
     Medium:
     7:
     0.366311,0.432356,0.020904,0.000000,0.000000,368.000000,365.000000,3.000000,0.000000,0.000000,0.000000,0.366311,0.432356,0.020904,0.000000,0.000000,368.000000,365.000000,3.000000,0.000000,0.000000,0.000000:
1100
0000
0000
0000
0000
0100
0100
0000
,
0100
0000
0001
0000
0100
0010
1000
0000
,
0010
0001
1000
1000
,
1000
0000
0010
0000
1000
0001
1000
0000
,
0001
0000
0010
0000
0100
0001
1000
0000
,
1000
0000
0100
0000
0010
0001
0100
0001
,
0010
0000
1000
0100
0010
0100
1000
0000
,
0010
0000
1000
0000
0010
0100
1000
0001
,
0010
0000
1000
0000
0010
0100
1000
0100
,
0001
0100
0001
0010
,
0100
0001
0010
1000
,
0100
1000
0010
1000
,
0100
0001
0010
0100
,
0010
0000
0001
0000
0000
0010
1000
0001
,
0100
0000
0001
1000
0000
0100
0010
0000
,
1000
0000
0001
0010
0000
1000
1000
0001
,
0010
0000
0100
0000
0010
0100
0010
0100
,
1000
0001
0010
0000
1000
0000
0010
0000
,
1000
0001
0100
1000
,
0001
0100
0010
0000
1000
0000
0010
0000
,
0100
1000
0001
1000
,
0100
1000
0001
1000
,
0010
0001
0100
0001
,
1000
0001
0010
1000
,
1000
0001
0001
1100
,
1000
0000
0001
0000
0010
0010
0100
0000
,
0001
1000
0100
1000
0100
0001
0010
0000
,
0001
0010
0010
0001
1000
0000
0100
0000
,
0001
0001
0100
0010
,
1000
0100
0100
0000
0001
0000
0100
0000
,
0001
0010
1000
0100
,
0001
0010
1000
0100
,
0001
0100
0001
0100
,
0100
1000
0001
0001
,
1000
0100
0100
0001
,
1000
0100
0100
0000
1000
0000
0001
0000
,
0010
0001
0100
0010
,
1000
0001
0100
0000
0001
0000
0010
0000
,
0100
0001
0100
0010
,
1000
0001
0100
0001
,
0100
0001
0100
0001
,
1000
0100
0001
0100
,
0010
1000
1000
0001
,
1000
0000
0100
0000
0001
0000
0100
0010
,
0010
0100
0010
0001
1000
0001
1000
0000
,
0100
0001
0100
0100
1000
0010
1000
0100
,
1000
0000
1000
0100
0010
1000
0100
0000
,
1000
0000
0100
0000
0010
0010
0100
0100
,
1000
0000
0001
0010
0100
0010
0001
0000
,
0010
0000
0010
0000
1000
1000
0100
0100
,
0010
0000
0010
0010
0100
0010
0010
0100
,
1000
1000
1000
1000
0001
0001
0001
0001
,
1000
1000
1000
1000
0010
0010
0010
0010
,
1000
1000
1000
1000
0010
0010
0010
0010
,
1000
0001
0001
1000
0001
1000
0001
0001
,
0001
0000
0010
0000
0001
0001
0100
0000
,
0100
1000
0001
1000
0100
0100
0010
0000
,
0001
1000
1000
0000
0010
0000
0001
0000
,
0010
0100
0010
0010
,
0100
0010
1000
0010
0100
0000
0001
1000
,
0010
0100
0001
0010
,
0001
0100
0001
0010
,
0001
0010
0001
0100
,
0010
0001
0100
1000
,
0010
0100
0001
0010
,
0001
0010
0010
0000
1000
0000
0001
0000
,
1000
0010
0100
1000
,
0001
0010
0010
0000
0001
0000
1000
0000
,
0010
0001
0100
0001
,
1000
0001
0010
1000
,
0001
0010
0001
0100
,
1000
0001
0010
0010
,
0100
1000
0010
0001
,
1001
0000
0000
0000
;

//---------------dance-single - ----------------
#NOTES:
     dance-single:
     :
     Easy:
     3:
     0.195100,0.228894,0.006968,0.000000,0.000000,196.000000,195.000000,1.000000,0.000000,0.000000,0.000000,0.195100,0.228894,0.006968,0.000000,0.000000,196.000000,195.000000,1.000000,0.000000,0.000000,0.000000:
// measure 0
0001
0000
0000
1000
,  // measure 1
0000
0100
0000
0001
,  // measure 2
0000
0100
0000
0001
,  // measure 3
0000
0010
1000
0001
,  // measure 4
0100
0000
1000
0001
,  // measure 5
0001
0000
0010
1000
,  // measure 6
0010
0001
0010
0001
,  // measure 7
0010
0000
0010
0001
,  // measure 8
0010
0000
0010
0001
,  // measure 9
0100
0000
0100
0000
,  // measure 10
1000
0000
0010
0000
,  // measure 11
1000
0000
0010
0000
,  // measure 12
1000
0000
0010
0000
,  // measure 13
0010
0000
0000
0001
,  // measure 14
1000
0100
0000
0010
,  // measure 15
0000
0100
0000
0001
,  // measure 16
0010
0000
0010
0010
,  // measure 17
0001
0010
0000
0010
,  // measure 18
0000
0100
0000
0001
,  // measure 19
0100
0010
0000
0010
,  // measure 20
0000
0001
0000
0001
,  // measure 21
0000
0001
0000
0001
,  // measure 22
0000
0100
0000
0100
,  // measure 23
0000
0100
0000
0001
,  // measure 24
0000
0100
0000
1000
,  // measure 25
0001
0000
0010
1000
,  // measure 26
0100
1000
1000
0010
,  // measure 27
0100
0010
0001
0000
,  // measure 28
0100
0000
1000
0000
,  // measure 29
0001
1000
0100
0000
,  // measure 30
0100
0000
0001
0000
,  // measure 31
0100
0000
0001
0000
,  // measure 32
0100
0000
0100
0000
,  // measure 33
1000
0000
0100
0000
,  // measure 34
0001
0000
1000
0000
,  // measure 35
0001
1000
0000
0100
,  // measure 36
0000
0100
0000
0010
,  // measure 37
0001
1000
0000
0010
,  // measure 38
0000
0100
0000
0010
,  // measure 39
0000
0100
0000
0100
,  // measure 40
0000
0100
0000
0100
,  // measure 41
0000
1000
0000
1000
,  // measure 42
0000
0001
0000
0100
,  // measure 43
0000
1000
0000
1000
,  // measure 44
0010
0010
0001
0001
,  // measure 45
1000
1000
0001
0001
,  // measure 46
0001
0001
0010
1000
,  // measure 47
0000
1000
0010
1000
,  // measure 48
0001
0100
1000
0100
,  // measure 49
0010
0000
0001
1000
,  // measure 50
0010
0010
1000
0010
,  // measure 51
0001
0001
0100
0100
,  // measure 52
0001
0001
0010
0010
,  // measure 53
0001
0001
0010
0010
,  // measure 54
0001
0100
0100
0100
,  // measure 55
0100
0010
0100
1000
,  // measure 56
1000
0100
1000
0010
,  // measure 57
0100
0001
0000
0100
,  // measure 58
0000
1000
0000
0010
,  // measure 59
1000
0001
1000
0100
,  // measure 60
0010
1000
0000
0010
,  // measure 61
0000
1000
0000
0010
,  // measure 62
0000
0010
0000
1000
,  // measure 63
0000
0100
0000
0001
,  // measure 64
0000
1000
0000
0010
,  // measure 65
0100
0010
0001
0000
,  // measure 66
0001
0000
1000
0000
,  // measure 67
0100
0010
0000
0001
,  // measure 68
0000
0100
0000
0100
,  // measure 69
0000
0100
0000
0001
,  // measure 70
0000
0010
0000
1000
,  // measure 71
0000
0100
0000
0010
,  // measure 72
0000
0001
0000
0100
,  // measure 73
1001
0000
0000
0000
;
