#TITLE:10,000,000,000;
#SUBTITLE:(Ten Billion);
#ARTIST:TAG Feat. 96;
#TITLETRANSLIT:;
#SUBTITLETRANSLIT:;
#ARTISTTRANSLIT:;
#GENRE:;
#CREDIT:;
#BANNER:10,000,000,000.png;
#BACKGROUND:10,000,000,000-BG.png;
#LYRICSPATH:;
#CDTITLE:;
#MUSIC:10,000,000,000.ogg;
#OFFSET:-0.181000;
#SAMPLESTART:18.913000;
#SAMPLELENGTH:12.000000;
#SELECTABLE:YES;
#BPMS:0.000000=205.000000
;
#STOPS:
;
#BGCHANGES:;
#KEYSOUNDS:;
#ATTACKS:;

//---------------dance-single - ----------------
#NOTES:
     dance-single:
     :
     Hard:
     10:
     0.649396,0.675756,0.060476,0.000000,0.020159,451.000000,445.000000,6.000000,0.000000,0.000000,0.000000,0.649396,0.675756,0.060476,0.000000,0.020159,451.000000,445.000000,6.000000,0.000000,0.000000,0.000000:
1000
0100
0010
0100
1000
0000
0001
0010
,
1000
0010
0001
0000
1000
0100
0001
0100
,
1000
0010
0001
0010
1000
0000
0001
0010
,
0100
0010
0001
0000
0001
0010
1000
0010
,
0100
0001
1000
0001
0100
0000
0010
1000
,
0100
1000
0010
0000
0100
0001
0010
0001
,
0100
1000
0010
1000
0100
0000
0010
1000
,
0001
1000
0010
0000
0010
1000
0100
1000
,
0010
1000
0001
1000
0010
0000
0100
0001
,
0010
0001
0100
0000
0010
1000
0100
1000
,
0010
0001
0100
0001
0010
0000
0100
0001
,
1000
0001
0100
0000
0100
0001
0010
0001
,
0100
0010
0100
0010
0001
0000
1000
0100
,
0001
0100
1000
0000
0001
0010
1000
0010
,
0001
0100
1000
0100
0001
0000
1000
0100
,
0010
0000
0100
0000
1000
0000
1001
0000
0000
1001
0000
0000
0000
0000
0000
0000
,
1000
0000
0100
0000
0010
0000
0001
0010
,
0100
0000
0010
0000
1000
0100
0001
0000
,
0010
0000
0001
0100
1000
0100
0001
0100
,
1000
0000
0010
0000
0100
0000
0010
1000
,
0001
0010
0100
1000
,
0010
0001
0100
0000
0001
0000
0010
0000
,
0100
1000
0001
0010
,
0001
0000
0000
0000
1000
0000
0000
0000
0100
0000
1000
0001
1000
0000
0001
1000
,
0001
0000
0010
0000
0100
0000
0010
1000
,
0001
1000
0010
1000
,
0100
0000
0001
0010
0100
0010
0001
0000
,
0100
0000
0010
0000
0001
0100
1000
0000
,
0001
0000
1000
0000
0100
0001
0010
0000
,
0100
1000
0001
0010
,
0100
0010
0001
1000
,
0010
0100
0010
0001
,
1000
0000
0010
0000
0100
0010
0001
0010
,
0100
0001
1000
0010
,
0100
0001
1000
0100
,
1000
0001
0010
0001
,
0100
0010
0100
1000
,
0001
0010
0100
0010
,
1000
0000
0001
0100
0010
0000
0100
0000
,
1000
0100
0010
0001
,
1000
0000
0100
0000
1000
0100
0010
0001
,
1000
0000
0010
0000
0001
0000
0100
1000
,
0010
1000
0001
0100
,
0001
0000
0010
0000
1000
0000
0000
0010
0000
0000
0100
0000
0000
0000
0000
0000
,
0001
0010
0001
0000
0100
0000
0100
0000
,
0010
0010
1000
1000
,
0001
0010
0100
0000
0100
0000
0010
0000
,
0010
1000
1000
0001
,
1000
0000
0100
0000
0010
0001
0100
0000
,
1000
0000
0001
0000
0100
0010
0100
0000
,
0010
0000
0001
0000
1000
0000
1000
0100
,
0010
0001
1000
0100
,
0010
0000
0001
0100
0001
0000
0100
0000
,
0010
0001
1000
0010
,
0100
0000
0010
0100
1000
0000
0001
0000
,
0100
0010
0100
0001
,
1000
0000
0010
0000
0100
0000
0001
0010
,
1000
0000
0100
0000
1000
0100
0010
0001
,
1000
0000
0001
0000
0010
0000
0001
0100
,
0001
1000
0100
0010
,
0100
0010
0100
0001
,
1000
0100
0001
0000
1000
0000
0001
0000
,
0001
0010
0100
0010
0001
0000
1000
0100
,
0001
0100
1000
0000
0001
0010
1000
0010
,
0001
0100
1000
0100
0001
0000
1000
0100
,
0010
0100
1000
0000
1000
0100
0001
0100
,
0010
1000
0001
1000
0010
0000
0100
0001
,
0010
0001
0100
0000
0010
1000
0100
1000
,
0010
0001
0100
0001
0010
0000
0100
0001
,
1000
0001
0100
0000
0100
0001
0010
0001
,
0100
0001
1000
0001
0100
0000
0010
1000
,
0100
1000
0010
0000
0100
0001
0010
0001
,
0100
1000
0010
1000
0100
0000
0010
1000
,
0001
1000
0010
0000
0010
1000
0100
1000
,
0010
0100
0010
0100
1000
0000
0001
0010
,
1000
0010
0001
0000
1000
0100
0001
0100
,
1000
0010
0001
0010
1000
0000
0001
0010
,
0100
0010
0001
0010
0100
1000
0100
0000
,
1001
0000
0000
1010
0000
0000
1001
1001
;

//---------------dance-single - ----------------
#NOTES:
     dance-single:
     :
     Medium:
     7:
     0.460769,0.437254,0.030238,0.000000,0.005040,320.000000,317.000000,3.000000,0.000000,0.000000,0.000000,0.460769,0.437254,0.030238,0.000000,0.005040,320.000000,317.000000,3.000000,0.000000,0.000000,0.000000:
0100
1000
0010
0001
,
0100
1000
0010
0001
,
0100
0001
1000
0001
,
0010
0001
0001
0100
,
0010
0100
0010
1000
,
0010
0001
0100
1000
,
0010
1000
0100
1000
,
0001
1000
1000
0010
,
1000
0001
1000
0010
,
1000
0001
1000
0100
,
0001
0010
1000
0010
,
0100
0010
0001
1000
,
0010
0100
0010
1000
,
0001
0010
1000
0100
,
0010
1000
0001
0100
,
1000
0000
0000
0000
0100
0000
0001
0000
0000
0101
0000
0000
0000
0000
0000
0000
,
0100
0010
1000
0001
,
0010
1000
0100
0001
,
1000
0001
0100
0001
,
0100
1000
0010
1000
,
0001
1000
0010
0100
,
1000
0010
0001
1000
,
0010
0100
0001
1000
,
0001
0100
0010
0100
,
0001
1000
0010
1000
,
0001
0100
1000
0100
,
0010
0001
0010
0001
,
0010
1000
0001
0100
,
0001
0100
0010
1000
,
0010
0100
0001
1000
,
0010
1000
0001
0100
,
1000
0010
1000
0001
,
0100
1000
0010
0001
,
0010
0001
0100
1000
,
0010
0001
0100
0010
,
0100
0001
1000
0001
,
0010
1000
0010
0100
,
0001
1000
0010
1000
,
0100
0001
1000
0010
,
0100
0010
1000
0001
,
0100
0010
0100
1000
,
0100
1000
0001
0010
,
1000
0100
0001
0010
,
0001
0100
1000
0010
,
0001
0001
0010
0010
,
1000
1000
0100
0100
,
0001
0010
0010
1000
,
1000
0100
0100
0001
,
0100
0010
1000
0010
,
0100
0001
0010
0010
,
1000
0001
0100
0100
,
1000
0001
0100
0010
,
1000
0001
0001
0010
,
1000
0001
0100
1000
,
0010
1000
0100
0001
,
0010
1000
0010
0001
,
0100
1000
0010
0001
,
0100
0010
0100
1000
,
0100
0001
1000
0001
,
0001
0100
0010
1000
,
0010
1000
0010
0001
,
0100
0001
0100
0001
,
1000
0010
0100
1000
,
0010
0001
0010
0001
,
0010
1000
0100
1000
,
0100
0001
0100
0001
,
1000
0010
1000
0010
,
0100
0010
1000
0010
,
0100
0010
1000
0001
,
0100
0010
1000
0001
,
0010
0100
0010
1000
,
0100
0001
0010
0100
,
0001
1000
0100
1000
,
0001
1000
1000
0010
,
1000
1000
0100
0010
,
1000
0001
0100
1000
,
0010
0001
0100
0001
,
0010
0000
0001
0000
0010
0100
1000
0000
,
0100
0000
0000
1000
0000
0000
0101
0101
;

//---------------dance-single - ----------------
#NOTES:
     dance-single:
     :
     Easy:
     4:
     0.230385,0.238502,0.000000,0.000000,0.000000,160.000000,160.000000,0.000000,0.000000,0.000000,0.000000,0.230385,0.238502,0.000000,0.000000,0.000000,160.000000,160.000000,0.000000,0.000000,0.000000,0.000000:
// measure 0
0010
0000
1000
0000
,  // measure 1
0001
0000
1000
0000
,  // measure 2
0010
0000
0100
0000
,  // measure 3
1000
0000
0001
0000
,  // measure 4
0100
0000
0010
0000
,  // measure 5
1000
0000
0010
0000
,  // measure 6
1000
0000
0010
0000
,  // measure 7
0001
0000
0100
0000
,  // measure 8
1000
0000
0100
0000
,  // measure 9
0001
0000
1000
0000
,  // measure 10
0001
0000
0100
0000
,  // measure 11
0010
0000
0001
0000
,  // measure 12
1000
0000
0010
0000
,  // measure 13
0001
0000
0100
0000
,  // measure 14
1000
0000
0001
0000
,  // measure 15
0100
0000
0010
0000
,  // measure 16
0010
0000
0100
0000
,  // measure 17
1000
0000
0010
0000
,  // measure 18
0100
0000
0001
0000
,  // measure 19
0010
0000
1000
0000
,  // measure 20
0001
0000
1000
0000
,  // measure 21
0100
0000
0001
0000
,  // measure 22
1000
0000
0001
0000
,  // measure 23
0100
0000
1000
0000
,  // measure 24
0001
0000
1000
0000
,  // measure 25
0001
0000
0100
0000
,  // measure 26
1000
0000
0010
0000
,  // measure 27
0001
0000
0010
0000
,  // measure 28
1000
0000
0100
0000
,  // measure 29
1000
0000
0001
0000
,  // measure 30
1000
0000
0001
0000
,  // measure 31
0100
0000
0100
0000
,  // measure 32
0010
0000
1000
0000
,  // measure 33
1000
0000
0010
0000
,  // measure 34
1000
0000
0010
0000
,  // measure 35
0010
0000
0100
0000
,  // measure 36
1000
0000
1000
0000
,  // measure 37
0001
0000
1000
0000
,  // measure 38
0010
0000
0100
0000
,  // measure 39
0010
0000
0100
0000
,  // measure 40
0010
0000
0001
0000
,  // measure 41
1000
0000
0001
0000
,  // measure 42
0100
0000
0001
0000
,  // measure 43
0001
0000
0100
0000
,  // measure 44
0001
0000
1000
0000
,  // measure 45
0100
0000
0010
0000
,  // measure 46
0001
0000
1000
0000
,  // measure 47
0100
0000
0010
0000
,  // measure 48
0010
0000
0100
0000
,  // measure 49
0010
0000
1000
0000
,  // measure 50
0100
0000
0010
0000
,  // measure 51
0100
0000
0010
0000
,  // measure 52
0100
0000
0001
0000
,  // measure 53
0100
0000
0010
0000
,  // measure 54
1000
0000
0010
0000
,  // measure 55
1000
0000
1000
0000
,  // measure 56
0010
0000
1000
0000
,  // measure 57
0010
0000
0010
0000
,  // measure 58
0010
0000
0100
0000
,  // measure 59
0001
0000
1000
0000
,  // measure 60
0100
0000
1000
0000
,  // measure 61
0010
0000
0010
0000
,  // measure 62
0100
0000
0010
0000
,  // measure 63
1000
0000
0001
0000
,  // measure 64
1000
0000
0010
0000
,  // measure 65
0100
0000
0010
0000
,  // measure 66
0100
0000
0001
0000
,  // measure 67
0010
0000
0100
0000
,  // measure 68
0010
0000
0001
0000
,  // measure 69
0010
0000
0100
0000
,  // measure 70
1000
0000
1000
0000
,  // measure 71
0010
0000
1000
0000
,  // measure 72
0001
0000
0010
0000
,  // measure 73
0001
0000
1000
0000
,  // measure 74
0100
0000
0010
0000
,  // measure 75
0100
0000
0010
0000
,  // measure 76
1000
0000
0010
0000
,  // measure 77
0001
0000
1000
0000
,  // measure 78
0010
0000
0000
0100
0000
0000
0001
0010
;
