#VERSION:0.81;
#TITLE:unquenchable 2;
#SUBTITLE:;
#ARTIST:Extrose;
#TITLETRANSLIT:;
#SUBTITLETRANSLIT:;
#ARTISTTRANSLIT:;
#GENRE:Mo Speedtek;
#ORIGIN:;
#CREDIT:;
#BANNER:unquenchable 2-bn.png;
#BACKGROUND:unquenchable 2-bg.png;
#PREVIEWVID:;
#JACKET:unquenchable 2-jacket.png;
#CDIMAGE:;
#DISCIMAGE:;
#LYRICSPATH:;
#CDTITLE:../cdtitle (doubleres).png;
#MUSIC:unquenchable 2.mp3;
#OFFSET:-1.284000;
#SAMPLESTART:24.341497;
#SAMPLELENGTH:15.000000;
#SELECTABLE:YES;
#DISPLAYBPM:*;
#BPMS:0.000=250.000,
108.000=62.500,
109.000=250.000,
141.000=500.000,
201.000=1000.000,
205.000=500.000,
207.000=250.000,
267.000=500.000,
269.000=250.000,
270.000=1000.000,
274.000=250.000,
307.000=500.000,
363.000=125.000,
365.000=250.000,
429.000=2000.000,
493.000=250.000,
549.000=500.000,
557.000=250.000,
593.000=500.000,
657.000=250.000,
658.000=500.000,
659.000=250.000,
660.000=500.000,
663.000=1000.000,
671.000=250.000,
674.000=500.000,
675.000=250.000,
676.000=500.000,
679.000=1000.000,
687.000=500.000,
691.000=250.000,
692.000=500.000,
693.000=250.000,
694.000=500.000,
697.000=250.000,
698.000=500.000,
699.000=250.000,
700.000=500.000,
711.000=1000.000,
717.000=500.000,
786.000=62.500,
787.000=1000.000,
803.000=500.000;
#STOPS:;
#DELAYS:;
#WARPS:31.000=16.000;
#TIMESIGNATURES:0.000=4=4,
108.000=4=1,
109.000=4=4;
#TICKCOUNTS:0.000=4;
#COMBOS:0.000=1;
#SPEEDS:0.000=1.000=0.000=0;
#SCROLLS:0.000=1.000;
#FAKES:;
#LABELS:0.000=Song Start;
#BGCHANGES:;
#KEYSOUNDS:;
#ATTACKS:
;

//---------------dance-single - ----------------
#NOTEDATA:;
#CHARTNAME:;
#STEPSTYPE:dance-single;
#DESCRIPTION:;
#CHARTSTYLE:;
#DIFFICULTY:Challenge;
#METER:20;
#RADARVALUES:1.000000,1.000000,1.000000,0.317030,0.194541,880.000000,176.000000,44.000000,24.000000,5.000000,0.000000,4.000000,0.000000,1.000000,1.000000,1.000000,0.317030,0.194541,880.000000,176.000000,44.000000,24.000000,5.000000,0.000000,4.000000,0.000000;
#CREDIT:;
#DISPLAYBPM:*;
#NOTES:
// measure 0
0000
0000
0000
0000
,  // measure 1
0000
0000
0000
0000
,  // measure 2
0000
0000
0000
0000
,  // measure 3
0000
0000
0000
0000
,  // measure 4
0000
0000
0000
0000
,  // measure 5
0000
0000
0000
0000
,  // measure 6
0000
0000
0000
0000
,  // measure 7
0000
0000
0000
0000
,  // measure 8
0000
0000
0000
0000
,  // measure 9
0000
0000
0000
0000
,  // measure 10
0000
0000
0000
0000
,  // measure 11
0000
0000
0000
0000
,  // measure 12
2000
0000
0000
0000
,  // measure 13
3002
0000
0000
0000
,  // measure 14
0203
0000
0000
0000
,  // measure 15
0320
0000
0000
0000
,  // measure 16
2030
0000
0000
0000
,  // measure 17
3200
0000
0000
0000
,  // measure 18
0320
0000
0000
0000
,  // measure 19
0032
0000
0000
0000
,  // measure 20
1003
0001
0101
0000
,  // measure 21
1000
0100
1100
0000
,  // measure 22
1000
0010
0110
0000
,  // measure 23
0001
0100
0101
1001
,  // measure 24
1000
0010
1000
0100
,  // measure 25
1000
0001
0100
0001
,  // measure 26
0010
0001
1000
0010
0001
0010
1000
0100
,  // measure 27
2000
0000
0000
0002
0000
0000
0000
3003
1000
0000
0000
0000
0010
0000
0000
0000
1000
0000
0000
0000
0100
0000
0000
0000
1000
0000
0000
0000
0010
0000
0000
0000
,  // measure 28
0100
0001
0010
0100
1000
0100
0010
0100
,  // measure 29
0010
0001
1000
0010
1000
0100
1000
0010
,  // measure 30
0100
0010
0100
0001
1000
0100
0010
0100
,  // measure 31
1000
0001
0010
0001
0100
0001
0010
0001
,  // measure 32
1000
0010
0100
0010
1000
0100
0010
0100
,  // measure 33
1000
0001
0100
0010
0100
0010
1000
0001
,  // measure 34
1000
0010
0100
0001
1000
0010
0100
0010
,  // measure 35
1000
0100
1000
0000
0001
0000
0100
0000
,  // measure 36
0001
0010
0001
1000
,  // measure 37
0010
1000
0001
0100
,  // measure 38
0001
0010
0001
1000
,  // measure 39
0100
1000
0010
0001
,  // measure 40
0010
1000
0100
0001
,  // measure 41
0100
1000
0010
0001
,  // measure 42
0010
1000
0100
0001
,  // measure 43
0100
1000
0010
1000
,  // measure 44
0100
1000
0010
0100
,  // measure 45
0001
1000
0010
0100
,  // measure 46
0010
1000
0100
0010
,  // measure 47
0001
0000
0010
0100
1000
0001
1000
0100
,  // measure 48
0010
0001
0100
0010
1000
0100
1000
0001
,  // measure 49
0100
0001
0010
0000
1010
0000
0022
0000
,  // measure 50
0033
2002
0000
0000
,  // measure 51
0000
0000
0100
0000
3003
0000
0010
1000
,  // measure 52
0001
1100
0000
0000
0010
0100
0100
0010
,  // measure 53
0001
0000
0100
0000
1001
0000
0001
0100
,  // measure 54
0010
0100
0000
0000
0100
0100
0010
0100
,  // measure 55
0000
0001
1000
0010
1000
0000
0100
0001
,  // measure 56
0010
0101
0000
0000
0010
0100
0100
0001
,  // measure 57
0100
0010
1000
0000
1001
0000
0001
0100
,  // measure 58
0010
1100
0000
0000
0100
0100
1000
0010
,  // measure 59
1000
0000
1010
0001
0110
1000
0001
0100
,  // measure 60
0001
1010
0000
0000
0001
0001
1000
0100
,  // measure 61
1000
0000
0101
0000
0110
0000
0001
0100
,  // measure 62
1000
0110
0000
0000
1001
0000
0001
0010
,  // measure 63
0100
0000
0011
0100
1010
0000
0001
1000
,  // measure 64
0001
1010
0000
0000
0100
0100
0001
0010
,  // measure 65
0001
0000
1100
0000
1010
0000
0001
0100
,  // measure 66
0010
1100
0000
0000
0011
1000
0020
0000
,  // measure 67
0000
0230
0001
0000
,  // measure 68
000M
00M0
0000
M000
0300
0MM0
1001
0110
,  // measure 69
1001
0011
1100
1001
,  // measure 70
0010
0110
0000
1000
1001
0000
0110
0000
,  // measure 71
1001
0000
0LL0
1001
0000
0000
0011
0000
,  // measure 72
2000
0100
0100
0020
3000
0030
0110
1001
,  // measure 73
0110
1010
0101
0011
,  // measure 74
0100
0110
0000
0001
1001
0000
0110
0110
,  // measure 75
0110
0000
0110
0000
0100
0010
0000
0100
0010
0000
0100
0010
1000
0001
0100
0010
,  // measure 76
1000
0001
0100
0010
1000
0001
0000
0100
0010
0000
1000
0001
0100
0000
0001
0000
,  // measure 77
1000
0000
0001
0000
0100
0000
0001
0010
,  // measure 78
0100
0000
1000
0000
0010
0000
0100
0001
,  // measure 79
1000
0000
0010
0000
0100
0000
0001
1000
,  // measure 80
0001
0000
0100
0000
0010
1000
0001
0100
,  // measure 81
0001
0000
0010
0000
0001
0000
1000
0100
,  // measure 82
1000
0000
0010
0000
1000
0001
0010
0000
,  // measure 83
0100
0010
1000
0010
0000
0000
0110
0000
,  // measure 84
1001
0000
0100
0000
0001
0000
1000
0100
,  // measure 85
1000
0001
1000
0100
1000
0001
0010
0100
,  // measure 86
0010
0001
0010
0100
0010
0001
1000
0010
,  // measure 87
1000
0100
1000
0010
1000
0100
0010
0001
,  // measure 88
0010
1000
0010
0001
0010
1000
0110
0000
,  // measure 89
0110
0110
0110
1001
,  // measure 90
0100
0000
0000
0000
0000
0000
0000
0000
1001
0000
0000
0000
0000
0000
0000
0000
0010
0000
0000
0000
0000
0000
0000
0000
1002
0000
0000
0000
0000
0200
0000
0000
,  // measure 91
0000
0000
0000
0010
0000
0000
0303
0000
2010
0000
0000
0000
0000
0000
0000
0000
0000
0000
0000
0000
0000
0000
0000
0000
0000
0000
0000
0000
0000
0000
0000
0000
,  // measure 92
0000
3002
0000
0000
,  // measure 93
0000
0203
0000
0000
,  // measure 94
0000
0320
0000
0000
,  // measure 95
0000
2030
0000
0000
,  // measure 96
0000
3200
0000
0000
,  // measure 97
0000
0320
0000
0000
,  // measure 98
0000
0032
0000
0000
,  // measure 99
0000
2003
0000
0000
,  // measure 100
0000
3020
0000
0000
,  // measure 101
0000
2030
0000
0000
,  // measure 102
0000
3002
0000
0000
,  // measure 103
0000
0203
0000
0000
,  // measure 104
0000
0302
0000
0000
,  // measure 105
0000
0203
0000
0000
,  // measure 106
0000
0320
0000
0000
,  // measure 107
0000
2030
0000
0000
,  // measure 108
0000
0000
0000
0000
,  // measure 109
0000
0000
0000
0000
,  // measure 110
0000
0000
0000
0000
,  // measure 111
0000
0000
0000
0000
,  // measure 112
0000
0000
0000
0000
,  // measure 113
0000
0000
0000
0000
,  // measure 114
0000
0000
0000
0000
,  // measure 115
0000
3002
0000
0000
,  // measure 116
0000
0000
0000
0000
,  // measure 117
0000
0000
0000
0000
,  // measure 118
0000
0000
0000
0000
,  // measure 119
0000
0000
0000
0000
,  // measure 120
0000
0000
0000
0000
,  // measure 121
0000
0000
0000
0000
,  // measure 122
0000
0000
0000
0000
,  // measure 123
0000
0000
0000
0000
1003
0000
0010
0001
0010
0000
0100
0000
1000
0100
1000
0000
,  // measure 124
0100
0000
0001
0000
1000
0000
0100
0001
0100
0000
0010
0000
0001
0010
1000
0010
,  // measure 125
0001
0000
0100
0000
0010
0000
1000
0001
1000
0000
0100
0000
0010
0001
0010
0000
,  // measure 126
0100
0010
0001
1000
0100
0000
1000
0010
1000
0000
0010
0100
0001
0010
0001
0000
,  // measure 127
0010
0000
0100
0000
1000
0000
0010
1000
0010
0000
0100
0001
0100
0000
0001
0000
,  // measure 128
0100
0000
0010
0000
1000
0000
0001
0100
0001
0000
1000
0010
1000
0010
0100
0001
,  // measure 129
0010
0000
0001
0000
1000
0000
0010
1000
0010
0000
0100
0001
1000
0000
0100
0000
,  // measure 130
0010
0000
0001
0000
0100
0000
0001
0010
0001
0000
0100
0001
1000
0100
0010
0001
,  // measure 131
0010
0100
1000
0000
0001
0000
1000
0000
0100
0000
1000
0000
1100
0000
0010
1000
,  // measure 132
0010
0100
0001
0000
0010
0000
0001
0000
0100
0000
0010
0000
0101
0000
0010
0000
,  // measure 133
0101
0101
1010
0000
1100
0000
1001
1001
,  // measure 134
1001
1001
0210
0000
0001
0000
1300
0000
,  // measure 135
1010
0000
1010
0000
0100
0010
0001
0010
1000
0000
0100
0000
1100
0000
0000
0000
,  // measure 136
0001
0100
1000
0100
0001
0000
0000
0000
0011
0000
0000
0000
1010
0000
0100
0000
,  // measure 137
1010
1010
1001
0000
0101
0000
0110
0000
,  // measure 138
1100
0000
1001
0100
1000
0010
0001
0010
,  // measure 139
1000
0100
2000
0000
0000
0002
3000
0000
,  // measure 140
0100
0000
0113
1001
0110
0000
0110
0000
,  // measure 141
1001
0000
1100
0000
0001
0101
0000
1000
,  // measure 142
1010
0000
1001
0100
1001
0000
0LL0
1001
,  // measure 143
0000
0000
0002
0000
0000
1000
0000
0100
,  // measure 144
0100
0000
1013
0110
1010
0000
1010
0000
,  // measure 145
1010
0000
1001
0000
0001
0011
0000
1000
,  // measure 146
1100
0000
0000
0000
1001
0000
1001
0000
1001
0000
1001
0000
1000
0001
0000
1000
,  // measure 147
0001
0010
0100
1000
0001
0010
0100
1000
0100
0010
0001
0000
1000
0010
1000
0001
,  // measure 148
0100
0001
0010
0000
0001
0000
1000
0000
0010
0000
1000
0000
0001
0000
0000
0000
,  // measure 149
0110
0000
0100
0001
1000
0100
1000
0000
,  // measure 150
0110
0000
1000
0100
0010
0001
0100
0000
,  // measure 151
1001
0000
0010
0100
0001
0010
0100
0000
,  // measure 152
1001
0000
0100
0010
1000
0001
0010
0000
,  // measure 153
0110
0000
1000
0100
1000
0001
0010
0000
,  // measure 154
1001
0000
0100
0000
0010
0100
0010
0000
,  // measure 155
1001
0000
0100
0000
0001
0010
0001
0000
,  // measure 156
1000
0000
0100
0010
0001
0010
0100
1000
,  // measure 157
0100
0010
0001
0100
0010
1000
0010
0100
,  // measure 158
0001
0010
0001
0100
0001
1000
0001
0100
,  // measure 159
0001
0010
0001
1000
0010
1000
0100
1000
,  // measure 160
0010
1000
0001
0100
0010
1000
0100
0010
,  // measure 161
0001
0010
0100
1000
0010
0100
0001
0010
,  // measure 162
0001
1000
0001
0100
1000
0100
0001
1000
,  // measure 163
0010
1000
0100
0010
0001
0010
1000
0010
,  // measure 164
0001
1000
0110
0000
0100
00M0
1001
0000
,  // measure 165
0001
0M00
0011
0000
0000
0000
1001
0000
,  // measure 166
0000
0MM0
0000
0110
,  // measure 167
0000
M00M
0000
1001
,  // measure 168
0000
0000
0110
0000
0100
00M0
1001
0000
,  // measure 169
0010
M000
0101
0000
0000
0000
0001
0000
,  // measure 170
00M0
0100
00M0
0001
,  // measure 171
0M00
1000
000M
0020
,  // measure 172
000M
M100
0000
1031
,  // measure 173
0001
0110
1000
1100
,  // measure 174
0001
1001
0100
1001
,  // measure 175
0001
0011
1000
1010
,  // measure 176
0101
1010
0101
1010
,  // measure 177
0101
1010
0101
2100
,  // measure 178
0000
0M00
0000
00M0
,  // measure 179
0001
0000
0000
00M0
0000
0M00
000M
0000
,  // measure 180
3010
0000
0100
0010
1001
0000
1001
0000
,  // measure 181
1001
1001
0110
0110
,  // measure 182
0110
0110
1001
1001
,  // measure 183
1001
1001
0110
0110
,  // measure 184
0110
0110
0011
0011
,  // measure 185
0011
0011
1001
1001
,  // measure 186
1001
1001
1010
1010
,  // measure 187
1010
1010
1100
1100
,  // measure 188
1100
0000
1100
0000
1000
0010
1000
0001
,  // measure 189
1000
0010
1000
0001
0010
0100
1000
0000
,  // measure 190
1001
0000
0001
0100
0001
0010
0001
0100
,  // measure 191
0001
1000
0100
0010
0001
0010
0100
0000
,  // measure 192
0110
0000
0010
0000
1000
0010
0001
0010
,  // measure 193
1000
0100
0001
0100
1000
0000
0001
0100
,  // measure 194
0001
1000
0100
0010
0100
0010
0001
0000
,  // measure 195
1000
0100
0001
0010
1000
0000
0001
1000
,  // measure 196
0100
0010
0100
0000
1001
0000
1000
0000
,  // measure 197
0010
0001
0010
0100
,  // measure 198
1000
0100
0001
0010
,  // measure 199
1000
0010
0100
1000
,  // measure 200
0100
0010
0100
1001
;
