#VERSION:0.81;
#TITLE:good night, jewel;
#SUBTITLE:;
#ARTIST:horosceased;
#TITLETRANSLIT:;
#SUBTITLETRANSLIT:;
#ARTISTTRANSLIT:;
#GENRE:jewel;
#ORIGIN:;
#CREDIT:;
#BANNER:good night, jewel-bn.png;
#BACKGROUND:good night, jewel-bg.png;
#PREVIEWVID:;
#JACKET:good night, jewel-jacket.png;
#CDIMAGE:;
#DISCIMAGE:;
#LYRICSPATH:;
#CDTITLE:../cdtitle (doubleres).png;
#MUSIC:good night, jewel.mp3;
#OFFSET:-0.040000;
#SAMPLESTART:33.145466;
#SAMPLELENGTH:15.000000;
#SELECTABLE:YES;
#BPMS:0.000=174.000;
#STOPS:;
#DELAYS:;
#WARPS:;
#TIMESIGNATURES:0.000=4=4;
#TICKCOUNTS:0.000=4;
#COMBOS:0.000=1;
#SPEEDS:0.000=1.000=0.000=0;
#SCROLLS:0.000=1.000;
#FAKES:;
#LABELS:0.000=Song Start;
#BGCHANGES:;
#KEYSOUNDS:;
#ATTACKS:
;

//---------------dance-single - ----------------
#NOTEDATA:;
#CHARTNAME:;
#STEPSTYPE:dance-single;
#DESCRIPTION:;
#CHARTSTYLE:;
#DIFFICULTY:Challenge;
#METER:19;
#RADARVALUES:1.000000,1.000000,0.410618,0.119764,1.000000,978.000000,48.000000,14.000000,0.000000,0.000000,0.000000,0.000000,0.000000,1.000000,1.000000,0.410618,0.119764,1.000000,978.000000,48.000000,14.000000,0.000000,0.000000,0.000000,0.000000,0.000000;
#CREDIT:;
#NOTES:
// measure 0
0000
0000
0000
0000
,  // measure 1
0000
0000
0000
0000
,  // measure 2
0000
0000
0000
0000
,  // measure 3
0000
0000
0000
0000
,  // measure 4
2000
0000
0000
0000
,  // measure 5
3002
0000
0000
0000
,  // measure 6
0103
1010
0000
0000
1010
0100
0101
0010
,  // measure 7
1001
0000
1100
0000
0000
0000
0000
0000
0000
0000
1000
0100
0010
0001
0010
0100
,  // measure 8
1000
0000
0010
0000
0101
0000
0001
0010
0000
0000
0001
0100
0001
1000
0100
0000
,  // measure 9
1000
0000
0100
0000
1100
0000
1000
0001
0000
0010
0100
1000
0001
0100
0010
1000
,  // measure 10
0010
0000
1000
0001
0100
0000
0010
0100
0001
0000
0010
0100
1000
0001
0100
0000
,  // measure 11
0010
0000
0001
0000
0010
1000
0100
0010
0100
0000
1000
0001
1000
0000
0100
0010
,  // measure 12
0001
0000
1000
0000
1010
0000
1000
0010
0100
0000
0001
0010
0001
0100
0001
0010
,  // measure 13
0001
0000
1000
0000
1001
0000
0100
0010
0000
1000
0010
0100
0001
0010
0100
1000
,  // measure 14
0001
0000
0100
0000
0011
0000
1000
0100
0000
0100
1000
0010
0100
0010
1000
0001
,  // measure 15
0100
0010
0100
0000
1100
0000
1000
0100
1000
0000
0001
0100
0000
0010
0100
0001
,  // measure 16
1000
0000
0100
1000
0100
0000
1000
0001
0000
0000
1000
0100
1000
0010
0100
0000
,  // measure 17
0001
0000
0100
0001
0010
0100
0000
1000
0000
0100
1000
0010
1000
0001
1000
0001
,  // measure 18
0100
0000
0001
0010
0001
0000
1000
0010
0000
1000
0010
0000
0100
0001
0010
0001
,  // measure 19
0100
0000
0010
0100
0000
0100
0010
0000
1000
0100
0010
0001
1000
0100
0010
0001
,  // measure 20
1000
0000
0010
0100
0001
0000
0010
0000
0000
1000
0100
0000
1000
0001
0100
0001
,  // measure 21
0010
0000
0001
0100
0010
0000
1000
0000
0000
0010
0100
0001
0010
0001
0100
0010
,  // measure 22
1100
0010
0000
0100
0011
1100
1010
0101
,  // measure 23
0011
0000
0100
0000
0000
0100
0010
0000
0100
0010
0100
0010
1000
0001
0100
0000
,  // measure 24
0001
0010
0001
0100
0001
0010
0001
0100
0001
0010
0100
1000
0100
0010
0001
1000
,  // measure 25
0001
0100
0010
0100
0001
0100
0010
0100
0001
0100
0010
1000
0010
0100
0001
1000
,  // measure 26
0100
0010
0100
1000
0100
0010
0100
1000
0100
0010
0001
0010
0100
1000
0001
0100
,  // measure 27
0010
0100
0001
0010
0001
0010
0100
1000
0010
0100
0001
0010
0001
1000
0100
1000
,  // measure 28
0010
0100
0001
0100
0010
0100
0001
0100
0010
1000
0001
0100
0010
1000
0001
0100
,  // measure 29
0001
0010
0001
0100
0001
0010
0001
0100
0001
0010
0100
1000
0100
0010
0001
1000
,  // measure 30
0010
0001
0010
0100
0010
0001
0010
0100
0010
0001
0010
1000
0100
1000
0010
0100
,  // measure 31
0001
0010
1000
0010
0001
0100
1000
0100
0001
1000
0010
0100
0001
0010
0100
1000
,  // measure 32
0010
0100
0001
1000
0001
0100
0001
0010
0001
0100
0001
1000
0010
0100
0001
0010
,  // measure 33
0001
1000
0001
0100
0001
0010
0001
0100
0001
1000
0001
0100
0010
1000
0001
1000
,  // measure 34
0100
1000
0100
0010
0100
1000
0100
0010
0100
1000
0100
0010
0001
0010
0100
1000
,  // measure 35
0001
0010
0100
0010
0001
0010
0100
0010
0001
0100
1000
0100
0001
0010
1000
0010
,  // measure 36
0001
0100
0010
1000
0100
1000
0001
0100
0001
0010
0001
1000
0100
1000
0010
1000
,  // measure 37
0001
0100
0010
0100
0001
0100
0010
1000
0100
1000
0010
1000
0010
0100
0001
0010
,  // measure 38
0101
0000
0100
0001
0010
0000
1100
0000
1010
0000
0001
0000
0110
0000
1000
0000
,  // measure 39
0100
0010
0001
1000
0100
0010
0001
0100
0010
1000
0001
0100
1000
0100
0001
1000
,  // measure 40
0010
0000
0100
0000
0010
0000
1000
0010
0000
1000
0010
0000
1000
0010
0000
1000
,  // measure 41
0001
0010
0001
0010
0001
0010
0001
0010
0001
0010
0100
1000
0001
0010
0100
1000
,  // measure 42
0001
0000
0100
0000
0001
0000
0100
0001
0000
1000
0001
0000
1000
0001
0000
1000
,  // measure 43
0010
0100
0010
0100
0010
0100
0010
0100
0010
1000
0001
0100
0010
1000
0001
0100
,  // measure 44
0010
0000
1000
0000
0100
0000
1000
0100
0000
0010
0001
0000
0100
0010
0000
1000
,  // measure 45
0100
1000
0100
1000
0100
1000
0100
1000
0100
0010
0001
1000
0100
0010
0001
0100
,  // measure 46
0001
1001
0000
0100
0011
1010
0110
0011
,  // measure 47
1001
0000
0100
0010
0100
0010
0100
0010
0100
0001
1000
0010
0100
0001
1000
0010
,  // measure 48
0100
0000
0001
0100
0001
0010
0000
0001
0100
0000
0010
0000
1000
0100
1000
0000
,  // measure 49
0001
0100
0001
0100
0001
0100
0001
0100
0001
0010
0100
1000
0001
0010
0100
1000
,  // measure 50
0010
0000
0100
0010
0100
0001
0000
0100
0010
1000
0100
0000
1000
0100
1000
0000
,  // measure 51
0010
0100
0010
0100
0010
0100
0010
0100
0010
1000
0001
0100
0010
1000
0001
0100
,  // measure 52
0010
0000
0100
0010
0100
0001
0000
1000
0010
0000
0100
0001
1000
0000
0100
0000
,  // measure 53
0010
0001
0010
0001
0010
0001
0010
0001
0010
0100
1000
0001
0010
0100
1000
0001
,  // measure 54
0100
0000
0010
0100
0010
0000
1000
0100
0000
0100
1000
0001
0100
0001
0010
0000
,  // measure 55
0001
1000
0001
1000
0001
1000
0001
1000
0001
0100
0010
1001
0100
0010
1000
0001
,  // measure 56
0100
0000
0010
0000
1010
0000
1000
0010
0000
0010
1000
0001
0010
0100
1000
0000
,  // measure 57
0010
0100
0010
0100
0010
0100
0010
0100
0010
1000
0001
0100
0010
1000
0001
0100
,  // measure 58
0010
0000
1000
0000
1100
0000
1000
0001
0000
0001
0100
0001
0010
0001
0100
0000
,  // measure 59
0001
0010
0001
0010
0001
0010
0001
0010
0001
0010
0100
1000
0001
0010
0100
1000
,  // measure 60
0001
0010
0000
0001
0000
1000
0000
0010
,  // measure 61
0100
0010
0100
0010
0100
0010
0100
0010
0100
0001
1000
0010
0100
0001
1000
0010
,  // measure 62
0101
0010
0000
0000
1010
0110
1001
0011
,  // measure 63
1100
0000
1000
0010
1000
0010
1000
0010
1000
0001
0100
0001
0010
0001
0100
0010
,  // measure 64
1000
0100
1000
0001
0100
0001
1000
0100
1000
0001
1000
0001
,  // measure 65
0100
0001
0100
1000
0100
0001
0100
1000
0100
0001
0100
1000
,  // measure 66
0100
0001
0100
0001
0010
0001
0100
0010
1000
0010
1000
0100
,  // measure 67
1000
0010
0001
0010
1000
0010
0001
0010
1000
0010
0001
0010
,  // measure 68
1000
0100
1000
0100
0010
0001
0010
0001
0100
0010
1000
0001
,  // measure 69
0010
1000
0010
0001
0010
1000
0010
0001
0010
1000
0010
0001
,  // measure 70
0010
0100
1000
0100
1000
0001
1000
0100
1000
0010
0100
0001
,  // measure 71
1000
0100
0001
0100
1000
0100
0001
0100
1000
0100
0001
0100
,  // measure 72
1000
0100
1000
0010
1000
0001
0100
0010
1000
0100
1000
0010
,  // measure 73
1000
0100
0001
0010
1000
0100
0001
0010
1000
0100
0001
0010
,  // measure 74
1000
0010
0100
0001
1000
0010
1000
0100
1000
0001
0100
0001
,  // measure 75
0010
1000
0010
0001
0010
1000
0010
0001
0010
1000
0010
0001
,  // measure 76
0010
0100
1000
0010
0100
0010
1000
0100
1000
0001
0010
0001
,  // measure 77
1000
0100
0001
0010
1000
0100
0001
0010
1000
0100
0001
0010
,  // measure 78
1001
0100
1000
0010
1000
0100
1010
0010
0100
0011
0100
0010
,  // measure 79
1001
0100
0010
0100
0010
0100
0010
1000
0001
0100
0010
1000
,  // measure 80
0102
0000
0000
0000
2003
0000
0000
0000
3000
0000
0010
0000
1000
0010
1000
0000
,  // measure 81
0002
0000
0020
0000
0000
0000
0033
0000
2200
0000
3300
0000
1000
0001
0010
0100
,  // measure 82
2200
0000
3300
2020
0000
3030
2002
0000
3003
0000
0010
1000
0010
0001
0010
1000
,  // measure 83
0010
0000
0100
0010
0100
0000
0110
0000
0001
0000
1100
0000
0010
0000
1001
0000
;
