#TITLE:kannabis kultivation;
#SUBTITLE:;
#ARTIST:Camellia;
#TITLETRANSLIT:;
#SUBTITLETRANSLIT:;
#ARTISTTRANSLIT:;
#GENRE:;
#CREDIT:T. Li;
#BANNER:kannabis kultivation-bn.png;
#BACKGROUND:kannabis kultivation-bg.png;
#LYRICSPATH:;
#CDTITLE:loodeecdtitle.png;
#MUSIC:kannabis kultivation.ogg;
#OFFSET:-0.019000;
#SAMPLESTART:26.148001;
#SAMPLELENGTH:26.120001;
#SELECTABLE:YES;
#BPMS:0.000000=147.000000
;
#STOPS:
;
#BGCHANGES:;
#KEYSOUNDS:;
#ATTACKS:;

//---------------dance-single - Loodee----------------
#NOTES:
     dance-single:
     Loodee:
     Challenge:
     12:
     0.791924,0.984141,0.526279,0.570135,1.065715,632.000000,568.000000,60.000000,65.000000,5.000000,10.000000,0.791924,0.984141,0.526279,0.570135,1.065715,632.000000,568.000000,60.000000,65.000000,5.000000,10.000000:
0000
0000
0000
0000
,
0000
0000
0000
0000
,
0000
0000
0000
0000
,
0000
0000
0000
0000
,
0000
0000
0000
0000
,
0000
0000
0000
0000
,
0000
0000
0000
0000
,
0000
0000
0000
0000
,
0004
4000
0000
0000
0000
0000
0000
0003
3010
0100
0001
1000
0100
0010
0001
0100
,
0004
4000
0000
0000
0000
0000
0000
0003
3010
0100
0001
0010
0100
1000
0100
1000
,
0400
0040
0000
0000
0000
0000
0000
0300
0031
1000
0010
0100
0001
1000
0001
0010
,
0400
4000
0000
0000
0000
0000
0000
0300
3001
0100
0010
1000
0100
1000
0010
0100
,
0001
1000
0100
0010
0001
1000
0100
0010
0001
1000
0010
0100
0001
1000
0010
0100
,
0001
1000
0100
1000
0001
0100
0010
1000
0100
0010
0001
0010
0100
1000
0010
0100
,
0004
4000
0000
0000
0000
0000
0000
0000
0000
0000
0000
0003
3100
0010
0100
0010
,
0001
0000
0000
0002
0000
0003
1000
0000
0001
0100
0010
0000
1000
0000
1000
0100
,
0020
0000
0000
0030
1001
0000
0001
0100
0000
0010
0000
1000
0100
0010
0001
0100
,
0010
0000
0000
0000
1000
0000
0000
0000
1002
0000
0000
0000
0000
0000
0103
0000
0001
0000
1000
0000
0000
0000
0100
0000
0010
0000
0000
0000
0010
0000
0001
1000
,
0001
0000
0100
0000
0110
0000
0010
1000
0000
0100
0000
1000
0101
0000
1010
0000
,
0002
0203
2300
3002
,
0023
0000
0000
0030
0110
0000
0100
0001
0000
0010
0000
0100
1000
0100
0010
0001
,
0100
0000
0000
0000
0010
0000
0000
0000
2010
0000
0000
0000
0000
0000
3001
0000
0100
0000
0010
0000
0000
0000
1000
0000
0001
0000
0000
0000
0001
0000
0010
0100
,
0010
0000
0001
0000
1001
0000
1000
0000
1010
0000
0000
0110
0000
0000
0101
0000
,
0100
0000
0001
0000
0100
0000
0001
0000
0010
0000
0000
0000
0100
0000
0000
0000
1000
0001
1000
0001
1000
0000
0100
0000
0010
0000
0100
0000
1000
0000
0000
0000
,
1002
0000
0000
0000
0023
0000
0000
0031
2200
0000
3310
0000
2200
0000
3310
0000
,
0400
0000
0000
0000
0301
0010
000M
0010
1000
0001
0010
0100
0001
0000
0001
0000
,
0100
0000
1000
0000
0010
0000
1000
0000
0002
0000
0000
0000
0000
0000
0103
0000
0010
0000
1000
0001
1000
0000
0100
0000
0000
0000
0100
0000
0010
0000
0000
0000
,
0002
0000
0000
0000
0103
0000
0010
1000
0000
0010
1000
0000
0010
0002
0003
0000
,
0110
0000
0000
0000
1002
0000
0000
0013
0202
0000
1303
0000
0202
0000
1303
0000
,
0040
0000
0000
0000
1030
0100
M000
0100
0001
1000
0010
0100
2000
0000
0000
0000
,
3200
0000
0000
0000
0000
0000
0000
0000
0302
0000
0000
0000
0000
0000
1003
0000
0001
0000
0010
0100
0010
0000
0001
0000
0000
0000
0001
0000
1000
0000
0000
0000
,
0040
0000
0000
0000
0000
0030
1100
0000
0011
0000
1100
0000
0004
0000
0000
0043
0000
0000
0430
0000
0000
1300
0000
0000
,
2100
0000
0000
0000
3020
0000
0000
0130
0022
0000
1033
0000
0022
0000
1033
0000
,
0001
0010
0100
1000
0100
0010
0M00
0010
1000
0001
0100
0010
0001
0000
0001
0000
,
0010
0000
1000
0000
0100
0000
0010
0000
0002
0000
0000
0000
0000
0000
0013
0000
0100
0000
1000
0001
1000
0000
0010
0000
0000
0000
0010
0000
0100
0000
0000
0000
,
0004
0003
1000
0000
1002
0000
0013
0000
0100
1000
0001
0000
1100
0011
1100
0011
,
2100
0000
3001
0010
0120
0000
0031
1000
,
1010
0000
0000
1000
0001
0010
0100
0010
0001
0100
0010
0100
1000
0000
1000
0000
,
0100
0000
0000
0100
0000
0000
0001
1000
0100
0000
0000
0100
0000
0000
0010
0001
,
0100
0000
0010
1000
0000
0010
1000
0000
0000
0100
0000
1000
0000
0001
0100
0010
,
1000
0100
0010
0001
0000
1000
0010
0000
0100
0010
0000
1000
0000
0001
0010
0100
,
1000
0000
0001
0100
0000
0010
1000
0001
1000
0100
0000
0010
0000
0001
1000
0010
,
0100
0000
0010
1000
0000
0001
0010
0000
0100
0010
0000
0001
0000
1000
0010
1000
,
0100
0000
0010
0100
0000
1000
0001
0000
0100
0010
0100
0010
1100
0000
1100
0000
,
0001
1000
0100
0010
0001
1000
0010
0100
0010
1000
0001
0010
0100
1000
0100
0010
,
0001
1000
0001
1000
0010
0100
0010
0100
0001
0010
0001
0010
0100
1000
0010
1000
,
0001
0010
0100
1000
0100
0010
0001
1000
0001
0100
0010
1000
0010
0100
0001
1000
,
0100
0000
0000
0000
0100
0000
0010
0000
0000
0001
0000
0000
0100
0000
0000
0000
,
2220
0000
3330
0000
1002
0000
0013
0100
0000
0010
0000
0001
1000
0001
0100
0001
,
0010
0000
0000
0000
0100
0000
0000
0000
2100
0000
0000
0000
0000
0000
3001
0000
0100
0000
0010
0000
0000
0000
0100
0000
0001
0000
0000
0000
0001
0000
1000
0100
,
1000
0000
0100
0000
0110
0000
0010
0001
0000
1000
0000
0010
1100
0000
0011
0000
,
0200
0000
0000
0000
2300
0000
0000
0000
3200
0000
0000
0000
0302
0000
0000
0003
,
2202
0000
3303
0000
0021
0000
0130
1000
0000
0001
0000
1000
0100
1000
0010
1000
,
0001
0000
0000
0000
0100
0000
0000
0000
0210
0000
0000
0000
0000
0000
0301
0000
1000
0000
0100
0000
0000
0000
0010
0000
0001
0000
0000
0000
0100
0000
0001
1000
,
0001
0000
0100
0000
0110
0000
0010
1000
0000
0100
0000
0010
0101
0000
1010
0000
,
0100
1000
0000
1000
0010
0000
0010
0100
0000
0001
0100
0000
0010
1100
0000
0000
,
2022
0000
3033
0000
2010
0000
3001
0010
0000
0100
0000
0010
0100
1000
0010
1000
,
0001
0000
0000
0000
0100
0000
0000
0000
0201
0000
0000
0000
0000
0000
0310
0000
1000
0000
0001
0000
0000
0000
0010
0000
0100
0000
0000
0000
0100
0000
1000
0100
,
1000
0000
0001
0000
0101
0000
0100
0001
0000
0010
0000
0100
1010
0000
0101
0000
,
0020
2030
3020
0032
,
0103
0000
0000
0000
0000
0000
0000
0000
0222
0000
0000
0000
0333
0000
0000
0000
0010
0000
1000
0001
1000
0000
0100
0000
0010
0000
0001
0000
0100
0000
0001
0000
,
1000
0000
0000
0000
0010
0000
0000
0000
0210
0000
0000
0000
0000
0000
0301
0000
1000
0000
0100
0000
0000
0000
0010
0000
0001
0000
0000
0000
0001
0000
1000
0001
,
1000
0000
0010
0000
1010
0000
1000
0000
1001
0000
0000
0101
0000
0000
0011
0000
,
0001
0000
0100
0000
0001
0000
1000
0000
0001
0000
0000
0000
0010
0000
0000
0000
0100
1000
0100
1000
0100
0000
0010
0000
0001
0000
1000
0000
0010
0000
0000
0000
,
0220
0000
0000
0330
0000
0000
0000
0000
0000
0000
0000
0000
0000
0000
0000
0000
,
0000
0000
0000
0000
,
000M
0000
0000
0000
,
0000
0000
0000
0000
,
000M
0000
0000
0000
;

//---------------dance-single - Loodee----------------
#NOTES:
     dance-single:
     Loodee:
     Hard:
     10:
     0.664114,0.769683,0.394709,0.692934,0.714862,530.000000,485.000000,45.000000,79.000000,0.000000,0.000000,0.664114,0.769683,0.394709,0.692934,0.714862,530.000000,485.000000,45.000000,79.000000,0.000000,0.000000:
0000
0000
0000
0000
,
0000
0000
0000
0000
,
0000
0000
0000
0000
,
0000
0000
0000
0000
,
0000
0000
0000
0000
,
0000
0000
0000
0000
,
0000
0000
0000
0000
,
0000
0000
0000
0000
,
0004
0400
0000
0000
0000
0000
0003
0300
0010
1000
0001
0010
0100
0000
1000
0000
,
0400
0040
0000
0000
0000
0000
0300
0030
0001
1000
0001
0100
0010
0100
0010
0000
,
4000
0004
0000
0000
0000
0000
3000
0003
0010
0100
0010
0001
1000
0000
0001
0000
,
1000
0100
0000
0000
1000
0100
0000
0000
0010
0001
0010
0100
1000
0001
1000
0000
,
0040
0430
0304
0043
0034
0403
0340
4030
,
3400
0340
0034
0043
0430
4300
3040
4030
,
3001
0100
0010
1000
0100
0010
0001
0100
0001
0010
0100
0010
0001
1000
0001
1000
,
0010
0000
0000
0010
0000
0000
0110
0000
0100
0001
1000
0000
0100
0000
0100
0010
,
0002
0000
0003
0000
1001
0000
1000
0010
0000
0200
0000
0300
0001
1000
0100
0010
,
0001
0000
1000
0000
1010
0000
0010
0100
0000
0002
0000
0003
0010
0000
0010
0000
,
0001
0000
1000
0000
1001
0000
0001
0010
0000
0002
0000
0003
0101
0000
0101
0000
,
0200
0302
0203
2300
,
3200
0000
0300
0000
0110
0000
0010
1000
0000
0002
0000
0003
0010
0100
0010
0001
,
1000
0000
0010
0000
0110
0000
0100
0001
0000
2000
0000
3000
0100
0000
0100
0000
,
0010
0000
0100
0000
1100
0000
1000
0000
1001
0000
0000
1001
0000
0000
1001
0000
,
0001
0100
0001
0100
0010
0000
1000
0000
0100
0010
0001
1000
0000
0100
0000
0000
,
0220
0000
0000
0330
0022
0000
0000
0033
0020
0000
2030
0000
3020
0000
0230
0000
,
2300
0000
0000
0000
3001
0100
0000
0001
0100
0010
1000
0001
1000
0000
1000
0000
,
0001
0010
0100
0010
0002
0000
0000
0000
1003
0010
0100
0010
0000
0010
1000
0000
,
0004
0000
0000
0000
0013
0000
0001
1000
0000
1000
0010
0000
0010
0100
0000
0000
,
0101
0000
0000
0000
2002
0000
0000
3003
2000
0000
3200
0000
0302
0000
0203
0000
,
0320
0000
0000
0000
0031
1000
0000
0001
1000
0001
0010
0100
0020
0000
0000
0000
,
4030
0000
0000
0000
3020
0000
0000
0000
0031
1000
0001
0100
0000
0100
0010
0000
,
4000
0000
0000
0000
0000
0000
3001
0000
0100
0000
0010
0000
2000
0000
0000
3200
0000
0000
0320
0000
0000
0031
0000
0000
,
2002
0000
0000
3003
2020
0000
0000
3030
0020
0000
0032
0000
0023
0000
0230
0000
,
0302
0000
0000
0000
1003
0100
0000
1000
0100
0010
0001
1000
0010
0000
0100
0000
,
0010
1000
0001
0100
0020
0000
0000
0000
1030
0001
1000
0100
0000
0100
0010
0000
,
0200
0000
1300
0000
0020
0000
1030
0000
0001
0000
0001
0000
1000
0100
0010
0100
,
2000
0000
0000
0000
3002
0000
0000
0003
1020
0000
0130
0000
0020
0000
0130
0000
,
1001
0000
0000
1100
0000
0000
0110
0000
0000
0011
0000
0000
0101
0000
0000
0000
,
0100
0000
0000
0100
0000
0000
0001
1000
0100
0000
0000
0100
0000
0000
0010
0001
,
0100
0000
0010
1000
0000
0001
0100
0000
0010
0000
1000
0000
0000
0001
0010
0100
,
1000
0000
0001
0100
0000
0001
1000
0000
0100
0010
0000
0001
0000
0010
0100
0000
,
1000
0000
0001
0100
0000
0010
0100
0000
0001
1000
0000
0001
0000
0010
0100
0000
,
0010
0000
0001
0010
0000
0001
1000
0000
0010
0100
0000
0001
0000
1000
0100
0000
,
0010
0000
0001
0100
0000
0001
1000
0000
0100
0010
0001
0010
0100
0000
0100
0000
,
1000
0000
0010
0100
0000
0001
0100
0000
0001
1000
0000
0100
0000
0010
0100
0000
,
0010
0000
0001
0000
1000
0000
0001
0000
1000
0000
0010
0000
0100
0010
0100
0010
,
1000
0100
0010
0001
1000
0100
0010
0001
1000
0001
0100
0010
1000
0001
0100
0010
,
2000
0000
0000
0000
3002
0000
0203
0000
0000
0302
0000
0000
2003
0000
0000
3000
,
0200
0000
0000
0300
0110
0000
0010
0001
0000
2000
0000
3000
0010
0100
0001
1000
,
0001
0000
0010
0000
0110
0000
0100
1000
0000
0020
0000
0030
1000
0000
1000
0000
,
0010
0000
0100
0000
0101
0000
0001
1000
0000
0002
0000
0003
0011
0000
0011
0000
,
0020
0230
0320
2030
,
3020
0000
0030
0000
0011
0000
0001
1000
0000
0020
0000
0030
0100
0001
0100
0010
,
1000
0000
0001
0000
1001
0000
1000
0100
0000
0020
0000
0030
0100
0000
0010
0000
,
0001
0000
1000
0000
1010
0000
0010
0100
0000
0002
0000
0003
1001
0000
1000
0000
,
0001
0010
0000
0001
0100
0000
0001
0010
0000
0001
0100
0000
0010
1000
0000
0000
,
1020
0000
0030
0000
0110
0000
0100
0001
0000
2000
0000
3000
0001
0010
0001
1000
,
0010
0000
0100
0000
0101
0000
0001
1000
0000
0200
0000
0300
0010
0000
0010
0000
,
0100
0000
1000
0000
1001
0000
0001
0100
0000
0020
0000
0030
1010
0000
1010
0000
,
2000
3020
0230
2300
,
3100
0000
0000
0000
0220
0000
0000
0330
0010
1000
0001
1000
0100
0010
0001
1000
,
0100
0000
0010
0000
0012
0000
0000
0000
1003
0010
0100
0000
0001
0000
0001
0000
,
1000
0000
0100
0000
0010
0000
0100
0000
1100
0000
0000
1100
0000
0000
1100
0000
,
1000
0001
1000
0001
0100
0000
0010
0000
1000
0001
0010
0100
0000
1000
0000
0000
,
2020
0000
0000
0000
,
3030
0000
0000
0000
;

//---------------dance-single - Loodee----------------
#NOTES:
     dance-single:
     Loodee:
     Medium:
     8:
     0.486181,0.561364,0.245597,0.350853,0.429794,388.000000,360.000000,28.000000,40.000000,0.000000,0.000000,0.486181,0.561364,0.245597,0.350853,0.429794,388.000000,360.000000,28.000000,40.000000,0.000000,0.000000:
0000
0000
0000
0000
,
0000
0000
0000
0000
,
0000
0000
0000
0000
,
0000
0000
0000
0000
,
0000
0000
0000
0000
,
0000
0000
0000
0000
,
0000
0000
0000
0000
,
0000
0000
0000
0000
,
0004
4000
0000
0000
0000
0000
0000
0000
0000
0000
0000
0003
3000
0000
0001
0000
,
0004
0040
0000
0000
0000
0000
0000
0000
0000
0000
0000
0000
0000
0000
0003
0030
,
0400
4000
0000
0000
0000
0000
0000
0000
0000
0000
0000
0300
3000
0000
0001
0000
,
1000
0010
0000
0000
1000
0010
0000
0000
0100
0000
0000
0001
0000
0000
1000
0000
,
0100
0010
0001
0100
0001
1000
0010
1000
,
0100
0010
0100
1000
0010
1000
0001
0100
,
0020
0000
0032
0000
2003
0000
3200
0000
0302
0000
0203
0000
0310
1000
0010
1000
,
0010
0000
0000
0000
0000
0000
0000
0000
1000
0001
1000
0000
0100
0000
0010
0000
,
0011
0000
0000
0000
1001
0000
0000
1000
0000
0010
0000
0000
0100
0001
0100
0000
,
0010
0000
1000
0000
1001
0000
0000
0001
0000
0010
0000
0000
0100
0000
0100
0000
,
1000
0000
0001
0000
1001
0000
0000
1000
0000
0010
0000
0000
0100
0000
0100
0000
,
0002
0023
0230
0302
,
0103
0000
0000
0000
1100
0000
0000
1000
0000
0001
0000
0000
0100
0010
0100
0000
,
0001
0000
0010
0000
0200
0000
0000
1300
0000
0001
0000
0000
1000
0000
0010
0000
,
0100
0000
0001
0000
0010
0000
0100
0000
1100
0000
0000
1000
0000
0000
0001
0000
,
0100
0001
0100
0001
0100
0000
0010
0000
4000
0000
0000
0000
3000
0000
0000
0000
,
1200
0000
0320
0000
0031
0100
0001
0100
,
0010
0000
1000
0000
0001
0010
0000
0010
0001
0000
0100
0000
0010
0000
0010
0000
,
1000
0100
0010
0000
0200
0000
0000
0000
1300
0000
0001
0100
0000
0100
0001
0000
,
4000
0000
0000
0000
3100
0000
0000
0100
0000
0000
0100
0000
0000
0001
0000
0000
,
0110
0000
0012
0000
1003
0010
1000
0010
,
0200
0000
0000
0000
0301
1000
0000
1000
0001
0000
0010
0000
0200
0000
0000
0000
,
0340
0000
0000
0000
0032
0000
0000
0000
1003
0000
0010
0100
0000
0100
0010
0000
,
2000
0000
0000
0000
0000
0000
3001
0000
1000
0000
0001
0000
0020
0000
0000
0230
0000
0000
0320
0000
0000
0031
0000
0000
,
2001
0000
3002
0000
0103
0010
0100
0010
,
1000
0000
0100
0000
0010
0001
0000
0001
0010
0000
0001
0000
1000
0000
1000
0000
,
0010
0100
0010
0000
2000
0000
0000
0000
3001
0000
0010
0100
0000
0100
0010
0000
,
0002
0000
1003
0000
0020
0000
1030
0000
0100
0000
0100
0000
1000
0001
1000
0001
,
2000
0000
3020
0000
0430
0000
0000
0300
,
1001
0000
0000
1001
0000
0000
0011
0000
0000
0011
0000
0000
1001
0000
0000
0000
,
1000
0000
0000
1000
0000
0000
0001
0100
0001
0000
0000
0001
0000
0000
0010
0100
,
1000
0000
0000
0000
,
0001
0000
0000
0100
0000
0001
1000
0000
0100
0000
0000
0010
0000
0100
1000
0000
,
0001
0000
0000
1000
0000
0001
0100
0000
0010
0000
0000
1000
0000
0001
0010
0000
,
0100
0000
0000
0010
0000
0001
1000
0000
0001
0000
0000
0100
0000
0010
0100
0000
,
0001
0000
0001
0000
1000
0000
1000
0000
0100
0010
0100
0010
0001
0000
1000
0000
,
0004
0400
0000
0000
0000
0000
0000
0000
0000
0000
0000
0000
0000
0000
0003
0300
,
0010
0000
1000
0000
0001
0000
1000
0000
0001
0000
0010
0000
0100
1000
0100
1000
,
0400
0000
0000
0000
,
0310
0000
0000
0000
,
0001
0000
0000
0000
0101
0000
0000
0100
0000
0010
0000
0000
1000
0001
1000
0000
,
0100
0000
0010
0000
0110
0000
0000
0100
0000
1000
0000
0000
0001
0000
0001
0000
,
0100
0000
0010
0000
1010
0000
0000
1000
0000
0010
0000
0000
0100
0000
0100
0000
,
0002
2003
3200
0302
,
0103
0000
0000
0000
0110
0000
0000
0010
0000
0001
0000
0000
1000
0010
1000
0000
,
0001
0000
1000
0000
0200
0000
0000
0310
0000
0100
0000
0000
0010
0000
0001
0000
,
2000
0000
0000
0000
3010
0000
0000
0100
0000
0001
0000
0000
0010
0000
0010
0000
,
0100
0000
0000
0000
1000
0000
0000
0001
0000
0000
0001
0000
0000
0011
0000
0000
,
0010
0000
0000
0000
0110
0000
0000
0100
0000
1000
0000
0000
0001
1000
0001
0000
,
0100
0000
0010
0000
0110
0000
0000
0100
0000
0010
0000
0000
1000
0000
0001
0000
,
0010
0000
0100
0000
1100
0000
0000
1000
0000
0010
0000
0000
0100
0000
0100
0000
,
0002
0203
0320
0032
,
0013
0000
0000
0000
0110
0000
0000
0100
0000
0001
0000
0000
1000
0100
1000
0000
,
0001
0000
0100
0000
0020
0000
0000
0130
0000
0001
0000
0000
1000
0000
0100
0000
,
0010
0000
0001
0000
0100
0000
0001
0000
1001
0000
0000
1001
0000
0000
1001
0000
,
0001
1000
0001
1000
0001
0000
0010
0000
0400
0000
0000
0000
0000
0300
0000
0000
,
1100
0000
0000
0000
;

//---------------dance-single - Loodee----------------
#NOTES:
     dance-single:
     Loodee:
     Easy:
     5:
     0.273164,0.364887,0.061399,0.412252,0.008771,218.000000,211.000000,7.000000,47.000000,0.000000,0.000000,0.273164,0.364887,0.061399,0.412252,0.008771,218.000000,211.000000,7.000000,47.000000,0.000000,0.000000:
0000
0000
0000
0000
,
0000
0000
0000
0000
,
0000
0000
0000
0000
,
0000
0000
0000
0000
,
0000
0000
0000
0000
,
0000
0000
0000
0000
,
0000
0000
0000
0000
,
0000
0000
0000
0000
,
2000
0000
0000
0000
,
3002
0000
0000
0000
,
0203
0000
0000
0000
,
0320
0000
0000
0000
2000
0000
0000
3030
,
0002
0023
0032
2003
,
3020
0230
0302
2003
,
3100
0000
0010
0000
0001
1000
0001
1000
,
0001
0000
0000
0000
,
0001
0000
1000
0000
1000
0000
0010
1000
,
0001
0000
0010
0000
0001
0000
1000
0001
,
1000
0000
0100
0000
1000
0000
0010
0010
,
0200
0302
2003
3200
,
0310
0000
0100
0000
0010
0000
0001
1000
,
0001
0100
0001
1000
,
0100
0000
0000
0000
0010
0000
0000
0000
0001
0000
0000
1000
0000
0000
0001
0000
,
2000
0000
3000
0000
,
0002
0103
0010
1010
,
0010
0000
0100
0000
0001
1000
0100
0000
,
0010
0000
0001
0000
1000
0010
1000
0000
,
0200
0310
0001
0001
,
0001
2000
3010
0110
,
0010
0000
1000
0000
0001
0010
0002
0000
,
2003
0000
3010
0000
0100
0001
0100
0000
,
0020
0000
2030
0000
,
3200
0310
0001
0011
,
0001
0000
1000
0000
0010
0100
0010
0000
,
1000
0000
0001
0000
0010
0100
0010
0000
,
0001
1000
0001
1000
0001
0000
0000
0000
,
0101
0000
1001
0000
,
2200
0000
0000
3300
,
2000
0000
3020
0000
,
0130
0000
0000
0000
,
0001
0010
0001
1000
,
0010
0000
0100
0000
0001
0000
1000
0100
,
1000
0001
0100
0001
,
0010
0100
0010
0000
0001
1000
0001
0001
,
0200
0000
0000
0000
,
0320
0000
0000
0000
,
2030
3200
0320
0032
,
0103
0000
0000
0000
,
0010
0000
1000
0000
0001
0000
0010
0100
,
0010
0000
0001
0000
1000
0000
0001
0100
,
0001
0000
1000
0000
0100
0000
0010
0010
,
0002
0023
0032
0203
,
0310
0000
1000
0000
0001
0000
1000
0100
,
1000
0001
0100
0010
,
0100
0000
0001
0000
1000
0000
0001
0001
,
0020
0000
0030
0000
,
0100
0000
1000
0000
0010
0000
0100
0001
,
0100
0000
0010
0000
1000
0000
0100
0010
,
0100
0000
1000
0000
0010
0000
1000
1000
,
0002
0023
0032
0203
,
0310
0000
1001
0000
0001
1000
0001
1000
,
0001
0010
0001
1000
,
0010
0000
0000
0000
0100
0000
0000
0000
0001
0000
0000
1000
0000
0000
0001
0000
,
2000
0000
3200
0000
,
0310
0000
0000
0000
;

//---------------dance-single - Loodee----------------
#NOTES:
     dance-single:
     Loodee:
     Beginner:
     2:
     0.068917,0.112273,0.017543,0.096484,0.000000,55.000000,53.000000,2.000000,11.000000,0.000000,0.000000,0.068917,0.112273,0.017543,0.096484,0.000000,55.000000,53.000000,2.000000,11.000000,0.000000,0.000000:
// measure 0
0000
0000
0000
0000
,  // measure 1
0000
0000
0000
0000
,  // measure 2
0000
0000
0000
0000
,  // measure 3
0000
0000
0000
0000
,  // measure 4
0000
0000
0000
0000
,  // measure 5
0000
0000
0000
0000
,  // measure 6
0000
0000
0000
0000
,  // measure 7
0000
0000
0000
0000
,  // measure 8
0002
0000
0000
0000
,  // measure 9
0003
0000
0000
0000
,  // measure 10
2000
0000
0000
0000
,  // measure 11
3000
0000
0000
0000
,  // measure 12
2002
0000
0000
0000
,  // measure 13
0000
0000
0000
0000
,  // measure 14
0000
0000
0000
0000
,  // measure 15
3003
0000
0000
0000
,  // measure 16
0001
0000
0000
0000
,  // measure 17
0001
0000
0000
0000
,  // measure 18
1000
0000
0000
0000
,  // measure 19
0200
0000
0000
0000
,  // measure 20
1300
0000
0000
0000
,  // measure 21
1000
0000
0000
0000
,  // measure 22
0010
0000
0010
0000
,  // measure 23
0000
0000
0000
0000
,  // measure 24
1000
0000
1000
0000
,  // measure 25
0001
0000
0000
0000
,  // measure 26
1000
0000
0000
0000
,  // measure 27
0100
0000
0000
0000
,  // measure 28
0010
0000
0010
0000
,  // measure 29
0001
0000
0000
0000
,  // measure 30
1000
0000
0000
0000
,  // measure 31
0001
0000
0000
0000
,  // measure 32
0001
0000
0001
0000
,  // measure 33
0100
0000
0000
0000
,  // measure 34
0010
0000
0000
0000
,  // measure 35
1000
0000
0000
0000
,  // measure 36
0002
0000
0000
0000
,  // measure 37
2003
0000
0000
0000
,  // measure 38
3100
0000
0000
0000
,  // measure 39
1000
0000
0000
0000
,  // measure 40
1000
0000
0000
0000
,  // measure 41
0001
0000
0000
0000
,  // measure 42
1000
0000
0000
0000
,  // measure 43
0100
0000
0000
0000
,  // measure 44
0020
0000
0000
0000
,  // measure 45
0000
0000
0000
0000
,  // measure 46
0000
0000
0000
0000
,  // measure 47
0031
0000
0000
0000
,  // measure 48
1000
0000
0000
0000
,  // measure 49
1000
0000
0000
0000
,  // measure 50
0010
0000
0000
0000
,  // measure 51
0200
0000
0000
0000
,  // measure 52
0310
0000
0000
0000
,  // measure 53
0010
0000
0000
0000
,  // measure 54
1000
0000
0000
0000
,  // measure 55
0002
0000
0000
0000
,  // measure 56
0013
0000
0000
0000
,  // measure 57
0010
0000
0000
0000
,  // measure 58
0001
0000
0000
0000
,  // measure 59
2000
0000
0000
0000
,  // measure 60
3000
0001
0000
0000
,  // measure 61
1000
0000
0000
0000
,  // measure 62
0001
0000
0000
0000
,  // measure 63
0100
0000
0000
0000
,  // measure 64
1001
0000
0000
0000
;
