#TITLE:Wow.;
#SUBTITLE:;
#ARTIST:Post Malone;
#TITLETRANSLIT:;
#SUBTITLETRANSLIT:;
#ARTISTTRANSLIT:;
#GENRE:Hip-Hop;
#CREDIT:Feraligatr;
#BANNER:wow-bn.png;
#BACKGROUND:Wow-bg.png;
#LYRICSPATH:;
#CDTITLE:FeraligatrV4-cd.png;
#MUSIC:Post Malone Wow.ogg;
#OFFSET:0.061000;
#SAMPLESTART:38.339001;
#SAMPLELENGTH:19.200001;
#SELECTABLE:YES;
#DISPLAYBPM:100.000000;
#BPMS:0.000000=100.000000
;
#STOPS:
;
#BGCHANGES:;
#KEYSOUNDS:;
#ATTACKS:;

//---------------dance-single - Feraligatr----------------
#NOTES:
     dance-single:
     Feraligatr:
     Challenge:
     9:
     0.659806,0.589831,0.177966,0.364407,0.809322,545.000000,524.000000,21.000000,43.000000,3.000000,0.000000,0.659806,0.589831,0.177966,0.364407,0.809322,545.000000,524.000000,21.000000,43.000000,3.000000,0.000000:
0000
0000
0000
0000
,
0000
0000
0000
0000
,
0000
0000
0000
0000
,
0000
0000
0000
0000
0000
0000
0000
0000
0000
0000
0000
0000
0000
0000
1000
0001
,
0100
0010
0001
0010
0100
0001
1000
0001
0010
0000
0200
0000
1300
0000
0001
0100
,
0010
0100
1000
0000
0200
0000
0301
1000
0100
1000
0020
0000
0130
0000
0001
1000
,
0100
0010
1000
0010
0100
1000
0001
0100
0010
0000
2000
0000
3100
0000
1000
0001
,
0100
0010
0001
0010
0100
0001
1000
0100
0010
0000
0004
0000
1003
0000
0010
0000
,
0110
0000
0100
0000
0001
0000
0020
0000
0031
0100
0020
0000
1030
0100
0020
0000
,
0031
0100
0020
0000
1030
0100
1000
0001
0100
0000
0010
0000
0100
0001
0010
0000
,
0110
0000
0100
0000
1000
0001
0100
0001
1000
0100
0000
0020
0001
0000
0130
0000
,
1000
0001
0100
0001
1000
0000
0100
1000
0001
0100
0000
0020
0000
0000
0000
0000
,
0031
0010
1000
0001
0010
0100
0010
0001
0100
0010
1000
0000
0100
0000
0010
0000
,
1000
0010
0001
1000
0010
0100
0010
1000
0100
0010
0001
0000
0100
0000
0010
0100
,
1000
0100
0001
1000
0100
0010
0100
1000
0010
0100
0001
0000
0010
0000
0100
0010
,
1000
0010
0001
1000
0010
0100
0010
1000
0100
0010
0001
0000
0001
0000
0100
0000
,
0010
0000
0000
0000
1000
0000
0001
0100
1000
0100
0001
0010
1000
0010
0200
0000
,
1300
0000
0000
0000
0001
0000
1000
0100
0001
0100
1000
0010
0001
0010
0200
0000
,
0301
0000
0000
0000
1000
0000
0001
0100
1000
0100
0001
0010
1000
0010
0200
0000
,
1300
0000
0001
0010
0100
0100
0001
0100
0010
0010
0001
0010
0100
0100
2000
3000
,
1100
0000
M001
0000
0001
0000
1000
0100
0001
0100
1000
0010
0001
0010
0200
0300
,
0101
0000
0001
0000
1000
0000
0001
0010
1000
0010
0001
0100
1000
0100
0020
0030
,
1010
0000
1000
0000
0001
0000
1000
0100
0001
0100
1000
0010
0001
0010
0200
0300
,
0101
0000
1000
0010
0100
0100
1000
0100
0010
0010
1000
0010
0100
0100
0002
0000
,
0103
0000
100M
0000
1000
0000
0001
0100
0001
1000
0000
0200
0010
0000
0000
0300
,
0100
0000
0000
1000
0000
0000
0001
0000
0000
0100
0000
0000
0010
0000
0000
0000
0000
0000
1000
0000
0000
0001
0000
0000
1000
0000
0000
0100
0000
0000
0000
0000
0000
0020
0000
0000
0001
0000
0000
0000
0001
0000
0000
0000
0001
0030
0000
0000
,
0010
0100
1000
0001
0100
0010
0100
0001
0010
0100
0000
2000
0001
0000
0000
3000
,
1000
0000
0001
0100
0010
0000
0100
0001
0010
0100
0000
2000
0004
0000
0000
3003
,
1001
0000
1000
0000
0010
1000
0100
0000
0002
0000
0103
1000
0010
0000
0100
0000
,
0101
0000
0001
0000
1000
0100
1000
0010
0002
0000
0013
1000
0100
0000
0010
0000
,
0011
0000
0001
0000
1000
0010
1000
0100
0001
0100
0010
0001
0100
0000
0010
0000
,
1010
0000
1000
0000
0001
1000
0100
0000
0002
0000
0103
1000
0022
0000
0033
0000
,
1000
0001
0100
0000
0010
0000
1000
0100
0020
0000
1030
0010
0200
0000
1300
0001
,
0100
0001
1000
0000
0100
1000
0001
0100
0020
0000
0031
0010
0200
0000
0310
0000
,
1000
0001
0010
0001
0100
0010
0100
0001
0010
0100
0001
0100
0020
0000
0031
1000
,
0010
0100
0010
1000
0100
1000
0001
0100
0020
0000
0031
0010
0200
0000
0301
0000
,
1000
0020
0000
0130
0001
0000
1000
0100
1000
0000
0011
0000
1100
0000
1000
0000
,
0010
0100
0001
0010
0100
0000
1000
0001
0100
0000
1010
0000
0101
0000
0001
0000
,
0010
0100
1000
0010
0100
0001
1000
0100
1000
0000
0011
0000
1100
0000
1000
0000
,
0010
0000
0000
0010
0000
0000
0010
0000
0000
0100
0000
0000
0001
0000
0000
0010
0000
0000
0100
0000
0100
0000
0100
0000
,
1000
0000
0000
0000
0001
0000
1000
0100
0001
0100
1000
0010
0001
0010
0200
0000
,
0301
0000
0000
0000
1000
0000
0001
0100
1000
0100
0001
0010
1000
0010
0200
0000
,
1300
0000
0000
0000
0001
0000
1000
0100
0001
0100
1000
0010
0001
0010
0200
0000
,
0301
0000
1000
0010
0100
0100
1000
0100
0010
0010
1000
0010
0100
0100
0002
0003
,
0101
0000
100M
0000
1000
0000
0001
0100
1000
0100
0001
0010
1000
0010
0200
0300
,
1100
0000
0001
0000
0001
0000
1000
0010
0001
0010
1000
0100
0001
0100
0020
0030
,
0011
0000
1000
0000
1000
0000
0001
0100
1000
0100
0001
0010
1000
0010
0200
0300
,
1100
0000
0001
0010
0100
0100
0001
0100
0010
0010
0001
0010
0100
0100
2000
0000
,
3100
0000
0000
0000
;

//---------------dance-single - Feraligatr----------------
#NOTES:
     dance-single:
     Feraligatr SH:
     Hard:
     8:
     0.595642,0.569492,0.016949,0.355932,0.783898,492.000000,490.000000,2.000000,42.000000,0.000000,0.000000,0.595642,0.569492,0.016949,0.355932,0.783898,492.000000,490.000000,2.000000,42.000000,0.000000,0.000000:
0000
0000
0000
0000
,
0000
0000
0000
0000
,
0000
0000
0000
0000
,
0000
0000
0000
0000
0000
0000
0000
0000
0000
0000
0000
0000
0000
0000
1000
0001
,
0200
0000
0310
1000
0001
1000
0100
0010
0001
0000
2000
0000
3000
0000
0001
0100
,
0010
1000
0100
0000
0020
0000
0031
1000
0001
0000
0200
0000
0300
0000
0001
1000
,
0010
1000
0100
0010
0001
1000
0001
0100
0010
0000
2000
0000
3000
0000
0001
1000
,
0100
1000
0010
0100
0001
1000
0100
0010
0001
0000
4000
0000
3000
0000
0000
0000
,
1001
0000
0001
0000
0010
0000
0200
0000
1300
0001
0200
0000
0301
1000
0200
0000
,
1300
0001
0200
0000
0301
1000
0100
1000
0001
0000
0010
0000
0100
1000
0010
0000
,
0100
0000
0001
0000
1000
0100
1000
0001
0100
0010
0000
2000
0000
0000
0000
3000
,
0001
0100
0001
1000
0100
0000
0010
0001
1000
0010
0000
0200
0000
0000
0000
0000
,
0301
1000
0001
1000
0100
0010
0001
1000
0010
0100
0001
0000
1000
0000
0000
0000
,
0100
1000
0100
1000
0001
0100
0010
1000
0001
0010
0100
0000
1000
0000
0000
0001
,
1000
0010
1000
0010
0100
0001
1000
0100
0010
0001
1000
0000
0010
0000
0100
0001
,
1000
0100
1000
0100
0010
0001
1000
0001
0100
0010
1000
0000
0001
0000
0010
0000
,
0100
0000
0000
0000
0000
0000
1000
0001
1000
0010
0100
0001
1000
0100
0020
0000
,
0031
0000
0000
0000
0000
0000
1000
0001
1000
0010
0100
0001
1000
0100
0020
0000
,
0031
0000
0000
0000
0000
0000
1000
0001
1000
0010
0100
0001
1000
0100
0020
0000
,
0031
0000
0100
0001
0010
0100
1000
0001
0100
0010
1000
0001
0010
0100
2000
0000
,
3010
0000
0100
0000
0100
0000
0001
1000
0001
0010
0100
1000
0001
0100
0020
0000
,
1030
0000
0100
0000
1000
0000
0001
1000
0001
0100
0010
1000
0001
0010
0200
0000
,
1300
0000
0010
0000
1000
0000
0001
1000
0001
0010
0100
1000
0001
0100
0020
0000
,
1030
0000
0001
1000
0001
0100
0010
1000
0001
0010
0100
1000
0001
0100
0020
0000
,
1030
0000
0001
0000
0001
0000
1000
0100
0010
0001
0000
2000
0000
0000
0000
3000
,
0010
1000
0001
1000
0100
0000
1000
0001
0100
0010
0000
2000
0000
0000
0000
3000
,
0001
1000
0001
0010
0100
1000
0001
0100
0010
1000
0000
0002
0000
0000
0000
0003
,
1000
0000
0100
0010
0001
0000
1000
0001
0100
0010
0000
2000
0000
0000
0000
3000
,
1001
0000
0000
0000
0001
0010
0001
0000
0200
0000
0310
1000
0001
0000
0010
0000
,
0100
0000
0000
0000
1000
0001
0100
0001
0020
0000
0130
1000
0001
0000
0100
0000
,
0010
0000
0000
0000
1000
0001
0010
0001
0100
0010
1000
0001
0010
0000
0100
0000
,
1000
0000
0000
0000
0001
0100
0001
0000
2000
0000
3001
0010
2000
0000
3000
0000
,
0010
0100
1000
0000
0001
0000
1000
0001
2000
0000
3010
0100
0002
0000
0003
1000
,
0100
1000
0001
0000
0100
0010
1000
0001
2000
0000
3100
0010
0002
0000
0003
0000
,
1000
0001
1000
0010
0100
0001
1000
0001
0010
0100
1000
0001
0200
0000
0300
0010
,
1000
0001
1000
0100
0010
0001
1000
0001
0200
0000
0310
1000
0002
0000
0003
0000
,
1000
0100
0000
0100
0010
0000
0001
1000
0001
0000
0100
0000
0010
0000
0000
0000
,
1000
0100
0010
0001
0100
0000
0001
1000
0001
0000
0010
0000
0100
0000
0000
0000
,
0010
0001
1000
0001
0100
0010
1000
0001
1000
0000
0100
0000
0010
0000
0001
0000
,
1000
0010
1000
0001
1000
0010
0100
0001
,
0010
0000
0000
0000
0000
0000
0001
1000
0001
0010
0100
1000
0001
0100
0020
0000
,
1030
0000
0000
0000
0000
0000
0001
1000
0001
0010
0100
1000
0001
0100
0020
0000
,
1030
0000
0000
0000
0000
0000
0001
1000
0001
0010
0100
1000
0001
0100
0020
0000
,
1030
0000
0100
1000
0010
0100
0001
1000
0100
0010
0001
1000
0010
0100
0002
0000
,
0013
0000
0100
0000
0100
0000
1000
0001
1000
0010
0100
0001
1000
0100
0020
0000
,
0031
0000
0100
0000
0001
0000
1000
0001
1000
0100
0010
0001
1000
0010
0200
0000
,
0301
0000
0010
0000
0001
0000
1000
0001
1000
0010
0100
0001
1000
0100
0020
0000
,
0031
0000
1000
0001
1000
0100
0010
0001
1000
0010
0100
0001
1000
0100
0020
0000
,
0031
0000
0000
0000
;

//---------------dance-single - Feraligatr----------------
#NOTES:
     dance-single:
     Feraligatr SM:
     Medium:
     6:
     0.346247,0.427119,0.033898,0.194915,0.042373,286.000000,282.000000,4.000000,23.000000,0.000000,0.000000,0.346247,0.427119,0.033898,0.194915,0.042373,286.000000,282.000000,4.000000,23.000000,0.000000,0.000000:
0000
0000
0000
0000
,
0000
0000
0000
0000
,
0000
0000
0000
0000
,
0000
0000
0000
0000
0000
0000
0000
1000
,
0010
0100
0001
1000
0100
0010
0000
0001
,
1000
0010
0100
0001
1000
0100
0000
1000
,
0001
0100
0001
1000
0100
0010
0000
0001
,
1000
0010
0100
0001
1000
0100
0000
0000
,
0012
0000
0000
0000
1003
0000
0002
0000
1003
0100
2000
0000
3001
0100
0002
0000
,
1003
0100
2000
0000
3001
0100
0001
0000
1000
0000
0100
0000
1000
0000
0010
0000
,
0100
0000
0001
1000
0100
0010
0001
0000
,
1000
0001
0100
0001
0010
0100
1000
0000
,
0001
0100
0001
1000
0100
0010
0001
0000
,
1000
0010
0100
0001
1000
0100
0010
0000
,
0100
1000
0001
0100
0010
1000
0001
0010
,
0100
0010
0001
1000
0010
0100
0001
0000
,
2000
0000
0000
0000
0000
3010
0100
0001
,
0002
0000
0000
0000
0000
0013
0100
1000
,
2000
0000
0000
0000
0000
3010
0100
0001
,
0002
0000
1003
1000
,
2100
0000
0001
0010
0000
3010
0100
0001
,
0002
0000
1000
0010
0000
0013
0100
1000
,
2000
0000
0001
0100
0000
3100
1000
0010
,
0200
0000
0001
0010
0000
0310
1000
0001
,
0100
0000
0000
0001
1000
0100
0010
0000
,
0001
1000
0010
0100
0010
1000
0001
0000
,
1000
0100
1000
0001
0100
0010
1000
0000
,
0001
1000
0100
0010
0100
1000
0001
0000
,
0102
0000
1003
0001
0010
0100
1000
0010
,
0100
0000
0001
1000
0100
0010
0100
1000
,
0001
0000
1000
0010
0100
0010
1000
0001
,
0010
0000
0100
1000
0001
0100
2000
3000
,
0100
0000
0010
0000
1000
0000
0001
0000
0010
0000
0100
1000
0100
0000
0000
0000
,
1000
0000
0001
0000
0100
0000
0010
0000
1000
0000
0001
0010
0001
0000
0000
0000
,
1000
0000
0010
0000
0100
0000
0001
0000
1000
0000
0100
0010
0100
0000
0000
0000
,
1000
0000
0001
0000
0100
0000
0010
0000
1000
0000
0001
0010
0001
0000
0000
0000
,
1000
0010
0000
0010
0100
0000
0001
0000
1000
0000
0100
0000
0010
0000
0000
0000
,
0001
1000
0010
0100
0001
0010
0100
0000
,
1000
0001
0100
0001
1000
0100
0010
0001
,
1000
0010
1000
0010
1000
0010
0100
0001
,
2000
0000
0000
0000
0000
3100
0010
0001
,
0002
0000
0000
0000
0000
0103
0010
1000
,
2000
0000
0000
0000
0000
3100
0010
0001
,
0002
0000
0003
0000
,
2010
0000
0001
0100
0000
3100
0010
0001
,
0002
0000
1000
0100
0000
0103
0010
1000
,
2000
0000
0001
0010
0000
3010
1000
0100
,
0020
0000
0001
0100
0000
0130
1000
0001
,
0100
0000
0000
0000
;

//---------------dance-single - Feraligatr----------------
#NOTES:
     dance-single:
     Feraligatr SE:
     Easy:
     3:
     0.196126,0.223729,0.042373,0.042373,0.000000,162.000000,157.000000,5.000000,5.000000,0.000000,0.000000,0.196126,0.223729,0.042373,0.042373,0.000000,162.000000,157.000000,5.000000,5.000000,0.000000,0.000000:
// measure 0
0000
0000
0000
0000
,  // measure 1
0000
0000
0000
0000
,  // measure 2
0000
0000
0000
0000
,  // measure 3
0000
0000
0000
0000
,  // measure 4
1000
0010
0100
0000
,  // measure 5
0001
1000
0100
0000
,  // measure 6
0010
0100
1000
0000
,  // measure 7
0001
0100
0010
0000
,  // measure 8
1001
0000
1000
0002
0003
0002
0003
0002
,  // measure 9
0003
0002
0003
0000
1000
0000
0100
0000
,  // measure 10
0010
0001
1000
0010
,  // measure 11
0100
0001
1000
0000
,  // measure 12
0110
0001
1000
0100
,  // measure 13
1000
0001
0100
0010
,  // measure 14
0100
0001
1000
0100
,  // measure 15
1000
0001
0100
0010
,  // measure 16
1000
0000
0001
0001
,  // measure 17
0001
0000
0010
0010
,  // measure 18
0010
0000
0100
0100
,  // measure 19
0100
1000
0001
1000
,  // measure 20
1001
0001
0100
0001
,  // measure 21
1000
0100
0010
0100
,  // measure 22
1000
0001
0100
0010
,  // measure 23
0100
0001
1000
0100
,  // measure 24
0010
0000
0001
1000
,  // measure 25
0001
0000
1000
0010
,  // measure 26
0100
0000
0001
1000
,  // measure 27
0100
0000
0010
0000
,  // measure 28
1001
0001
0100
0010
,  // measure 29
1000
0001
0010
0100
,  // measure 30
1000
0001
0100
0010
,  // measure 31
0100
0000
0001
0000
0010
0000
2000
3000
,  // measure 32
0010
0100
1000
0000
,  // measure 33
0001
0100
0010
0000
,  // measure 34
0100
0001
1000
0000
,  // measure 35
0100
0010
0001
0000
,  // measure 36
1000
0000
0001
0000
0100
0010
0010
0000
,  // measure 37
1000
0000
0001
0000
0010
0100
0100
0000
,  // measure 38
1000
0000
0001
0000
0100
0010
0010
0000
,  // measure 39
1000
1000
0010
0100
,  // measure 40
0001
0000
1000
1000
,  // measure 41
1000
0000
0001
0001
,  // measure 42
0001
0000
0010
0010
,  // measure 43
0010
0000
0000
0000
,  // measure 44
1001
1000
0001
0100
,  // measure 45
0010
0100
0001
1000
,  // measure 46
0100
1000
0001
0100
,  // measure 47
0010
1000
0001
0010
,  // measure 48
0100
0000
0000
0000
;

//---------------dance-single - Feraligatr----------------
#NOTES:
     dance-single:
     Feraligatr SN:
     Beginner:
     1:
     0.100484,0.142373,0.042373,0.008475,0.000000,83.000000,78.000000,5.000000,1.000000,0.000000,0.000000,0.100484,0.142373,0.042373,0.008475,0.000000,83.000000,78.000000,5.000000,1.000000,0.000000,0.000000:
0000
0000
0000
0000
,
0000
0000
0000
0000
,
0000
0000
0000
0000
,
0000
0000
0000
0000
,
1000
0000
1000
0000
,
0001
0000
0001
0000
,
0100
0000
0100
0000
,
0010
0000
0010
0000
,
1001
0000
0001
0000
,
1000
0000
0001
0000
,
0100
0000
0010
0000
,
1000
0000
0001
0000
,
0010
0000
0100
0000
,
1000
0000
0001
0000
,
0100
0000
0001
0000
,
1000
0000
0100
0000
,
0010
0000
0000
0000
,
0001
0000
0000
0000
,
1000
0000
0000
0000
,
0010
0000
0000
0000
,
1001
0000
1000
0000
,
0001
0000
0010
0000
,
0100
0000
0010
0000
,
0001
0000
1000
0000
,
0010
0000
0000
0000
,
0100
0000
0000
0000
,
0001
0000
0000
0000
,
1000
0000
0000
0000
,
0110
0000
1000
0000
,
0001
0000
0100
0000
,
0001
0000
1000
0000
,
0100
0000
0000
0000
0010
0000
0002
0003
,
1001
0000
1000
0000
,
0010
0000
0100
0000
,
0001
0000
1000
0000
,
0100
0000
0010
0000
,
0100
0000
1000
0000
,
0001
0000
0100
0000
,
0001
0000
1000
0000
,
0100
0000
0010
0000
,
0001
0000
0000
0000
,
0100
0000
0000
0000
,
0010
0000
0000
0000
,
1000
0000
0000
0000
,
0110
0000
1000
0000
,
0001
0000
0100
0000
,
0001
0000
1000
0000
,
0100
0000
0010
0000
,
0001
0000
0000
0000
;
