#VERSION:0.83;
#TITLE:Woah!;
#SUBTITLE:(w/ Factal);
#ARTIST:Haki;
#TITLETRANSLIT:;
#SUBTITLETRANSLIT:;
#ARTISTTRANSLIT:;
#GENRE:Future Bass;
#ORIGIN:;
#CREDIT:Maxx;
#BANNER:woah-bn.png;
#BACKGROUND:woah-bg-wide.png;
#PREVIEWVID:;
#JACKET:woah-jacket.png;
#CDIMAGE:;
#DISCIMAGE:woah-bg.png;
#LYRICSPATH:;
#CDTITLE:maxx-cdtitle.png;
#MUSIC:Woah!.ogg;
#OFFSET:-0.110000;
#SAMPLESTART:25.045000;
#SAMPLELENGTH:12.468000;
#SELECTABLE:YES;
#DISPLAYBPM:154.000000;
#BPMS:0.000=154.000,
74.000=231.000,
76.250=77.000,
76.500=154.000,
96.000=231.000,
96.750=77.000,
97.000=154.000,
106.000=231.000,
108.250=77.000,
108.500=154.000,
127.000=231.000,
127.750=77.000,
128.000=154.000,
234.000=231.000,
236.250=77.000,
236.500=154.000,
256.000=231.000,
256.750=77.000,
257.000=154.000,
266.000=231.000,
268.250=77.000,
268.500=154.000,
287.000=231.000,
287.750=77.000;
#STOPS:76.500=0.195,
108.500=0.195,
236.500=0.195,
268.500=0.195;
#DELAYS:;
#WARPS:;
#TIMESIGNATURES:0.000=4=4;
#TICKCOUNTS:0.000=4;
#COMBOS:0.000=1;
#SPEEDS:0.000=1.000=0.000=0;
#SCROLLS:0.000=1.000;
#FAKES:;
#LABELS:0.000=Song Start;
#BGCHANGES:;
#KEYSOUNDS:;
#ATTACKS:
;

//---------------dance-single - Maxx----------------
#NOTEDATA:;
#CHARTNAME:Maxx;
#STEPSTYPE:dance-single;
#DESCRIPTION:Maxx;
#CHARTSTYLE:Pad;
#DIFFICULTY:Challenge;
#METER:11;
#RADARVALUES:0.895457,0.993652,0.382859,0.676680,1.072894,704.000000,661.000000,43.000000,76.000000,12.000000,9.000000,5.000000,0.000000,0.000000,0.895457,0.993652,0.382859,0.676680,1.072894,704.000000,661.000000,43.000000,76.000000,12.000000,9.000000,5.000000,0.000000,0.000000;
#CREDIT:Maxx;
#DISPLAYBPM:154.000000;
#NOTES:
// measure 0
0000
0000
0000
0000
,  // measure 1
0000
0000
0000
0000
,  // measure 2
0000
0000
0000
0000
,  // measure 3
0000
0000
0000
0000
,  // measure 4
0000
0000
0000
0000
,  // measure 5
0000
0000
0000
0000
,  // measure 6
0000
0000
0000
0000
,  // measure 7
0000
0000
0000
0000
,  // measure 8
0001
0000
0000
1000
0000
0000
0100
0000
0000
0010
0000
0000
0001
0000
0000
1000
0000
0000
0010
0000
0000
1000
0001
1000
,  // measure 9
0100
0000
0000
0010
0000
0000
0001
0000
0000
1000
0000
0000
0010
0000
0000
0100
0000
0000
0010
0000
0000
1000
0001
1000
,  // measure 10
0100
0000
0000
0010
0000
0000
0001
0000
0000
1000
0000
0000
0010
0000
0000
0100
0000
0000
0001
0000
0000
1000
0100
1000
,  // measure 11
0001
0000
0000
0100
0000
0000
0010
0000
0000
1000
0000
0000
0001
0000
0000
1000
0000
0000
0100
0000
0000
1000
0001
1000
,  // measure 12
0010
0000
0000
0100
0000
0000
0001
0000
0000
1000
0000
0000
0100
0000
0000
0010
0000
0000
0001
0000
0000
1000
0001
1000
,  // measure 13
0010
0000
0000
0100
0000
0000
0001
0000
0000
1000
0000
0000
0100
0000
0000
0010
0000
0000
0001
0000
0000
1000
0001
1000
,  // measure 14
0010
0100
0001
1000
0100
0010
0001
1000
0010
1000
0001
0100
0001
0010
0100
1000
,  // measure 15
0020
0000
0000
0030
0210
0000
0000
0300
0102
0000
1003
0100
0010
0000
0010
0000
,  // measure 16
0001
0000
1000
0000
0001
0000
1000
0000
0100
0000
0010
0000
0001
0000
1000
0000
0010
0000
0100
0001
0100
0000
0001
0000
2000
0000
0000
0000
3001
0000
0010
0000
,  // measure 17
0100
0000
0000
0000
0000
0000
0000
0000
0000
0000
0000
0000
0010
0000
0000
0000
0000
0000
0000
0000
0000
0000
0000
0000
0001
0000
0000
0000
0000
0000
0000
0000
0000
0000
0000
0000
0100
0000
0000
0000
0000
0000
0000
0000
0000
0000
0000
0000
0010
0000
0000
0000
0000
0000
0000
0000
0000
0000
0000
0000
1000
0000
0000
0000
0000
0000
0000
0000
0000
0000
0000
0000
0001
0000
0000
0000
0000
0000
0000
0000
0000
0000
0000
0000
0010
0000
0000
0000
0000
0000
0000
0000
0000
0000
0000
0000
0100
0000
0000
0000
0000
0000
0000
0000
0000
0000
0000
0000
0000
0000
0000
0000
0000
0000
0000
0000
0000
0000
0000
0000
0000
0000
0000
0000
0000
0000
0000
1000
0000
0000
0000
0000
0000
0000
0000
0000
0000
0000
0000
0000
0000
0000
0000
0000
2020
0000
0000
0000
0000
0000
0000
0000
0000
0000
0000
0000
0000
0000
0000
0000
0000
0000
0000
0000
0000
0000
0000
0000
0000
0000
0000
0000
0000
0000
0000
0000
0000
0000
0000
0000
3030
0000
0000
0000
0000
0000
0000
0000
0000
0000
0000
0000
,  // measure 18
0102
0000
1003
0010
4001
0000
0000
0000
,  // measure 19
0000
0000
30M0
0000
1001
0000
1000
0010
0100
0000
0000
0101
0000
0000
1001
0000
,  // measure 20
1000
0000
0100
0000
1000
0000
0100
0000
0010
0000
0100
0000
1000
0000
0001
0000
0100
0000
0010
1000
0010
0000
0100
0000
0001
0000
0010
0000
0100
0000
0010
0000
,  // measure 21
0001
0000
0000
0000
0000
0000
0000
0000
0000
0000
0000
0000
1000
0000
0000
0000
0000
0000
0000
0000
0000
0000
0000
0000
0010
0000
0000
0000
0000
0000
0000
0000
0000
0000
0000
0000
0100
0000
0000
0000
0000
0000
0000
0000
0000
0000
0000
0000
0001
0000
0000
0000
0000
0000
0000
0000
0000
0000
0000
0000
1000
0000
0000
0000
0000
0000
0000
0000
0000
0000
0000
0000
0001
0000
0000
0000
0000
0000
0000
0000
0000
0000
0000
0000
0010
0000
0000
0000
0000
0000
0000
0000
0000
0000
0000
0000
0100
0000
0000
0000
0000
0000
0000
0000
0000
0000
0000
0000
0000
0000
0000
0000
0000
0000
0000
0000
0000
0000
0000
0000
0000
0000
0000
0000
0000
0000
0000
1000
0000
0000
0000
0000
0000
0000
0000
0000
0000
0000
0000
0000
0000
0000
0000
0000
1002
0000
0000
0000
0000
0000
0000
0000
0000
0000
0000
0000
0000
0000
0000
0000
0000
0000
0000
0000
0000
0000
0000
0000
0000
0000
0000
0000
0000
0000
0000
0000
0000
0000
0000
0000
0000
0000
0000
0000
0000
0000
0000
0000
0000
0000
0000
0000
,  // measure 22
2003
3001
0100
0010
0100
0001
0020
0130
1000
0001
0010
0001
0200
0310
1000
0010
,  // measure 23
0100
0001
0020
0130
1000
0001
1000
0010
0200
0000
0000
0000
0302
0000
0000
0000
,  // measure 24
MMM3
0000
0000
0000
0000
0000
0000
0000
1000
0000
0100
0000
1000
0000
0001
0000
0100
0000
0010
1000
0010
0000
1000
0000
0002
0000
0000
0000
1003
0000
0100
0000
,  // measure 25
0010
0000
0000
0000
0000
0000
0000
0000
0000
0000
0000
0000
0100
0000
0000
0000
0000
0000
0000
0000
0000
0000
0000
0000
1000
0000
0000
0000
0000
0000
0000
0000
0000
0000
0000
0000
0010
0000
0000
0000
0000
0000
0000
0000
0000
0000
0000
0000
0100
0000
0000
0000
0000
0000
0000
0000
0000
0000
0000
0000
0001
0000
0000
0000
0000
0000
0000
0000
0000
0000
0000
0000
1000
0000
0000
0000
0000
0000
0000
0000
0000
0000
0000
0000
0100
0000
0000
0000
0000
0000
0000
0000
0000
0000
0000
0000
0010
0000
0000
0000
0000
0000
0000
0000
0000
0000
0000
0000
0000
0000
0000
0000
0000
0000
0000
0000
0000
0000
0000
0000
0000
0000
0000
0000
0000
0000
0000
0001
0000
0000
0000
0000
0000
0000
0000
0000
0000
0000
0000
0000
0000
0000
0000
0000
0202
0000
0000
0000
0000
0000
0000
0000
0000
0000
0000
0000
0000
0000
0000
0000
0000
0000
0000
0000
0000
0000
0000
0000
0000
0000
0000
0000
0000
0000
0000
0000
0000
0000
0000
0000
0303
0000
0000
0000
0000
0000
0000
0000
0000
0000
0000
0000
,  // measure 26
2010
0000
3001
0100
1004
0000
0000
0000
,  // measure 27
0000
0000
0M03
0000
1001
0000
0001
0100
0010
0000
0000
1010
0000
0000
1001
0000
,  // measure 28
0001
0000
0010
0000
0001
0000
0010
0000
0100
0000
0010
0000
0001
0000
1000
0000
0010
0000
0100
0001
0100
0000
0010
0000
1000
0000
0100
0000
0010
0000
0100
0000
,  // measure 29
1000
0000
0000
0000
0000
0000
0000
0000
0000
0000
0000
0000
0001
0000
0000
0000
0000
0000
0000
0000
0000
0000
0000
0000
0100
0000
0000
0000
0000
0000
0000
0000
0000
0000
0000
0000
0010
0000
0000
0000
0000
0000
0000
0000
0000
0000
0000
0000
1000
0000
0000
0000
0000
0000
0000
0000
0000
0000
0000
0000
0001
0000
0000
0000
0000
0000
0000
0000
0000
0000
0000
0000
1000
0000
0000
0000
0000
0000
0000
0000
0000
0000
0000
0000
0100
0000
0000
0000
0000
0000
0000
0000
0000
0000
0000
0000
0010
0000
0000
0000
0000
0000
0000
0000
0000
0000
0000
0000
0000
0000
0000
0000
0000
0000
0000
0000
0000
0000
0000
0000
0000
0000
0000
0000
0000
0000
0000
0001
0000
0000
0000
0000
0000
0000
0000
0000
0000
0000
0000
0000
0000
0000
0000
0000
2001
0000
0000
0000
0000
0000
0000
0000
0000
0000
0000
0000
0000
0000
0000
0000
0000
0000
0000
0000
0000
0000
0000
0000
0000
0000
0000
0000
0000
0000
0000
0000
0000
0000
0000
0000
0000
0000
0000
0000
0000
0000
0000
0000
0000
0000
0000
0000
,  // measure 30
3002
1003
0010
0100
0010
1000
0200
0310
0001
1000
0100
1000
0020
0130
0001
1000
,  // measure 31
0010
1000
0200
0310
0001
1000
0010
1000
0200
0000
0000
0000
0320
0000
0000
0000
,  // measure 32
0031
0000
0010
0001
0000
2000
0000
3010
,  // measure 33
0100
0001
0000
0010
0000
0001
1000
0001
,  // measure 34
0200
0000
0310
1000
0000
0001
0000
1000
,  // measure 35
0100
0000
0000
0010
0000
0000
0001
0000
0000
0000
2000
0000
0000
0000
3001
0000
,  // measure 36
0010
0000
0001
1000
0000
0001
0100
0000
,  // measure 37
0010
1000
1000
0000
0001
0010
0001
0100
,  // measure 38
0020
0000
1030
0001
0000
1000
0100
0000
,  // measure 39
0000
1000
0001
0100
0010
0010
1000
0001
,  // measure 40
0010
0000
0000
0100
0000
0000
1000
0000
0000
0001
0000
0000
0100
0000
0000
0010
0000
0000
1000
0000
0000
0001
1000
0001
,  // measure 41
0010
0000
0000
0100
0000
0000
1000
0000
0000
0001
0000
0000
0100
0000
0000
0010
0000
0000
1000
0000
0000
0001
1000
0001
,  // measure 42
0010
0000
0000
0100
0000
0000
0010
0000
0000
0001
0000
0000
1000
0000
0000
0010
0000
0000
0100
0000
0000
0001
1000
0001
,  // measure 43
0010
0000
0000
0100
0000
0000
1000
0000
0000
0001
0000
0000
0100
0000
0000
0010
0000
0000
1000
0000
0000
0001
0010
0001
,  // measure 44
1000
0000
0000
0100
0000
0000
1000
0000
0000
0001
0000
0000
0100
0000
0000
0010
0000
0000
1000
0000
0000
0001
0010
0001
,  // measure 45
1000
0000
0000
0100
0000
0000
0010
0000
0000
0001
0000
0000
1000
0000
0000
0010
0000
0000
0100
0000
0000
0001
1000
0001
,  // measure 46
0010
0100
1000
0001
1000
0010
0100
0001
1000
0100
0010
0100
1000
0010
0100
0001
,  // measure 47
0020
0000
0000
0030
0210
0000
0000
0300
2100
0000
3001
1000
0040
0000
0M3M
0000
,  // measure 48
1000
0100
0010
0001
1000
0000
0010
0000
2200
0000
3301
2020
0001
3030
2200
0000
,  // measure 49
3301
0010
0100
1000
0001
0000
0100
0000
0022
0000
1033
0202
1000
0303
0022
0000
,  // measure 50
1033
0001
1000
0100
1000
0000
0001
0000
2200
0000
3301
2020
0001
3030
2200
0000
,  // measure 51
3301
0000
0000
0000
0000
0000
0000
0000
0000
0000
0000
0000
1000
0000
0000
0000
0000
0000
0000
0000
0000
0000
0000
0000
0100
0000
0000
0000
0000
0000
0000
0000
0000
0000
0000
0000
0010
0000
0000
0000
0000
0000
0000
0000
0000
0000
0000
0000
0001
0000
0000
0000
0000
0000
0000
0000
0000
0000
0000
0000
1000
0000
0000
0000
0000
0000
0000
0000
0000
0000
0000
0000
0000
0000
0000
0000
0000
0000
0000
0000
0000
0000
0000
0000
1000
0000
0000
0000
0000
0000
0000
0000
0000
0000
0000
0000
0001
0000
0000
0000
0000
0000
0000
0000
0000
0000
0000
0000
0000
0000
0000
0000
0000
0000
0000
0000
0000
0000
0000
0000
0100
0000
0000
0000
0000
0000
0000
0000
0001
0000
0000
0000
0000
0000
0000
0000
1000
0000
0000
0000
0000
0000
0000
0000
0200
0000
0000
0300
0000
0000
0000
0000
0000
0000
0000
0000
0000
0000
0000
0000
0000
0000
0000
0000
0000
0000
0000
0000
1000
0000
0000
0000
0000
0000
0000
0000
0001
0000
0000
0000
0000
0000
0000
0000
1000
0000
0000
0000
0000
0000
0000
0000
,  // measure 52
0001
0010
0100
0010
0000
0001
0100
0010
0000
1000
0100
0010
0001
1000
0010
0100
,  // measure 53
0000
0001
0100
0010
1000
0001
0010
0100
0000
1000
0010
1000
0001
0010
0100
1000
,  // measure 54
0010
0000
0010
0000
1000
0100
0010
0001
1000
0000
0010
0100
0001
0000
0010
0001
,  // measure 55
0200
0000
0000
0300
0120
0000
0000
0030
2010
0000
3001
1000
0100
0000
0100
0000
,  // measure 56
1000
0000
0001
0000
1000
0000
0001
0000
0010
0000
0100
0000
1000
0000
0001
0000
0100
0000
0010
1000
0010
0000
1000
0000
0002
0000
0000
0000
1003
0000
0100
0000
,  // measure 57
0010
0000
0000
0000
0000
0000
0000
0000
0000
0000
0000
0000
0100
0000
0000
0000
0000
0000
0000
0000
0000
0000
0000
0000
1000
0000
0000
0000
0000
0000
0000
0000
0000
0000
0000
0000
0010
0000
0000
0000
0000
0000
0000
0000
0000
0000
0000
0000
0100
0000
0000
0000
0000
0000
0000
0000
0000
0000
0000
0000
0001
0000
0000
0000
0000
0000
0000
0000
0000
0000
0000
0000
1000
0000
0000
0000
0000
0000
0000
0000
0000
0000
0000
0000
0100
0000
0000
0000
0000
0000
0000
0000
0000
0000
0000
0000
0010
0000
0000
0000
0000
0000
0000
0000
0000
0000
0000
0000
0000
0000
0000
0000
0000
0000
0000
0000
0000
0000
0000
0000
0000
0000
0000
0000
0000
0000
0000
0001
0000
0000
0000
0000
0000
0000
0000
0000
0000
0000
0000
0000
0000
0000
0000
0000
0202
0000
0000
0000
0000
0000
0000
0000
0000
0000
0000
0000
0000
0000
0000
0000
0000
0000
0000
0000
0000
0000
0000
0000
0000
0000
0000
0000
0000
0000
0000
0000
0000
0000
0000
0000
0303
0000
0000
0000
0000
0000
0000
0000
0000
0000
0000
0000
,  // measure 58
2010
0000
3001
0100
1004
0000
0000
0000
,  // measure 59
0000
0000
0M03
0000
1001
0000
0001
0100
0010
0000
0000
1010
0000
0000
1001
0000
,  // measure 60
0001
0000
0010
0000
0001
0000
0010
0000
0100
0000
0010
0000
0001
0000
1000
0000
0010
0000
0100
0001
0100
0000
0010
0000
1000
0000
0100
0000
0010
0000
0100
0000
,  // measure 61
1000
0000
0000
0000
0000
0000
0000
0000
0000
0000
0000
0000
0001
0000
0000
0000
0000
0000
0000
0000
0000
0000
0000
0000
0100
0000
0000
0000
0000
0000
0000
0000
0000
0000
0000
0000
0010
0000
0000
0000
0000
0000
0000
0000
0000
0000
0000
0000
1000
0000
0000
0000
0000
0000
0000
0000
0000
0000
0000
0000
0001
0000
0000
0000
0000
0000
0000
0000
0000
0000
0000
0000
1000
0000
0000
0000
0000
0000
0000
0000
0000
0000
0000
0000
0100
0000
0000
0000
0000
0000
0000
0000
0000
0000
0000
0000
0010
0000
0000
0000
0000
0000
0000
0000
0000
0000
0000
0000
0000
0000
0000
0000
0000
0000
0000
0000
0000
0000
0000
0000
0000
0000
0000
0000
0000
0000
0000
0001
0000
0000
0000
0000
0000
0000
0000
0000
0000
0000
0000
0000
0000
0000
0000
0000
2001
0000
0000
0000
0000
0000
0000
0000
0000
0000
0000
0000
0000
0000
0000
0000
0000
0000
0000
0000
0000
0000
0000
0000
0000
0000
0000
0000
0000
0000
0000
0000
0000
0000
0000
0000
0000
0000
0000
0000
0000
0000
0000
0000
0000
0000
0000
0000
,  // measure 62
3002
1003
0010
0100
0010
1000
0200
0310
0001
1000
0100
1000
0020
0130
0001
0100
,  // measure 63
0010
1000
0200
0310
0001
1000
0001
0100
0020
0000
0000
0000
2030
0000
0000
0000
,  // measure 64
3MMM
0000
0000
0000
0000
0000
0000
0000
0001
0000
0010
0000
0001
0000
1000
0000
0010
0000
0100
0001
0100
0000
0001
0000
2000
0000
0000
0000
3001
0000
0010
0000
,  // measure 65
0100
0000
0000
0000
0000
0000
0000
0000
0000
0000
0000
0000
0010
0000
0000
0000
0000
0000
0000
0000
0000
0000
0000
0000
0001
0000
0000
0000
0000
0000
0000
0000
0000
0000
0000
0000
0100
0000
0000
0000
0000
0000
0000
0000
0000
0000
0000
0000
0010
0000
0000
0000
0000
0000
0000
0000
0000
0000
0000
0000
1000
0000
0000
0000
0000
0000
0000
0000
0000
0000
0000
0000
0001
0000
0000
0000
0000
0000
0000
0000
0000
0000
0000
0000
0010
0000
0000
0000
0000
0000
0000
0000
0000
0000
0000
0000
0100
0000
0000
0000
0000
0000
0000
0000
0000
0000
0000
0000
0000
0000
0000
0000
0000
0000
0000
0000
0000
0000
0000
0000
0000
0000
0000
0000
0000
0000
0000
1000
0000
0000
0000
0000
0000
0000
0000
0000
0000
0000
0000
0000
0000
0000
0000
0000
2020
0000
0000
0000
0000
0000
0000
0000
0000
0000
0000
0000
0000
0000
0000
0000
0000
0000
0000
0000
0000
0000
0000
0000
0000
0000
0000
0000
0000
0000
0000
0000
0000
0000
0000
0000
3030
0000
0000
0000
0000
0000
0000
0000
0000
0000
0000
0000
,  // measure 66
0102
0000
1003
0010
4001
0000
0000
0000
,  // measure 67
0000
0000
30M0
0000
1001
0000
1000
0010
0100
0000
0000
0101
0000
0000
1001
0000
,  // measure 68
1000
0000
0100
0000
1000
0000
0100
0000
0010
0000
0100
0000
1000
0000
0001
0000
0100
0000
0010
1000
0010
0000
0100
0000
0001
0000
0010
0000
0100
0000
0010
0000
,  // measure 69
0001
0000
0000
0000
0000
0000
0000
0000
0000
0000
0000
0000
1000
0000
0000
0000
0000
0000
0000
0000
0000
0000
0000
0000
0010
0000
0000
0000
0000
0000
0000
0000
0000
0000
0000
0000
0100
0000
0000
0000
0000
0000
0000
0000
0000
0000
0000
0000
0001
0000
0000
0000
0000
0000
0000
0000
0000
0000
0000
0000
1000
0000
0000
0000
0000
0000
0000
0000
0000
0000
0000
0000
0001
0000
0000
0000
0000
0000
0000
0000
0000
0000
0000
0000
0010
0000
0000
0000
0000
0000
0000
0000
0000
0000
0000
0000
0100
0000
0000
0000
0000
0000
0000
0000
0000
0000
0000
0000
0000
0000
0000
0000
0000
0000
0000
0000
0000
0000
0000
0000
0000
0000
0000
0000
0000
0000
0000
1000
0000
0000
0000
0000
0000
0000
0000
0000
0000
0000
0000
0000
0000
0000
0000
0000
1002
0000
0000
0000
0000
0000
0000
0000
0000
0000
0000
0000
0000
0000
0000
0000
0000
0000
0000
0000
0000
0000
0000
0000
0000
0000
0000
0000
0000
0000
0000
0000
0000
0000
0000
0000
0000
0000
0000
0000
0000
0000
0000
0000
0000
0000
0000
0000
,  // measure 70
2003
3001
0100
0010
0100
0001
0020
0130
1000
0001
0010
0001
0200
0310
1000
0001
,  // measure 71
0100
0001
0020
0130
1000
0001
0100
0001
0020
0000
0000
0000
0230
0000
0000
0000
,  // measure 72
0300
0000
0000
0000
;

//---------------dance-single - Feraligatr----------------
#NOTEDATA:;
#CHARTNAME:Feraligatr SH;
#STEPSTYPE:dance-single;
#DESCRIPTION:Feraligatr;
#CHARTSTYLE:;
#DIFFICULTY:Hard;
#METER:10;
#RADARVALUES:0.689400,0.833385,0.480799,0.756814,0.538673,542.000000,488.000000,54.000000,85.000000,8.000000,12.000000,9.000000,0.000000,0.000000,0.689400,0.833385,0.480799,0.756814,0.538673,542.000000,488.000000,54.000000,85.000000,8.000000,12.000000,9.000000,0.000000,0.000000;
#CREDIT:Feraligatr;
#DISPLAYBPM:154.000000;
#NOTES:
0000
0000
0000
0000
,
0000
0000
0000
0000
,
0000
0000
0000
0000
,
0000
0000
0000
0000
,
0000
0000
0000
0000
,
0000
0000
0000
0000
,
0000
0000
0000
0000
,
0000
0000
0000
0000
,
1000
0000
0010
0000
1000
0000
0001
0000
0010
0000
0100
0000
1000
0000
0001
0100
,
0010
0000
1000
0000
0001
0000
0010
0000
0100
0000
1000
0000
0001
0000
0100
0010
,
1000
0000
0001
0000
1000
0000
0100
0000
1000
0000
0001
0000
0100
0000
0010
0100
,
0001
0000
1000
0000
0100
0000
0010
0000
0001
0000
1000
0000
0010
0000
0100
0001
,
1000
0000
0100
0000
0010
0000
0001
0000
1000
0000
0010
0000
0100
0000
0001
1000
,
0100
0000
0010
0000
0001
0000
1000
0000
0010
0000
1000
0000
0001
0000
0010
0001
,
1000
0010
1000
0010
0100
0001
0100
0001
1000
0100
1000
0100
0010
0001
1000
0001
,
0200
0000
0320
0000
2030
0000
3001
0001
,
1000
0100
1000
0100
0010
0001
1000
0001
0400
0000
0000
0000
0320
0000
0000
0000
,
1030
0001
0100
0001
1000
0100
0010
0001
1000
0000
0000
0000
1200
0000
0000
0300
,
0120
0000
0031
1000
2020
0000
0000
0000
,
0000
0000
3M30
0000
1001
0000
0000
0000
0011
0000
0000
0110
0000
0000
1100
0000
,
1000
0001
1000
0001
0100
0010
1000
0001
0040
0000
0000
0000
0230
0000
0000
0000
,
1300
0001
0100
0001
1000
0100
0010
0001
1000
0000
0000
0000
2020
0000
0000
3030
,
2002
0000
0000
0000
0000
3003
0202
0000
1000
0000
0000
0303
2002
0000
0100
0000
,
0000
3003
2200
0000
0001
0000
0000
3300
0220
0000
0000
0330
0220
0000
0000
0330
,
0MM0
0000
0000
0000
0001
1000
0100
1000
0004
0000
0000
0000
0203
0000
0000
0000
,
0310
1000
0001
1000
0100
0010
0100
1000
0001
0000
0000
0000
0201
0000
0000
0300
,
0120
0000
1030
0001
0021
0000
0000
0000
,
0000
0000
0M30
0000
1001
0000
0000
0000
1010
0000
0000
0110
0000
0000
0101
0000
,
0001
1000
0001
1000
0100
0010
0100
1000
0004
0000
0000
0000
0203
0000
0000
0000
,
0310
1000
0001
1000
0100
0010
0100
1000
0001
0000
0000
0000
0202
0000
0000
0303
,
0220
0000
0330
2020
0001
3030
2002
0010
,
3003
0000
0022
0000
1000
0000
0033
0000
0220
0000
0000
0330
2000
0000
0000
0000
,
3001
0000
1000
0010
0000
0100
0000
0001
,
1000
0100
0000
0010
0000
0100
1000
0001
,
0100
0000
0010
1000
0000
0001
0000
0010
,
0100
0000
0000
1000
0000
0000
0001
0000
0000
0000
0100
0000
0000
0000
0010
0000
,
1000
0000
0001
0001
0000
1000
1000
0000
,
0000
0100
0100
0000
0010
0100
1000
0001
,
0100
0000
0010
0010
0000
1000
1000
0000
,
0000
0001
1000
0100
0001
0100
1000
0010
,
0100
0000
0001
0000
1000
0000
0100
0000
1000
0000
0001
0000
0100
0000
0010
1000
,
0001
0000
1000
0000
0100
0000
0010
0000
0001
0000
1000
0000
0100
0000
0010
0001
,
1000
0000
0010
0000
0100
0000
0010
0000
1000
0000
0001
0000
0010
0000
0100
1000
,
0001
0000
0100
0000
0010
0000
0100
0000
0001
0000
1000
0000
0100
0000
0010
0001
,
1000
0000
0010
0000
0100
0000
0001
0000
1000
0000
0001
0000
0010
0000
0100
1000
,
0001
0000
0100
0000
0010
0000
1000
0000
0001
0000
0010
0000
0001
0000
1000
0010
,
0100
0001
0100
0001
1000
0100
1000
0100
0010
0001
0010
0001
1000
0010
0100
0010
,
2000
0000
3200
0000
0320
0000
0034
0003
,
1000
0010
0100
0001
1000
0000
0001
0000
0100
0000
0000
1000
0000
0000
0100
0000
,
0001
0010
0100
1000
0001
0000
1000
0000
0100
0000
0000
0001
0000
0000
0100
0000
,
1000
0010
1000
0001
1000
0000
0001
0000
0010
0000
0000
1000
0000
0000
0010
0000
,
0001
0100
0010
1000
0001
0000
1000
0000
0010
0000
0100
0001
0010
0000
0001
1000
,
0001
0010
0100
1000
0000
1000
0010
0100
0000
0000
0001
0100
0010
1000
0001
0010
,
0000
0001
0100
0010
0000
1000
0100
0010
0000
0000
0001
0010
0001
0100
0010
1000
,
0100
0000
0100
0000
0100
0000
0000
0000
0010
0000
0000
0001
0000
0000
1000
0000
,
0020
0000
0230
0000
0302
0000
1003
1000
,
0001
0010
0001
0010
0100
1000
0001
1000
0040
0000
0000
0000
0230
0000
0000
0000
,
0301
1000
0010
1000
0001
0010
0100
1000
0001
0000
0000
0000
0021
0000
0000
0030
,
0210
0000
1300
0001
0202
0000
0000
0000
,
0000
0000
03M3
0000
1001
0000
0000
0000
1100
0000
0000
0110
0000
0000
0011
0000
,
0001
1000
0001
1000
0010
0100
0001
1000
0400
0000
0000
0000
0320
0000
0000
0000
,
0031
1000
0010
1000
0001
0010
0100
1000
0001
0000
0000
0000
0202
0000
0000
0303
,
2002
0000
0000
0000
0000
3003
2020
0000
0001
0000
0000
3030
2002
0000
0010
0000
,
0000
3003
0022
0000
1000
0000
0000
0033
0220
0000
0000
0330
0220
0000
0000
0330
,
0MM0
0000
0000
0000
1000
0001
0010
0001
4000
0000
0000
0000
3020
0000
0000
0000
,
0130
0001
1000
0001
0010
0100
0010
0001
1000
0000
0000
0000
1020
0000
0000
0030
,
0210
0000
0301
1000
1200
0000
0000
0000
,
0000
0000
03M0
0000
1001
0000
0000
0000
0101
0000
0000
0110
0000
0000
1010
0000
,
1000
0001
1000
0001
0010
0100
0010
0001
4000
0000
0000
0000
3020
0000
0000
0000
,
0130
0001
1000
0001
0010
0100
0010
0001
1000
0000
0000
0000
2020
0000
0000
3030
,
0220
0000
0330
0202
1000
0303
2002
0100
,
3003
0000
2200
0000
0001
0000
3300
0000
0220
0000
0000
0330
0002
0000
0000
0000
,
0003
0000
0000
0000
;

//---------------dance-single - Feraligatr----------------
#NOTEDATA:;
#CHARTNAME:Feraligatr SM;
#STEPSTYPE:dance-single;
#DESCRIPTION:Feraligatr;
#CHARTSTYLE:;
#DIFFICULTY:Medium;
#METER:7;
#RADARVALUES:0.527862,0.576959,0.623258,0.739006,0.151363,415.000000,345.000000,70.000000,83.000000,8.000000,0.000000,13.000000,0.000000,0.000000,0.527862,0.576959,0.623258,0.739006,0.151363,415.000000,345.000000,70.000000,83.000000,8.000000,0.000000,13.000000,0.000000,0.000000;
#CREDIT:Feraligatr;
#DISPLAYBPM:154.000000;
#NOTES:
0000
0000
0000
0000
,
0000
0000
0000
0000
,
0000
0000
0000
0000
,
0000
0000
0000
0000
,
0000
0000
0000
0000
,
0000
0000
0000
0000
,
0000
0000
0000
0000
,
0000
0000
0000
0000
,
1000
0100
1000
0001
0100
0010
0100
0001
,
1000
0100
0010
0001
1000
0001
0100
0010
,
1000
0001
0010
0100
0010
0001
1000
0010
,
0100
0001
1000
0100
1000
0001
0100
0010
,
1000
0001
0010
0100
1000
0001
0100
0001
,
1000
0100
0010
0001
1000
0010
0100
0001
,
4000
3400
0340
0034
,
0203
0000
0320
0000
2030
0000
3001
0001
,
1000
0100
1000
0100
0020
0000
0000
0000
0034
0000
0000
0000
2003
0000
0000
3000
,
1010
0000
0000
1001
0000
0000
0101
0000
1000
0000
0000
0000
2200
0000
0000
3300
,
1002
0000
0103
0010
2002
0000
0000
0000
,
0000
0000
30M3
0000
1100
0000
0000
0000
0110
0000
0000
0001
0000
0000
1000
0000
,
0001
0100
0001
0100
0020
0000
0000
0000
4030
0000
0000
0000
3200
0000
0000
0300
,
0110
0000
0000
0011
0000
0000
1001
0000
1000
0000
0000
0000
2020
0000
0000
3030
,
1002
0000
0000
0000
0000
0003
2001
0000
0100
0000
0000
3000
1200
0000
0010
0000
,
0000
0300
0120
0000
0001
0000
0000
0030
2002
0000
0000
3003
2002
0000
0000
3003
,
M00M
0000
0000
0000
0002
0000
0000
0000
4003
0000
0000
0000
3020
0000
0000
0030
,
0110
0000
0000
0101
0000
0000
1001
0000
0001
0000
0000
0000
0022
0000
0000
0033
,
2001
0000
3010
0100
2002
0000
0000
0000
,
0000
0000
3M03
0000
0011
0000
0000
0000
0110
0000
0000
1000
0000
0000
0001
0000
,
1000
0010
1000
0010
0200
0000
0000
0000
0304
0000
0000
0000
0023
0000
0000
0030
,
0110
0000
0000
1100
0000
0000
1001
0000
0001
0000
0000
0000
0202
0000
0000
0303
,
2001
0000
3000
1002
0010
0003
0021
0100
,
0030
0000
0210
0000
1000
0000
0300
0000
2002
0000
0000
3003
0002
0000
0000
0000
,
0103
0000
0010
1000
0000
0001
0000
0010
,
0100
1000
0000
0001
0000
0100
0010
1000
,
0001
0000
0010
0100
0000
1000
0000
0001
,
0100
0000
0000
0010
0000
0000
1000
0000
0000
0000
0001
0000
0000
0000
0010
0000
,
0100
0000
1000
0001
0000
1000
0010
0000
,
0000
0100
0001
0000
1000
0100
0010
0001
,
1000
0000
0010
0100
0000
0010
1000
0000
,
0000
0001
0100
0001
0010
0001
0100
0010
,
1000
0000
0100
0010
0000
0001
0000
1000
,
0010
0100
0000
0001
0000
1000
0100
0010
,
0001
0000
0100
0010
0000
1000
0000
0001
,
0010
0000
0000
0100
0000
0000
1000
0000
0000
0000
0001
0000
0000
0000
0100
0000
,
1000
0000
0100
0010
0000
1000
0000
0100
,
0000
0000
0001
0100
0000
1000
0001
0100
,
0010
0000
0000
1000
0000
0000
0100
0000
0000
0000
0010
0000
0001
0000
0100
0000
,
0020
0000
2030
0000
3200
0000
0340
0030
,
0001
0000
0000
0000
0100
0000
0000
0000
0010
0000
0000
1000
0000
0000
0100
0000
,
0010
0000
0000
0000
0001
0000
0000
0000
1000
0000
0010
0100
0000
0000
0001
0000
,
1000
0000
1000
0000
1000
0000
0000
0000
0100
0000
0000
0010
0000
0000
0001
0000
,
0100
0000
0000
0000
0010
0000
0000
0000
1000
0000
0000
0000
0100
0000
1000
0001
,
1000
0000
0000
0000
0010
0000
0100
0000
0001
0000
0000
1000
0000
0000
0100
0000
,
0010
0000
0000
0000
0001
0000
1000
0000
0010
0000
0000
0100
0000
0000
0001
0000
,
1000
0000
1000
0000
1000
0000
0100
0000
0010
0000
0000
0001
0000
0000
0100
0000
,
0020
0000
2030
0000
3200
0000
0310
0010
,
0001
0100
0001
0100
0020
0000
0000
0000
4030
0000
0000
0000
3002
0000
0000
0003
,
0011
0000
0000
1001
0000
0000
1100
0000
0001
0000
0000
0000
0202
0000
0000
0303
,
2001
0000
3100
0010
2002
0000
0000
0000
,
0000
0000
30M3
0000
0101
0000
0000
0000
0110
0000
0000
1000
0000
0000
0001
0000
,
1000
0100
1000
0100
0020
0000
0000
0000
0034
0000
0000
0000
0203
0000
0000
0300
,
0110
0000
0000
1010
0000
0000
1001
0000
0001
0000
0000
0000
0022
0000
0000
0033
,
2001
0000
0000
0000
0000
3000
1002
0000
0100
0000
0000
0003
0201
0000
0010
0000
,
0000
0300
0120
0000
1000
0000
0000
0030
2002
0000
0000
3003
2002
0000
0000
3003
,
M00M
0000
0000
0000
2000
0000
0000
0000
3004
0000
0000
0000
0023
0000
0000
0030
,
0110
0000
0000
1100
0000
0000
1001
0000
1000
0000
0000
0000
2020
0000
0000
3030
,
1002
0000
0013
0100
2002
0000
0000
0000
,
0000
0000
3M03
0000
1010
0000
0000
0000
0110
0000
0000
0001
0000
0000
1000
0000
,
0001
0010
0001
0010
0200
0000
0000
0000
4300
0000
0000
0000
3020
0000
0000
0030
,
0110
0000
0000
0101
0000
0000
1001
0000
1000
0000
0000
0000
2200
0000
0000
3300
,
1002
0000
0003
2001
0010
3000
1020
0100
,
0030
0000
0210
0000
0001
0000
0300
0000
2002
0000
0000
3003
0200
0000
0000
0000
,
0300
0000
0000
0000
;

//---------------dance-single - Feraligatr----------------
#NOTEDATA:;
#CHARTNAME:Feraligatr SE;
#STEPSTYPE:dance-single;
#DESCRIPTION:Feraligatr;
#CHARTSTYLE:;
#DIFFICULTY:Easy;
#METER:4;
#RADARVALUES:0.306541,0.416693,0.106844,0.400666,0.026711,241.000000,229.000000,12.000000,45.000000,0.000000,0.000000,0.000000,0.000000,0.000000,0.306541,0.416693,0.106844,0.400666,0.026711,241.000000,229.000000,12.000000,45.000000,0.000000,0.000000,0.000000,0.000000,0.000000;
#CREDIT:Feraligatr;
#DISPLAYBPM:154.000000;
#NOTES:
0000
0000
0000
0000
,
0000
0000
0000
0000
,
0000
0000
0000
0000
,
0000
0000
0000
0000
,
0000
0000
0000
0000
,
0000
0000
0000
0000
,
0000
0000
0000
0000
,
0000
0000
0000
0000
,
1000
0100
0010
0100
,
1000
0001
0100
0010
,
1000
0001
0010
0001
,
1000
0010
0100
0001
,
1000
0100
1000
0001
,
0100
0010
1000
0001
,
0010
0010
0100
0100
1000
1000
0001
0001
,
0200
0320
2030
3000
,
0100
1001
0001
0100
,
0010
1000
0001
0020
,
0130
0000
2002
0000
,
0000
3003
1000
0000
0010
0000
0100
0000
,
0001
1001
1000
0100
,
0010
0100
1000
0001
,
0200
0000
0000
0320
0000
0000
2030
0000
,
0000
3002
0000
0000
0023
0000
0230
0000
,
0300
1100
1000
0001
,
0100
0010
0100
0002
,
1003
0000
0220
0000
,
0000
0330
0001
0000
1000
0000
0100
0000
,
0010
0011
0001
1000
,
0010
0100
0001
1000
,
0200
0000
0300
0020
0000
0030
0002
0000
,
0003
2000
0000
3000
0020
0000
0230
0000
,
0301
0000
1000
0000
,
0100
0000
0010
0000
,
0100
0000
1000
0000
,
0001
0000
0100
0000
,
0010
0000
1000
0000
,
0001
0000
0100
0000
,
0010
0000
1000
0000
,
0001
0000
0010
0000
,
0100
1000
0001
0100
,
0010
0100
0001
1000
,
0100
0010
0001
1000
,
0010
0100
0001
1000
,
0100
1000
0001
0100
,
0010
1000
0001
0010
,
0100
0100
1000
1000
0001
0001
0100
0100
,
0020
2030
3200
0300
,
0010
0000
0000
0000
0001
0000
0000
0000
1000
0000
0000
1000
0000
0000
1000
0000
,
0010
0000
0000
0000
0100
0000
0000
0000
0001
0000
0000
0001
0000
0000
0001
0000
,
0010
0000
0000
0000
0100
0000
0000
0000
1000
0000
0000
1000
0000
0000
1000
0000
,
0001
0100
0010
1000
,
0001
0000
0000
0000
0010
0000
0000
0000
0100
0000
0000
0100
0000
0000
0100
0000
,
1000
0000
0000
0000
0001
0000
0000
0000
0100
0000
0000
0100
0000
0000
0100
0000
,
0010
0000
0000
0000
1000
0000
0000
0000
0001
0000
0000
0001
0000
0000
0001
0000
,
0020
0230
2300
3000
,
0010
1001
1000
0010
,
0100
0001
1000
0200
,
0310
0000
2002
0000
,
0000
3003
0001
0000
0100
0000
0010
0000
,
1000
1001
0001
0010
,
0100
0010
0001
1000
,
0020
0000
0000
0230
0000
0000
0302
0000
,
0000
2003
0000
0000
3200
0000
0320
0000
,
0030
0011
0001
1000
,
0010
0100
0010
2000
,
3001
0000
0220
0000
,
0000
0330
1000
0000
0001
0000
0010
0000
,
0100
1100
1000
0001
,
0100
0010
1000
0001
,
0020
0000
0030
0200
0000
0300
2000
0000
,
3000
0002
0000
0003
0200
0000
0320
0000
,
0030
0000
0000
0000
;

//---------------dance-single - Feraligatr----------------
#NOTEDATA:;
#CHARTNAME:Feraligatr SN;
#STEPSTYPE:dance-single;
#DESCRIPTION:Feraligatr;
#CHARTSTYLE:;
#DIFFICULTY:Beginner;
#METER:1;
#RADARVALUES:0.145003,0.287478,0.133555,0.186977,0.000000,114.000000,99.000000,15.000000,21.000000,0.000000,0.000000,0.000000,0.000000,0.000000,0.145003,0.287478,0.133555,0.186977,0.000000,114.000000,99.000000,15.000000,21.000000,0.000000,0.000000,0.000000,0.000000,0.000000;
#CREDIT:Feraligatr;
#DISPLAYBPM:154.000000;
#NOTES:
0000
0000
0000
0000
,
0000
0000
0000
0000
,
0000
0000
0000
0000
,
0000
0000
0000
0000
,
0000
0000
0000
0000
,
0000
0000
0000
0000
,
0000
0000
0000
0000
,
0000
0000
0000
0000
,
1000
0000
0100
0000
,
0010
0000
0100
0000
,
1000
0000
0001
0000
,
0100
0000
0010
0000
,
1000
0000
0001
0000
,
0010
0000
0100
0000
,
1000
1000
0001
0001
,
0200
0320
2030
3000
,
0000
1001
0000
0000
,
1000
0000
0000
0000
,
0010
0000
0200
0000
,
0000
0300
0000
0000
0000
0000
0000
0000
,
0000
1001
0000
0000
,
1000
0000
0000
0000
,
0200
0000
0000
0300
0000
0000
2000
0000
,
0000
3000
0000
0000
0001
0000
0001
0000
,
0000
1001
0000
0000
,
1000
0000
0000
0000
,
0010
0000
0200
0000
,
0000
0300
0000
0000
0000
0000
0000
0000
,
0000
1001
0000
0000
,
1000
0000
0000
0000
,
0002
0003
0000
2000
,
3000
0000
0100
0100
,
0010
0000
0000
0000
,
0001
0000
0000
0000
,
1000
0000
0000
0000
,
0010
0000
0000
0000
,
0100
0000
0000
0000
,
0001
0000
0000
0000
,
1000
0000
0000
0000
,
0100
0000
0000
0000
,
0010
0000
0010
0000
,
0001
0000
0001
0000
,
1000
0000
1000
0000
,
0010
0000
0010
0000
,
0100
0000
0100
0000
,
0001
0000
0001
0000
,
1000
1000
0001
0001
,
0020
0230
2300
3000
,
1001
0000
0000
0000
,
0110
0000
0000
0000
,
1001
0000
0000
0000
,
0110
0000
0000
0000
,
1001
0000
1000
0000
,
0110
0000
0010
0000
,
1001
0000
0001
0000
,
2000
3020
0230
0300
,
0000
1001
0000
0000
,
0001
0000
0000
0000
,
0100
0000
0020
0000
,
0000
0030
0000
0000
0000
0000
0000
0000
,
0000
1001
0000
0000
,
0001
0000
0000
0000
,
0020
0000
0000
0030
0000
0000
0002
0000
,
0000
0003
0000
0000
1000
0000
1000
0000
,
0000
1001
0000
0000
,
0001
0000
0000
0000
,
0100
0000
0020
0000
,
0000
0030
0000
0000
0000
0000
0000
0000
,
0000
1001
0000
0000
,
0001
0000
0000
0000
,
2000
3000
0000
0002
,
0003
0000
0010
0010
;
