#VERSION:0.83;
#TITLE:Welcome To The Cyphisonia;
#SUBTITLE:;
#ARTIST:かめりあ;
#TITLETRANSLIT:;
#SUBTITLETRANSLIT:;
#ARTISTTRANSLIT:Camellia;
#GENRE:;
#ORIGIN:;
#CREDIT:T. Li;
#BANNER:Welcome To The Cyphisonia-bn.png;
#BACKGROUND:Welcome To The Cyphisonia-bg-wide.png;
#PREVIEWVID:;
#JACKET:Welcome To The Cyphisonia-jacket.png;
#CDIMAGE:;
#DISCIMAGE:;
#LYRICSPATH:;
#CDTITLE:loodeecdtitle.png;
#MUSIC:Welcome To The Cyphisonia.ogg;
#OFFSET:0.013000;
#SAMPLESTART:37.497002;
#SAMPLELENGTH:16.580000;
#SELECTABLE:YES;
#BPMS:0.000=128.000;
#STOPS:;
#DELAYS:;
#WARPS:;
#TIMESIGNATURES:0.000=4=4;
#TICKCOUNTS:0.000=4;
#COMBOS:0.000=1;
#SPEEDS:0.000=1.000=0.000=0;
#SCROLLS:0.000=1.000;
#FAKES:;
#LABELS:0.000=Song Start;
#BGCHANGES:;
#KEYSOUNDS:;
#ATTACKS:
;

//---------------dance-single - Loodee----------------
#NOTEDATA:;
#CHARTNAME:Loodee;
#STEPSTYPE:dance-single;
#DESCRIPTION:Loodee;
#CHARTSTYLE:;
#DIFFICULTY:Challenge;
#METER:12;
#RADARVALUES:0.687877,0.855613,0.311132,0.859317,1.003771,650.000000,607.000000,42.000000,116.000000,12.000000,2.000000,4.000000,0.000000,0.000000,0.687877,0.855613,0.311132,0.859317,1.003771,650.000000,607.000000,42.000000,116.000000,12.000000,2.000000,4.000000,0.000000,0.000000;
#CREDIT:Loodee;
#NOTES:
// measure 0
0000
0000
0000
0000
,  // measure 1
0000
0000
0000
0000
,  // measure 2
0000
0000
0000
0000
,  // measure 3
0000
0000
0000
0000
,  // measure 4
0000
0000
0000
0000
,  // measure 5
0000
0000
0000
0000
,  // measure 6
0000
0000
0000
0000
,  // measure 7
0001
0000
0000
0000
0001
0000
0000
0000
1000
0000
0000
0000
0010
0000
0100
0001
0100
0000
0001
0000
1000
0000
0100
0000
1000
0000
0001
0000
0010
0000
0100
0000
,  // measure 8
2200
0000
0000
3300
0000
0000
0000
0000
0000
0000
0000
0000
0000
0000
0000
0000
,  // measure 9
0000
0000
0000
0000
,  // measure 10
2002
0000
0000
3003
0000
0000
0000
0000
0000
0000
0000
0000
0000
0000
0000
0000
,  // measure 11
0202
0000
0000
0303
0000
0000
0000
0022
0000
0000
0033
0000
0000
0220
0000
0330
,  // measure 12
2001
0001
3001
0100
0001
1000
0100
0010
,  // measure 13
0001
1000
0010
1000
0001
0100
0001
0010
,  // measure 14
0100
0000
1000
0000
0010
0000
1000
0000
0001
0000
0010
0000
0100
0000
1000
0000
0010
0000
0100
0000
0001
0000
0100
0000
0010
0000
1000
0000
0100
0010
0100
0010
,  // measure 15
0002
0000
0000
0000
0000
0000
0000
0000
0000
0000
0000
0000
0103
0100
0001
0000
,  // measure 16
0022
0000
0000
0000
0000
0000
0000
0000
0000
0000
0000
0000
0000
0000
0000
0000
0000
0000
0000
0000
0000
0000
0000
0000
0000
0000
0000
0000
0000
0000
0000
0000
0033
0000
0000
0000
0000
0000
0000
0000
0000
0000
0000
0000
0000
0000
0000
0000
0001
0000
0000
0000
0000
0000
0000
0000
0000
0000
0000
0000
0100
0000
0000
0000
0000
0000
0000
0000
0000
0000
0000
0000
0001
0000
0000
0000
0000
0000
0000
0000
0000
0000
0000
0000
2200
0000
0000
0000
0000
0000
3300
0000
0000
0000
0000
0000
0000
0000
0000
0000
0000
0000
0000
0000
0000
0000
0000
0000
0001
0000
0000
0000
0000
0000
1000
0000
0000
0000
0000
0000
0001
0000
0000
0000
0000
0000
0000
0000
0000
0000
0000
0000
0010
0000
0000
0000
0000
0000
0000
0000
0000
0000
0000
0000
0100
0000
0000
0000
0000
0000
0000
0000
0000
0000
0000
0000
0010
0000
0000
0000
0000
0000
0000
0000
0000
0000
0000
0000
0001
0000
0000
0000
0000
0000
0000
0000
0000
0000
0000
0000
1000
0000
0000
0000
0000
0000
0000
0000
0000
0000
0000
0000
,  // measure 17
0020
0000
0000
0000
0000
0000
0000
0000
0130
0001
0100
0000
0010
0000
1000
0000
0100
0000
0010
0000
0200
0000
0000
0000
1300
0000
0020
0000
0000
0000
0030
0000
,  // measure 18
0202
0000
0000
0000
0000
0000
0000
0000
0000
0000
0000
0000
0000
0000
0000
0000
0000
0000
0000
0000
0000
0000
0000
0000
0000
0000
0000
0000
0000
0000
0000
0000
0303
0000
0000
0000
0000
0000
0000
0000
0000
0000
0000
0000
0000
0000
0000
0000
1000
0000
0000
0000
0000
0000
0000
0000
0000
0000
0000
0000
0100
0000
0000
0000
0000
0000
0000
0000
0000
0000
0000
0000
0010
0000
0000
0000
0000
0000
0000
0000
0000
0000
0000
0000
0202
0000
0000
0000
0000
0000
0303
0000
0000
0000
0000
0000
0000
0000
0000
0000
0000
0000
0000
0000
0000
0000
0000
0000
1000
0000
0000
0000
0000
0000
0010
0000
0000
0000
0000
0000
1000
0000
0000
0000
0000
0000
0000
0000
0001
0000
0000
0000
0000
0000
0000
0000
0010
0000
0000
0000
0000
0000
0000
0000
0200
0000
0000
0000
0000
0000
0000
0000
0000
0000
0000
0000
0000
0000
0000
0000
0000
0000
0000
0000
0000
0000
0000
0000
0000
0000
0000
0000
0000
0000
0000
0000
0000
0000
0000
0000
0300
0000
0000
0000
0000
0000
0000
0000
0000
0000
0000
0000
,  // measure 19
2002
0000
0000
0000
0000
0000
0000
0000
0000
0000
0000
0000
0000
0000
0000
0000
0000
0000
0000
0000
0000
0000
0000
0000
0000
0000
0000
0000
0000
0000
0000
0000
3003
0000
0000
0000
0000
0000
0000
0000
0000
0000
0000
0000
0000
0000
0000
0000
1000
0000
0000
0000
0000
0000
0000
0000
0000
0000
0000
0000
0010
0000
0000
0000
0000
0000
0000
0000
0000
0000
0000
0000
0100
0000
0000
0000
0000
0000
0000
0000
0000
0000
0000
0000
0022
0000
0000
0000
0000
0000
0033
0000
0000
0000
0000
0000
0000
0000
0000
0000
0000
0000
0000
0000
0000
0000
0000
0000
0000
0000
0000
0000
0000
0000
0000
0000
0000
0000
0000
0000
0001
0000
0000
0000
0000
0000
0000
0000
0000
0000
0000
0000
0000
0000
0000
0000
0000
0000
0000
0000
0000
0000
0000
0000
1000
0000
0000
0000
0000
0000
0000
0000
0000
0000
0000
0000
0200
0000
0000
0000
0000
0000
0000
0000
0000
0000
0000
0000
0000
0000
0000
0000
0000
0000
0000
0000
0000
0000
0000
0000
0300
0000
0000
0000
0000
0000
0000
0000
0000
0000
0000
0000
,  // measure 20
0220
0000
0000
0000
0000
0000
0000
0000
0000
0000
0000
0000
0000
0000
0000
0000
0000
0000
0000
0000
0000
0000
0000
0000
0000
0000
0000
0000
0000
0000
0000
0000
0330
0000
0000
0000
0000
0000
0000
0000
0000
0000
0000
0000
0000
0000
0000
0000
0010
0000
0000
0000
0000
0000
0000
0000
0000
0000
0000
0000
0001
0000
0000
0000
0000
0000
0000
0000
0000
0000
0000
0000
1000
0000
0000
0000
0000
0000
0000
0000
0000
0000
0000
0000
0022
0000
0000
0000
0000
0000
0033
0000
0000
0000
0000
0000
0000
0000
0000
0000
0000
0000
0000
0000
0000
0000
0000
0000
0001
0000
0000
0000
0000
0000
1000
0000
0000
0000
0000
0000
0001
0000
0000
0000
0000
0000
0000
0000
0000
0000
0000
0000
0010
0000
0000
0000
0000
0000
0000
0000
0000
0000
0000
0000
0100
0000
0000
0000
0000
0000
0000
0000
0000
0000
0000
0000
0010
0000
0000
0000
0000
0000
0000
0000
0000
0000
0000
0000
0001
0000
0000
0000
0000
0000
0000
0000
0000
0000
0000
0000
1000
0000
0000
0000
0000
0000
0000
0000
0000
0000
0000
0000
,  // measure 21
0200
0000
0000
0000
0000
0000
0000
0000
0310
0001
0010
0000
0001
0000
1000
0000
0010
0000
0100
0000
0020
0000
0000
0000
1030
0000
0002
0000
0000
0000
0003
0000
,  // measure 22
0022
0000
0000
0000
0000
0000
0000
0000
0000
0000
0000
0000
0000
0000
0000
0000
0000
0000
0000
0000
0000
0000
0000
0000
0000
0000
0000
0000
0000
0000
0000
0000
0033
0000
0000
0000
0000
0000
0000
0000
0000
0000
0000
0000
0000
0000
0000
0000
0001
0000
0000
0000
0000
0000
0000
0000
0000
0000
0000
0000
1000
0000
0000
0000
0000
0000
0000
0000
0000
0000
0000
0000
0010
0000
0000
0000
0000
0000
0000
0000
0000
0000
0000
0000
2200
0000
0000
0000
0000
0000
3300
0000
0000
0000
0000
0000
0000
0000
0000
0000
0000
0000
0000
0000
0000
0000
0000
0000
1000
0000
0000
0000
0000
0000
0001
0000
0000
0000
0000
0000
1000
0000
0000
0000
0000
0000
0000
0000
0010
0000
0000
0000
0000
0000
0000
0000
0100
0000
0000
0000
0000
0000
0000
0000
0020
0000
0000
0000
0000
0000
0000
0000
0000
0000
0000
0000
0000
0000
0000
0000
0000
0000
0000
0000
0000
0000
0000
0000
0000
0000
0000
0000
0000
0000
0000
0000
0000
0000
0000
0000
0030
0000
0000
0000
0000
0000
0000
0000
0000
0000
0000
0000
,  // measure 23
2002
0000
0000
0000
0000
0000
0000
0000
0000
0000
0000
0000
0000
0000
0000
0000
0000
0000
0000
0000
0000
0000
0000
0000
0000
0000
0000
0000
0000
0000
0000
0000
3003
0000
0000
0000
0000
0000
0000
0000
0000
0000
0000
0000
0000
0000
0000
0000
0001
0000
0000
0000
0000
0000
0000
0000
0000
0000
0000
0000
0100
0000
0000
0000
0000
0000
0000
0000
0000
0000
0000
0000
0001
0000
0000
0000
0000
0000
0000
0000
0000
0000
0000
0000
2020
0000
0000
0000
0000
0000
3030
0000
0000
0000
0000
0000
0000
0000
0000
0000
0000
0000
0000
0000
0000
0000
0000
0000
0000
0000
0000
0000
0000
0000
0000
0000
0000
0000
0000
0000
1000
0000
0000
0000
0000
0000
0000
0000
0000
0000
0000
0000
0000
0000
0000
0000
0000
0000
0000
0000
0000
0000
0000
0000
0010
0000
0000
0000
0000
0000
0000
0000
0000
0000
0000
0000
0200
0000
0000
0000
0000
0000
0000
0000
0000
0000
0000
0000
0000
0000
0000
0000
0000
0000
0000
0000
0000
0000
0000
0000
0300
0000
0000
0000
0000
0000
0000
0000
0000
0000
0000
0000
,  // measure 24
2002
0000
0000
0000
0000
0000
0000
0000
3003
0000
0000
0000
0001
0000
0000
0100
0000
0000
0010
0000
0000
1000
0000
0000
0010
0000
0000
0100
0000
0000
1000
0000
0000
0100
0000
0000
0001
0000
0000
1000
0000
0000
0100
0000
0000
1000
0000
0000
,  // measure 25
2002
0000
0000
0000
0000
0000
0000
0000
0000
0000
0000
0000
0000
0000
0000
0000
0000
0000
0000
0000
0000
0000
0000
0000
0000
0000
0000
0000
0000
0000
0000
0000
3003
0000
0000
0000
0000
0000
0000
0000
0000
0000
0000
0000
0000
0000
0000
0000
0001
0000
0000
0000
0000
0000
0000
0000
0000
0000
0000
0000
0100
0000
0000
0000
0000
0000
0000
0000
0000
0000
0000
0000
0001
0000
0000
0000
0000
0000
0000
0000
0000
0000
0000
0000
1000
0000
0000
0000
0000
0000
0000
0000
0000
0000
0000
0000
0001
0000
0000
0000
0000
0000
0000
0000
0000
0000
0000
0000
0010
0000
0000
0000
0000
0000
0000
0000
0000
0000
0000
0000
0100
0000
0000
0000
0000
0000
0000
0000
0000
0000
0000
0000
0010
0000
0000
0000
0000
0000
0100
0000
0000
0000
0000
0000
2000
0000
0000
0000
0000
0000
0000
0000
0000
0000
0000
0000
0000
0000
0000
0000
0000
0000
0000
0000
0000
0000
0000
0000
0000
0000
0000
0000
0000
0000
0000
0000
0000
0000
0000
0000
3000
0000
0000
0000
0000
0000
0000
0000
0000
0000
0000
0000
,  // measure 26
1002
0000
0000
0000
0000
0000
0000
0000
0000
0000
0000
0000
0000
0000
0000
0000
0000
0000
0000
0000
0000
0000
0000
0000
0000
0000
0000
0000
0000
0000
0000
0000
0000
0000
0000
0000
0003
0000
0000
0000
0000
0000
0000
0000
0000
0000
0000
0000
0100
0000
0000
0000
0000
0000
00M0
0000
0000
0000
0000
0000
0100
0000
0000
0000
0000
0000
0000
0000
0000
0000
0000
0000
1000
0000
0000
0000
0000
0000
0000
0000
0000
0000
0000
0000
0100
0000
0000
0000
0000
0000
0000
0000
0000
0000
0000
0000
0010
0000
0000
0000
0000
0000
0000
0000
0000
0000
0000
0000
0001
0000
0000
0000
0000
0000
0000
0000
0000
0000
0000
0000
0100
0000
0000
0000
0000
0000
0000
0000
0001
0000
0000
0000
0000
0000
0000
0000
1000
0000
0000
0000
0000
0000
0000
0000
0200
0000
0000
0000
0000
0000
0000
0000
0000
0000
0000
0000
0000
0000
0000
0000
0000
0000
0000
0000
0000
0000
0000
0000
0310
0000
0000
0000
0000
0000
0000
0000
0000
0000
0000
0000
0001
0000
0000
0000
0000
0000
0000
0000
0000
0000
0000
0000
,  // measure 27
2200
0000
0000
0000
0000
0000
0000
0000
3300
0000
0000
0000
0001
0000
0000
0100
0000
0000
0010
0000
0000
2200
0000
0000
0000
0000
0000
0000
0000
0000
3301
0000
0000
0000
0000
0000
0010
0000
0000
0200
0000
0000
0000
0000
0000
0300
0000
0000
,  // measure 28
0010
0000
0000
0000
0000
0000
0000
0000
0000
0000
0000
0000
0001
0000
0000
0000
0000
0000
0000
0000
0000
0000
0000
0000
0000
0000
0000
0000
0000
0000
0000
0000
0000
0000
0000
0000
0100
0000
0000
0000
0000
0000
0001
0000
0000
0000
0000
0000
0200
0000
0000
0000
0000
0000
0000
0000
0000
0000
0000
0000
0000
0000
0000
0000
0000
0000
0000
0000
0000
0000
0000
0000
0000
0000
0000
0000
0000
0000
0000
0000
0000
0000
0000
0000
0310
0000
0000
0000
0000
0000
0000
0000
0000
0000
0000
0000
1000
0000
0000
0000
0000
0000
0001
0000
0000
0000
0000
0000
0100
0000
0000
0000
0000
0000
0000
0000
00M0
0000
0000
0000
0100
0000
0000
0000
0000
0000
0000
0000
0000
0000
0000
0000
1000
0000
0000
0000
0000
0000
0001
0000
0000
0000
0000
0000
0100
0000
0000
0000
0000
0000
0000
0000
00M0
0000
0000
0000
0100
0000
0000
0000
0000
0000
0000
0000
0000
0000
0000
0000
1000
0000
0000
0000
0000
0000
0001
0000
0000
0000
0000
0000
1000
0000
0000
0000
0000
0000
0000
0000
0000
0000
0000
0000
,  // measure 29
0200
0000
0000
0000
0000
0000
0000
0000
0000
0000
0000
0000
0000
0000
0000
0000
0000
0000
0000
0000
0000
0000
0000
0000
0000
0000
0000
0000
0000
0000
0000
0000
0000
0000
0000
0000
0000
0000
0000
0000
0000
0000
0000
0000
0000
0000
0000
0000
1300
0000
0000
0000
0000
0000
0001
0000
0000
0000
0000
0000
0100
0000
0000
0000
0000
0000
0000
0000
00M0
0000
0000
0000
0100
0000
0000
0000
0000
0000
0000
0000
0000
0000
0000
0000
1000
0000
0000
0000
0000
0000
0001
0000
0000
0000
0000
0000
0100
0000
0000
0000
0000
0000
0000
0000
00M0
0000
0000
0000
0100
0000
0000
0000
0000
0000
0000
0000
0000
0000
0000
0000
1000
0000
0000
0000
0000
0000
0000
0000
0000
0000
0000
0000
0100
0000
0000
0000
0000
0000
0000
0000
0000
0000
0000
0000
0010
0000
0000
0000
0000
0000
0000
0000
0000
0000
0000
0000
0002
0000
0000
0000
0000
0000
0000
0000
0000
0000
0000
0000
0000
0000
0000
0000
0000
0000
0000
0000
0000
0000
0000
0000
0003
0000
0000
0000
0000
0000
0000
0000
0000
0000
0000
0000
,  // measure 30
0202
0000
0000
0000
0000
0000
0000
0000
0000
0000
0000
0000
0000
0000
0000
0000
0000
0000
0000
0000
0000
0000
0000
0000
0000
0000
0000
0000
0000
0000
0000
0000
0303
0000
0000
0000
0000
0000
0000
0000
0000
0000
0000
0000
0000
0000
0000
0000
0001
0000
0000
0000
0000
0000
0000
0000
0000
0000
0000
0000
1000
0000
0000
0000
0000
0000
0000
0000
0000
0000
0000
0000
0001
0000
0000
0000
0000
0000
0000
0000
0000
0000
0000
0000
0010
0000
0000
0000
0000
0000
0100
0000
0000
0000
0000
0000
0010
0000
0000
0000
0000
0000
0000
0000
0000
0000
0000
0000
0001
0000
0000
0000
0000
0000
0000
0000
0000
0000
0000
0000
1000
0000
0000
0000
0000
0000
0000
0000
0010
0000
0000
0000
0000
0000
0000
0000
1000
0000
0000
0000
0000
0000
0000
0000
0001
0000
0000
0000
0000
0000
0000
0000
0010
0000
0000
0000
0000
0000
0000
0000
0100
0000
0000
0000
0000
0000
0000
0000
0010
0000
0000
0000
0000
0000
0000
0000
0001
0000
0000
0000
0000
0000
0000
0000
1000
0000
0000
0000
0000
0000
0000
0000
,  // measure 31
0020
0000
0000
0000
0000
0000
0000
0000
0130
0000
0000
0000
1000
0001
2000
0000
0000
0000
3100
0000
0000
0000
0100
0000
0010
0000
0001
0000
2000
0000
0000
0000
,  // measure 32
3020
0000
0000
0000
0000
0000
0000
0000
0030
0000
0000
0000
1000
0000
0000
0010
0000
0000
0100
0000
0000
0001
0000
0000
0010
0000
0000
0100
0000
0000
0004
0000
0000
0000
0003
0000
2000
0000
0000
0000
0000
0000
3020
0000
0000
0000
0000
0000
,  // measure 33
0230
0000
0000
0000
0000
0000
0000
0000
1300
0001
1000
0000
0010
0000
0100
0001
0100
0000
0010
0000
2000
0000
0000
0000
0000
0000
3200
0000
0000
0000
0300
0000
,  // measure 34
0220
0000
0000
0000
0000
0000
0000
0000
0330
0000
0000
0000
0010
0000
0000
0001
0000
0000
0100
0000
0000
0010
0000
0000
1000
0000
0000
0010
0000
0000
0100
0000
0001
0000
0010
0000
0200
0000
0000
0000
0000
0000
0000
0000
0000
0300
0000
0000
,  // measure 35
1001
0000
0000
0000
1000
0000
0010
0000
1000
0000
0100
0000
0010
0000
0001
0000
2200
3300
0000
0000
1001
0000
0000
0000
0000
0000
0002
0000
0000
0000
0003
0000
,  // measure 36
0021
0000
0100
0000
0130
1000
0001
0100
,  // measure 37
0020
0000
1000
0000
1030
0001
0010
0100
,  // measure 38
0002
0000
0000
0000
0000
0000
0000
0000
0103
0000
0000
0000
0000
0000
1000
0001
1000
0000
0000
0000
0001
0000
0000
0000
0100
0000
0000
0000
0010
0000
0000
0000
,  // measure 39
0020
0000
2030
0000
3010
1000
0100
0010
,  // measure 40
0002
0000
0010
0000
0013
0001
0100
0010
,  // measure 41
2000
0000
0000
0000
0000
0000
0000
0000
0010
0000
0000
0000
0000
0000
0000
0000
3010
0000
0000
0000
0100
0000
0000
0000
0001
0010
0000
0000
0001
0000
0000
0000
,  // measure 42
0001
0000
0000
0000
0000
0000
0000
0000
0000
0000
0000
0000
0000
0000
0000
0000
0000
0000
0000
0000
0000
0000
0000
0000
0000
0000
0000
0000
0000
0000
0000
0000
0000
0000
0000
0000
1000
0000
0000
0000
0000
0000
0000
0000
0000
0000
0000
0000
0001
0000
0000
0000
0000
0000
0000
0000
0000
0000
0000
0000
0000
0000
0000
0000
0000
0000
0000
0000
0000
0000
0000
0000
1000
0000
0000
0000
0000
0000
0000
0000
0000
0000
0000
0000
0000
0000
0000
0000
0000
0000
0000
0000
0000
0000
0000
0000
0010
0000
0000
0000
0000
0000
0000
0000
0000
0000
0000
0000
0000
0000
0000
0000
0000
0000
0000
0000
0000
0000
0000
0000
0000
0000
0000
0000
0000
0000
0000
0000
0000
0000
0000
0000
1000
0000
0000
0000
0000
0000
0000
0000
0000
0000
0000
0000
0010
0000
0000
0000
0000
0000
0000
0000
0000
0000
0000
0000
0000
0000
0000
0000
0100
0000
0000
0000
0000
0000
0000
0000
0000
0000
0000
0000
0000
0000
0000
0000
0001
0000
0000
0000
1000
0000
0000
0000
0000
0000
0001
0000
0000
0000
0000
0000
,  // measure 43
1000
0000
0100
0000
0010
0000
0100
0000
0010
0000
0001
0000
,  // measure 44
0100
0000
0001
0000
1000
0010
0000
0010
0100
0000
0001
0000
1000
0100
0000
0100
,  // measure 45
1000
0000
0010
0000
0100
0010
0000
0010
1000
0000
0001
0000
0010
0100
0000
0100
,  // measure 46
0010
0000
0001
0000
1000
0001
0000
0001
0100
0000
0010
0000
1000
0100
0000
0100
,  // measure 47
0010
0000
0001
0000
1000
0010
0000
0010
0100
0000
0001
0000
1000
0001
0000
0001
,  // measure 48
0010
0100
0010
0100
1000
0001
0100
0010
1000
0100
0010
0100
1000
0001
0100
0001
,  // measure 49
0010
0100
1000
0100
1000
0001
1000
0001
0100
0010
1000
0100
0010
0001
0100
0010
,  // measure 50
4000
0004
0000
0000
0000
0000
0000
0000
0000
0000
0000
0000
0000
0000
3003
0000
,  // measure 51
2001
0000
0000
0000
0000
0000
0000
0000
0000
0000
0000
0000
3010
0010
0100
0000
,  // measure 52
0002
0000
0000
0003
2101
0000
0000
0000
3001
0100
0010
0001
0010
1000
0010
0000
,  // measure 53
0200
0000
0000
0301
1000
0000
1000
0000
0200
0000
0310
0001
0100
0000
0010
0000
,  // measure 54
0102
0000
0000
0000
0000
0000
1003
0000
0200
0000
0000
0000
0000
0000
0310
0001
0010
0000
0100
0000
0010
0000
1000
0000
0020
0000
0000
0000
0000
0000
0000
0000
,  // measure 55
0032
0000
0000
0000
0103
0000
0010
0000
1000
0000
0000
0000
1000
0000
0100
0000
0010
0000
0001
0000
0100
00M0
0100
0000
1000
0000
0001
0000
0010
0M00
0010
0000
,  // measure 56
1200
0000
0000
0000
0000
0000
0301
0000
2000
0000
0000
0000
0000
0000
3001
0010
0001
0000
0010
0000
0100
0000
0001
0000
0100
0000
1000
0000
0100
0000
0000
0000
,  // measure 57
2000
0000
0000
3010
0100
0000
0100
0000
0002
0000
1003
0100
0020
0000
0000
0030
,  // measure 58
0210
0000
0000
0000
0000
0000
1300
0000
0020
0000
0000
0000
0000
0000
0130
0001
0100
0000
0010
0000
0100
0000
1000
0000
0200
0000
0000
0000
0000
0000
0300
0000
,  // measure 59
0102
0000
0000
0000
0000
0000
1003
0000
0010
0000
1000
0000
0001
0000
0010
0000
0100
M000
0100
0000
0001
0000
0010
0M00
0010
0000
1000
0000
0100
0000
1000
0000
,  // measure 60
0102
0000
0000
0000
0000
0000
0000
0000
1003
0000
0010
0000
1000
0000
0100
0000
00M0
0000
0100
0001
0100
0000
0010
0000
1000
0000
0000
0000
0001
0000
0000
0000
,  // measure 61
0021
0000
0000
0000
0000
0000
0000
0000
0130
0000
0010
0000
0100
0000
1000
0001
1000
0000
0010
0000
0100
0000
0001
0000
0200
0000
0000
0000
0000
0000
0000
0000
,  // measure 62
0320
0000
0000
0000
0000
0000
0000
0000
0000
0000
0000
0000
0000
0000
0000
0000
0000
0000
0000
0000
0000
0000
0000
0000
1030
0000
0000
0000
0000
0000
0000
0000
0000
0000
0000
0000
0001
0000
0000
0000
0000
0000
0000
0000
0000
0000
0000
0000
1000
0000
0000
0000
0000
0000
0000
0000
0000
0000
0000
0000
0010
0000
0000
0000
0000
0000
0000
0000
0000
0000
0000
0000
0100
0000
0000
0000
0000
0000
0000
0000
0000
0000
0000
0000
0010
0000
0000
0000
0000
0000
0000
0000
0000
0000
0000
0000
0M00
0000
0000
0000
0000
0000
0000
0000
0000
0000
0000
0000
0010
0000
0000
0000
0000
0000
0001
0000
0000
0000
0000
0000
0010
0000
0000
0000
0000
0000
0000
0000
0100
0000
0000
0000
0000
0000
0000
0000
1000
0000
0000
0000
0000
0000
0000
0000
0002
0000
0000
0000
0000
0000
0000
0000
0000
0000
0000
0000
0000
0000
0000
0000
0000
0000
0000
0000
0000
0000
0000
0000
0000
0000
0000
0000
0000
0000
0000
0000
0000
0000
0000
0000
0003
0000
0000
0000
0000
0000
0000
0000
0000
0000
0000
0000
,  // measure 63
2001
0000
0000
3010
0100
0000
0001
0010
0200
0000
0310
0001
1000
0001
0100
0000
,  // measure 64
0010
0000
1000
0000
0100
0000
0010
0000
0201
0000
0000
0000
0000
0000
0000
0000
1300
0001
1000
0000
0010
0000
0100
0000
0001
0000
0000
0000
0100
0000
0000
0000
,  // measure 65
0210
0000
0000
0000
0000
0000
0000
0000
0301
0000
1000
0000
0001
0000
0010
0100
0010
0000
0001
0000
0100
0000
0010
0000
2000
0000
0000
0000
0000
0000
0000
0000
,  // measure 66
3010
0000
0100
0000
0010
0000
1000
0000
0001
0000
0010
0000
0100
0000
1000
0001
1000
0000
0001
0010
0001
0000
0010
0000
0400
0000
0000
0000
0000
0000
0300
0000
,  // measure 67
2001
0000
0000
0000
3001
0000
0100
0000
0010
0000
0100
0000
0010
1000
0010
0000
0000
0000
0100
0000
0001
0000
1000
0000
0100
0010
0100
0000
1000
0000
0000
0000
,  // measure 68
2020
0000
0000
0000
,  // measure 69
3030
0000
0000
0000
,  // measure 70
M000
0000
0000
0000
;

//---------------dance-single - Loodee----------------
#NOTEDATA:;
#CHARTNAME:Loodee;
#STEPSTYPE:dance-single;
#DESCRIPTION:Loodee;
#CHARTSTYLE:;
#DIFFICULTY:Hard;
#METER:10;
#RADARVALUES:0.549243,0.831166,0.222237,0.792645,0.733382,519.000000,489.000000,30.000000,107.000000,15.000000,0.000000,2.000000,0.000000,0.000000,0.549243,0.831166,0.222237,0.792645,0.733382,519.000000,489.000000,30.000000,107.000000,15.000000,0.000000,2.000000,0.000000,0.000000;
#CREDIT:Loodee;
#NOTES:
0000
0000
0000
0000
,
0000
0000
0000
0000
,
0000
0000
0000
0000
,
0000
0000
0000
0000
,
0000
0000
0000
0000
,
0000
0000
0000
0000
,
0000
0000
0000
0000
,
0000
0000
0000
0000
,
2002
0000
0000
3003
0000
0000
0000
0000
0000
0000
0000
0000
0000
0000
0000
0000
,
0000
0000
0000
0000
,
0202
0000
0000
0303
0000
0000
0000
0000
0000
0000
0000
0000
0000
0000
0000
0000
,
0022
0000
0000
0033
0000
0000
0000
2002
0000
0000
3003
0000
0000
2020
0000
3030
,
0100
0010
1000
0001
0010
0100
0010
0001
,
1000
0001
0100
0001
1000
0100
0010
0100
,
1000
0001
1000
0001
0010
0100
1000
0001
1000
0010
0100
0001
0100
0010
1000
0001
,
2000
0000
0000
0000
0000
0000
0000
0000
0000
0000
0000
3000
0100
0010
0001
0000
,
2002
0000
3003
0000
0001
0100
0001
2000
0000
3100
0010
0001
0100
0001
1000
0010
,
0200
0000
0000
0000
0301
0010
0100
0010
0001
0010
0100
0000
1000
0010
0000
0000
,
2020
0000
3030
0000
1000
0001
0010
0002
0000
0103
0010
0100
0002
0000
0000
0003
,
0202
0000
0303
0000
1000
0000
0000
1200
0000
0000
0310
0000
0001
0100
0000
0000
,
0220
0000
0330
0000
0010
1000
0001
0020
0000
0130
0010
0001
0100
0001
1000
0010
,
0200
0000
0000
0000
0301
0010
0100
0010
0100
1000
0010
0000
1000
0100
0000
0000
,
0220
0000
0330
0000
0010
0001
1000
0020
0000
0130
0001
0010
0200
0000
0000
0300
,
2200
0000
3300
0000
0001
0000
0000
1002
0000
0000
0013
0000
0100
0010
0000
0000
,
2002
3003
0000
0000
0000
0000
0000
0000
,
2020
3030
0000
0000
0000
0000
0110
0000
,
2002
0000
0000
0000
3003
0000
0000
0000
1000
0000
0100
00M0
0100
0000
0001
0000
0100
00M0
0100
0000
1000
0000
0100
0000
0020
0000
0000
0000
0000
0000
0030
0000
,
0022
0000
0033
0000
0001
0000
0000
2001
0000
0000
3020
0000
0130
0002
0000
0003
,
2000
0000
0100
0000
0000
0000
3100
0000
0020
0000
0000
0000
0030
0000
0001
0000
1000
0000
0001
0000
0100
00M0
0100
0000
1000
0000
0100
0000
0010
000M
0010
0000
,
2000
0000
0000
0000
0000
0000
0000
0000
3001
0000
0100
00M0
0100
0000
1000
0000
0010
0M00
0010
0000
0001
0000
1000
0000
0001
0000
0200
0000
0000
0000
0300
0000
,
0202
0000
0000
0000
0303
0000
0000
0000
0001
0000
0010
0M00
0010
0000
1000
0000
0400
0000
0000
0000
0000
0000
0000
0000
0000
0000
0000
0000
0300
0000
0000
0000
,
0022
0000
0033
0000
0001
0000
1000
0002
0000
1003
0000
1000
0010
0100
0001
0000
,
2002
0000
3003
0000
0001
0010
0100
0010
0100
1000
0020
0000
1030
0000
0100
0000
,
0020
0000
0000
0000
0031
0100
0010
1000
0001
0010
0200
0000
0000
1300
0000
0000
,
2200
0000
3300
0000
1000
0001
0100
0001
0010
0100
0010
0001
0200
0000
0000
0300
,
0002
0000
1003
0100
0010
0001
0010
0001
2000
0000
3010
0000
0000
0200
0000
0300
,
0002
0000
0000
0000
0000
0013
0100
1000
,
0002
0000
0000
0000
0000
1003
0001
0100
,
0020
0000
0000
0000
1030
0001
0010
0100
,
0020
0000
0230
0000
0000
0310
0001
1000
,
0020
0000
0000
0000
0000
1030
0100
0010
,
0200
0000
0000
0000
0000
1300
0010
0100
,
0200
0000
0000
0000
0000
0000
0000
0000
0000
0000
0000
0000
0000
0000
0000
0000
0000
0000
0000
0000
0000
0300
0000
0000
0000
0000
0000
0000
0000
0000
0000
0000
0000
0000
0000
0000
0000
0000
0000
0000
0001
0000
0000
0000
0010
0000
0000
0000
,
0200
0000
0302
0000
0203
0000
2300
0000
3002
0000
0203
0000
,
0310
0000
1000
0000
0010
1000
0000
1000
0001
0000
0010
0000
0001
0010
0000
0010
,
0100
0000
1000
0000
0100
1000
0000
1000
0001
0000
0100
0000
0001
0100
0000
0100
,
0010
0000
1000
0000
0010
1000
0000
1000
0001
0000
0010
0000
0001
0010
0000
0010
,
0001
0000
0100
0000
0001
0100
0000
0100
0010
0000
1000
0000
0010
1000
0000
1000
,
0100
0010
0100
0010
0001
1000
0001
1000
0010
0100
0001
1000
0001
0010
0100
1000
,
0001
0100
0001
0100
0010
1000
0010
1000
0001
1000
0100
0010
0001
0010
0001
1000
,
0040
0000
0000
0000
,
0230
0000
0000
0000
0000
0000
0000
0000
0000
0000
0300
0000
0001
0010
0100
0000
,
1000
0000
0000
0000
0000
0000
0000
0000
2002
0000
0000
0000
3003
0000
0000
0000
0001
0000
0100
00M0
0100
0000
1000
0000
0010
0000
0000
0000
0010
0000
0000
0000
,
0002
0000
0000
0013
0100
0000
0100
0000
0001
0000
1000
0100
0020
0000
0000
0000
,
0230
0000
0000
0000
0300
0000
0000
0000
1100
0000
0000
0000
0000
0000
1000
0000
0001
0000
0010
M000
0010
0000
0100
0000
0002
0000
0000
0000
0000
0000
0000
0000
,
0203
0000
0000
0000
0310
0000
1000
0000
0001
0000
0000
0000
0010
0M00
0010
0000
1000
0000
0100
0000
0010
0000
0001
0000
1000
0000
0100
0000
0010
0000
0001
0000
,
0200
0000
0000
0000
0300
0000
0000
0000
1010
0000
0000
0000
0000
0000
1000
0000
0001
0000
0010
0M00
0010
0000
1000
0000
0100
0000
0000
0000
0100
0000
0000
0000
,
0002
0000
0000
0103
0010
0000
0010
0000
0002
0000
1003
0010
0200
0000
0000
0000
,
0320
0000
0000
0000
0030
0000
0000
0000
0101
0000
0000
0000
0000
0000
0001
0000
1000
0000
0100
000M
0100
0000
0010
0000
2000
0000
0000
0000
0000
0000
0000
0000
,
3002
0000
0000
0000
0103
0000
0010
0000
1000
0000
0010
0M00
0010
0000
0001
0000
1000
0000
0010
0000
0100
0000
0001
0000
1000
0000
0010
0000
0100
0000
0001
0000
,
2000
0000
0000
0000
0000
0000
0000
0000
3001
0000
0100
00M0
0100
0000
1000
0000
0000
0000
1000
0000
0100
0000
0010
0000
0001
0000
0000
0000
0100
0000
0000
0000
,
0020
0000
0000
0000
1030
0100
0010
0001
0010
0100
1000
0010
0200
0000
0000
0000
,
0302
0000
0000
0000
1003
0000
0001
0000
1000
0000
0100
00M0
0100
0000
0001
0000
0000
0000
0001
0000
0010
0000
0100
0000
0020
0000
0000
0000
0000
0000
0000
0000
,
0032
0000
0003
0000
1001
0000
1000
0010
0200
0000
0301
1000
0001
0010
0100
0000
,
1000
0000
0000
0000
2020
0000
3030
0000
0010
0100
0001
0100
0010
0000
1000
0000
,
0200
0000
0000
0000
0310
0100
1000
0100
0010
0001
1000
0010
1000
0000
0001
0000
,
0010
0100
0010
0100
1000
0001
1000
0001
0100
0010
1000
0001
0020
0000
0000
0000
,
0230
0000
1300
0001
1000
0100
0010
0002
0000
1003
0010
1000
0010
0100
0001
0000
,
1001
0000
0000
0000
;

//---------------dance-single - Loodee----------------
#NOTEDATA:;
#CHARTNAME:Loodee;
#STEPSTYPE:dance-single;
#DESCRIPTION:Loodee;
#CHARTSTYLE:;
#DIFFICULTY:Medium;
#METER:8;
#RADARVALUES:0.355579,0.478550,0.162974,0.548185,0.244461,336.000000,314.000000,22.000000,74.000000,0.000000,0.000000,5.000000,0.000000,0.000000,0.355579,0.478550,0.162974,0.548185,0.244461,336.000000,314.000000,22.000000,74.000000,0.000000,0.000000,5.000000,0.000000,0.000000;
#CREDIT:Loodee;
#NOTES:
0000
0000
0000
0000
,
0000
0000
0000
0000
,
0000
0000
0000
0000
,
0000
0000
0000
0000
,
0000
0000
0000
0000
,
0000
0000
0000
0000
,
0000
0000
0000
0000
,
0000
0000
0000
0000
,
2002
3003
0000
0000
0000
0000
0000
0000
,
0000
0000
0000
0000
,
2002
3003
0000
0000
0000
0000
0000
0000
,
0202
0000
0303
0000
0000
0000
0000
0202
0000
0303
0000
0000
0000
1001
0000
0000
,
1000
0100
1000
0001
1000
0001
0100
0010
,
1000
0100
0010
0100
1000
0001
0100
0010
,
4000
0004
0000
0000
0000
0000
0000
0000
0000
0000
0000
0000
0000
0000
0000
3000
,
0003
0000
0000
0000
,
0101
0000
0000
0000
0001
1000
0001
1000
0000
0000
0100
0000
0010
0000
0001
0000
,
0200
0000
0000
0000
0310
0000
0000
1000
0000
0000
1000
0000
0001
1000
0000
0000
,
1100
0000
0000
0000
0100
0010
0100
0010
0000
0000
0001
0000
2000
0000
0000
0000
,
3020
0000
0030
0000
0100
0000
0000
0002
0000
0003
1000
0000
1000
0001
0000
0000
,
0011
0000
0000
0000
0010
0001
0010
0001
0000
0000
1000
0000
0010
0000
0100
0000
,
0002
0000
0000
0000
1003
0000
0000
0100
0000
0000
0100
0000
0010
0200
0000
0000
,
2300
0000
3000
0000
0010
1000
0010
1000
0000
0000
0001
0000
0020
0000
0000
0000
,
0230
0000
0300
0000
0010
0000
0000
0002
0000
0000
1003
0000
1000
0010
0000
0000
,
0220
0330
0000
0000
0000
0000
0000
0000
,
0220
0330
0000
0000
0000
0000
0110
0000
,
1001
0000
0000
0000
1000
0000
0000
0100
0000
0000
1000
0001
2000
0000
0000
3000
,
0020
0000
0000
0030
0100
0000
0000
0002
0000
0000
1003
0000
0001
0010
0000
0000
,
0100
1000
0000
0100
2000
0000
0000
3002
0000
0000
0000
0000
0100
0000
0000
0000
,
0023
0000
0000
0000
0032
0000
0000
0100
0000
0000
0100
0000
1003
0001
0000
0000
,
2002
0000
3003
0000
1000
0000
0000
0100
0040
0000
0000
0000
0000
0000
0030
0000
,
0022
0000
0033
0000
0000
0000
0000
2002
0000
3003
0000
0000
0000
0001
0200
0000
,
0320
0000
2030
0000
3100
0001
0100
0010
,
0002
0000
0000
0000
1003
0010
1000
0010
1000
0000
0002
0000
0000
0023
0000
0000
,
0032
0003
2000
0000
3010
0001
0020
0000
,
0130
0000
0001
0000
1000
0001
1000
0000
0100
0000
0010
0000
0000
0001
0000
0000
,
0200
0000
0000
0000
0000
0310
1000
0001
,
2000
0000
0000
0000
0000
3001
0010
0001
,
0020
0000
0000
0000
0031
1000
0001
0100
,
0020
0000
0230
0000
0000
0301
1000
0001
,
0020
0000
0000
0000
0000
0130
1000
0100
,
0020
0000
0000
0000
0000
0031
1000
0010
,
2000
0000
3000
0000
,
0001
0000
0010
0000
0100
0000
1000
0000
0100
0000
0010
0000
,
0100
0000
1000
0000
0100
1000
0000
0000
0001
0000
1000
0000
0001
1000
0000
0000
,
0010
0000
0100
0000
0010
0100
0000
0000
0001
0000
1000
0000
0001
1000
0000
0000
,
0001
0000
0010
0000
0001
0010
0000
0000
0100
0000
1000
0000
0100
1000
0000
0000
,
0001
0000
0100
0000
0001
0100
0000
0000
0010
0000
1000
0000
0010
1000
0000
0000
,
0004
4000
0000
0000
0000
0000
0000
0000
0000
0000
0000
0000
0000
0000
0000
0000
,
0000
0000
0000
0000
,
0000
0000
0000
0000
,
3003
0000
0000
0000
,
0110
0000
0000
0000
1001
0000
0000
0000
1000
0100
0010
0000
0001
0000
0001
0000
,
0200
0000
0301
0001
0001
1000
0200
0000
,
2300
0000
0000
0000
3001
0000
0000
0000
0100
0010
1000
0000
0200
0000
0000
0000
,
0320
0031
1000
0010
0001
1000
0100
0001
,
0020
0000
0000
0000
0130
0000
0000
0000
1000
0001
0100
0000
0010
0000
0010
0000
,
2000
0000
3100
0100
0100
0010
0200
0000
,
2300
0000
0000
0000
3001
0000
0000
0000
0010
0100
0010
0000
0002
0000
0000
0000
,
1003
0000
0010
0000
0100
0001
0100
0000
0010
0000
0000
1010
0000
0000
1001
0000
,
0002
0000
0000
0000
1003
0100
1000
0100
0000
0000
0010
0000
0001
0000
0100
0000
,
0002
0000
0000
0000
1003
0010
1000
0000
0001
0000
0010
0000
0200
0000
0000
0000
,
0310
0000
0001
1000
0001
0000
0000
0100
0000
0000
0010
0000
2000
0000
0000
0000
,
3001
0000
0000
0000
0011
0000
0000
0000
0002
0000
0000
0203
0000
0000
0300
0000
,
0010
1000
0010
1000
0002
0000
0000
0000
1003
0000
0100
0000
0010
0000
0100
0000
,
2000
0000
0000
0000
3001
0100
0001
0000
1000
0000
0100
0000
0010
0000
0100
0000
,
0010
0001
0100
0001
1000
0010
0200
0000
,
0302
0000
0003
0000
0000
0000
0000
2002
0000
3003
0000
0000
0000
1000
0000
0000
,
1100
0000
0000
0000
;

//---------------dance-single - Loodee----------------
#NOTEDATA:;
#CHARTNAME:Loodee;
#STEPSTYPE:dance-single;
#DESCRIPTION:Loodee;
#CHARTSTYLE:;
#DIFFICULTY:Easy;
#METER:5;
#RADARVALUES:0.237053,0.352616,0.096303,0.355579,0.074079,224.000000,211.000000,13.000000,48.000000,0.000000,0.000000,0.000000,0.000000,0.000000,0.237053,0.352616,0.096303,0.355579,0.074079,224.000000,211.000000,13.000000,48.000000,0.000000,0.000000,0.000000,0.000000,0.000000;
#CREDIT:Loodee;
#NOTES:
0000
0000
0000
0000
,
0000
0000
0000
0000
,
0000
0000
0000
0000
,
0000
0000
0000
0000
,
0000
0000
0000
0000
,
0000
0000
0000
0000
,
0000
0000
0000
0000
,
0000
0000
0000
0000
,
2002
3003
0000
0000
0000
0000
0000
0000
,
0000
0000
0000
0000
,
2002
3003
0000
0000
0000
0000
0000
0000
,
2002
0000
3003
0000
0000
0000
0000
0220
0000
0330
0000
0000
0000
0000
0000
0000
,
1000
0001
1000
0001
1000
0000
0001
0000
,
1000
0100
1000
0100
0010
0000
0001
0000
,
2000
0000
0000
0000
,
3020
0000
0000
0030
,
1001
0000
0000
0000
1000
0000
0000
0001
0000
0000
0000
0000
0010
0000
0000
0000
,
0020
0000
0032
0000
0000
1003
1000
0000
,
0010
0000
0000
0000
0010
0000
0000
0100
0000
0000
0000
0000
0002
0000
0000
0000
,
1003
0000
0000
0000
1000
0000
0000
0100
0000
0000
0000
0000
0000
0100
0000
0000
,
0010
0000
0000
0000
0010
0000
0000
0001
0000
0000
0000
0000
1000
0000
0000
0000
,
2000
0000
3020
0000
0000
0130
0100
0000
,
0010
0000
0000
0000
0010
0000
0000
2000
0000
0000
0000
0000
3002
0000
0000
0000
,
0013
0000
0000
0000
0100
0000
0000
0010
0000
0000
0000
0000
0000
0100
0000
0000
,
1000
0000
0000
0000
,
1001
0000
0000
0000
,
0110
0000
0000
0000
0002
0000
0000
1000
0000
0000
0000
0000
2003
0000
0000
0000
,
3100
0000
0000
0000
0010
0000
0000
0100
0000
0000
0000
0000
0000
1000
0000
0000
,
0002
0000
0000
0000
1003
0000
0000
0020
0000
0000
0000
0000
0100
0000
0000
0000
,
0230
0000
0000
0000
0320
0000
0000
1000
0000
0000
0000
0000
1030
0000
0000
0000
,
0001
0010
0002
0000
,
1003
0000
0000
0000
0010
0000
0000
1000
0000
0000
0000
0000
0000
0001
0000
0000
,
0001
0020
0100
0031
,
1000
0000
0020
0000
1030
0002
0000
0000
,
0013
0200
0010
2300
,
3001
1000
0001
1000
0020
0000
0030
0000
,
0200
0000
0000
0000
,
0302
0000
0000
0000
,
0023
0000
0031
1000
,
0010
0100
0000
0000
,
0020
0000
0000
0000
,
2030
0000
0000
0000
,
3200
0000
0300
0000
,
0120
0000
0032
0000
,
1003
0010
1000
0000
1000
0010
1000
0000
,
1000
0001
1000
0000
1000
0001
1000
0000
,
0001
0010
0001
0000
0001
0010
0001
0000
,
0001
1000
0001
0000
0001
1000
0001
0000
,
0200
0000
0000
0000
,
0320
0000
0000
0000
,
2030
0000
0000
0000
,
3001
0000
0000
0000
,
0010
0000
1001
0000
0001
0001
0100
0001
,
0100
0000
0001
0001
1000
0000
0100
0000
,
0010
0000
0001
0000
1000
1000
0020
0000
,
0130
0000
0100
0000
0001
0010
0100
1000
,
0001
0000
0100
0000
0010
0010
0100
0010
,
1000
0000
0010
0010
1000
0000
0001
0000
,
0010
0000
0100
0000
1000
1000
0200
0000
,
0310
0000
0000
0000
0001
0000
0000
0000
0100
0000
0000
0100
0000
0000
0100
0000
,
0010
0000
0000
0000
1000
0000
0000
1000
0000
0000
0000
0000
1000
0000
0100
0000
,
0020
0000
0001
0000
0031
1000
0001
0000
,
0100
0000
0100
0000
0010
0000
0000
0010
0000
0000
0000
0000
0110
0000
0000
0000
,
1000
0000
0001
0001
1000
0000
0100
0000
,
2000
0000
3010
0000
0100
0001
0100
0001
,
2000
0000
0100
0000
3100
0010
0001
0000
,
0200
0020
0000
0330
,
1001
0000
0000
0000
0000
0000
0000
0110
0000
0000
0000
0000
0000
0000
0000
0000
,
1001
0000
0000
0000
;

//---------------dance-single - Loodee----------------
#NOTEDATA:;
#CHARTNAME:Loodee;
#STEPSTYPE:dance-single;
#DESCRIPTION:Loodee;
#CHARTSTYLE:;
#DIFFICULTY:Beginner;
#METER:2;
#RADARVALUES:0.073021,0.125934,0.037040,0.059263,0.000000,69.000000,64.000000,5.000000,8.000000,0.000000,0.000000,0.000000,0.000000,0.000000,0.073021,0.125934,0.037040,0.059263,0.000000,69.000000,64.000000,5.000000,8.000000,0.000000,0.000000,0.000000,0.000000,0.000000;
#CREDIT:Loodee;
#NOTES:
0000
0000
0000
0000
,
0000
0000
0000
0000
,
0000
0000
0000
0000
,
0000
0000
0000
0000
,
0000
0000
0000
0000
,
0000
0000
0000
0000
,
0000
0000
0000
0000
,
0000
0000
0000
0000
,
1001
0000
0000
0000
,
0000
0000
0000
0000
,
1001
0000
0000
0000
,
1001
0000
0000
0000
,
0002
0000
0000
0000
,
0000
0000
0000
0000
,
2003
0000
0000
0000
,
3000
0000
0000
0000
,
0001
0000
0000
0000
,
0001
0000
0000
0000
,
1000
0000
0000
0000
,
1000
0000
0000
0000
,
0001
0000
0000
0000
,
0001
0000
0000
0000
,
1000
0000
0000
0000
,
1000
0000
0000
0000
,
0100
0000
0000
0000
,
0100
0000
0000
0000
,
1000
0000
0000
0000
,
0010
0000
0000
0000
,
0000
1000
0000
0000
,
0001
0001
0000
0000
,
1000
0000
0000
0000
,
1000
0000
0000
0000
,
0010
0000
0000
0000
,
0100
0000
0000
0000
,
0001
0000
0000
0000
,
0010
0000
0000
0000
,
0010
0000
0000
0000
,
0010
0000
0000
0000
,
0100
0000
0000
0000
,
0010
0000
0000
0000
,
0001
0000
0000
0000
,
0001
0000
0000
0000
,
0100
0000
0000
0000
,
0020
0000
0000
0000
,
0130
0000
0000
0000
,
0100
0000
0000
0000
,
0100
0000
0000
0000
,
0100
0000
0000
0000
,
0002
0000
0000
0000
,
0000
0000
0000
0000
,
2003
0000
0000
0000
,
3000
0000
0000
0000
,
0000
0100
0000
0000
,
1000
0000
1000
0000
,
0001
0000
0001
0000
,
1000
0000
0000
0000
,
0010
0000
0010
0000
,
0100
0000
0100
0000
,
0010
0000
0010
0000
,
1000
0000
0000
0000
,
0001
0000
1000
0000
,
0002
0000
0000
0000
,
0003
1000
0000
0000
,
0100
0000
0100
0000
,
0000
1000
0000
0000
,
0020
0000
0000
0000
,
0230
0000
0000
0300
,
1001
0000
0000
0000
,
1001
0000
0000
0000
;
