#VERSION:0.83;
#TITLE:Wavey;
#SUBTITLE:(feat. Alika);
#ARTIST:CLiQ;
#TITLETRANSLIT:;
#SUBTITLETRANSLIT:;
#ARTISTTRANSLIT:;
#GENRE:;
#ORIGIN:;
#CREDIT:Feraligatr & Maxx-Storm;
#BANNER:wavey-bn.png;
#BACKGROUND:wavey-bg-wide.png;
#PREVIEWVID:;
#JACKET:wavey-jacket.png;
#CDIMAGE:;
#DISCIMAGE:wavey-bg.png;
#LYRICSPATH:;
#CDTITLE:feraligatr-maxx-cdtitle.png;
#MUSIC:Get Wavy.ogg;
#OFFSET:-0.136000;
#SAMPLESTART:39.160000;
#SAMPLELENGTH:15.609000;
#SELECTABLE:YES;
#DISPLAYBPM:62.000000:123.000000;
#BPMS:0.000=123.000,
82.000=61.500,
84.000=123.000,
96.000=61.500,
98.000=123.000,
134.000=61.500,
136.000=123.000,
172.000=61.500,
174.000=123.000,
186.000=61.500,
188.000=123.000;
#STOPS:44.500=0.975;
#DELAYS:;
#WARPS:;
#TIMESIGNATURES:0.000=4=4;
#TICKCOUNTS:0.000=4;
#COMBOS:0.000=1;
#SPEEDS:0.000=1.000=0.000=0;
#SCROLLS:0.000=1.000;
#FAKES:;
#LABELS:0.000=Song Start;
#BGCHANGES:;
#KEYSOUNDS:;
#ATTACKS:
;

//---------------dance-single - Feraligatr & Maxx----------------
#NOTEDATA:;
#CHARTNAME:Feraligatr & Maxx;
#STEPSTYPE:dance-single;
#DESCRIPTION:Feraligatr & Maxx;
#CHARTSTYLE:;
#DIFFICULTY:Challenge;
#METER:10;
#RADARVALUES:0.731919,0.740928,0.414666,0.608177,0.774044,556.000000,511.000000,45.000000,66.000000,39.000000,0.000000,0.000000,0.000000,0.000000,0.731919,0.740928,0.414666,0.608177,0.774044,556.000000,511.000000,45.000000,66.000000,39.000000,0.000000,0.000000,0.000000,0.000000;
#CREDIT:Feraligatr & Maxx;
#DISPLAYBPM:55.000000:110.000000;
#NOTES:
// measure 0
0000
0000
0000
0000
,  // measure 1
0000
0000
0000
0000
,  // measure 2
0000
0000
0000
0000
,  // measure 3
0000
0000
0000
0000
0000
0000
0000
0000
0000
0000
0000
0000
0000
0000
0000
0000
0000
0000
0000
0000
0000
0000
0000
0000
0000
0000
0000
0000
0000
0000
0000
0000
0000
0000
0000
0000
0001
0000
0000
0000
1000
0000
0000
0000
0100
0000
0000
0000
0010
0000
0000
0000
0001
0000
0000
0000
1000
0000
0000
0000
0000
0010
0000
0000
,  // measure 4
0100
0000
0100
0000
0001
0100
00M0
0100
1000
0000
0001
0100
0000
0010
0000
1000
,  // measure 5
0002
0000
0000
0000
0000
0000
0000
0000
0003
0000
0000
0000
0000
0000
0000
0000
0100
0000
0000
0000
0001
0000
0000
0000
1000
0000
0000
0000
0001
0000
0000
0000
0010
0000
0000
0000
0000
0000
0000
0000
0001
0000
0000
0000
0100
0000
0000
0000
00M0
0000
0000
0000
0100
0000
0000
0000
1000
0000
0000
0000
0000
0001
0000
0000
,  // measure 6
0100
0000
0100
0000
0010
0100
0001
0000
1000
0000
0001
0100
00M0
0100
1000
0000
,  // measure 7
0200
0000
0000
0000
0000
0000
0000
0000
0300
0000
0000
0000
0000
0000
0000
0000
0010
0000
0000
0000
0100
0000
0000
0000
1000
0000
0000
0000
0000
0001
0000
0000
0010
0000
0000
0000
0000
0000
0000
0000
0001
0000
0000
0000
0100
0000
0000
0000
00M0
0000
0000
0000
0100
0000
0000
0000
1000
0000
0000
0000
0000
0001
0000
0000
,  // measure 8
0010
0000
0010
0000
0100
0010
M000
0010
1000
0000
0001
0100
00M0
0100
1000
0000
,  // measure 9
0002
0000
0000
0000
0000
0000
0000
0000
0000
0000
0000
0000
0000
0000
0000
0000
1003
0000
0000
0000
0010
0000
0000
0000
0M00
0000
0000
0000
0010
0000
0000
0000
0100
0000
0000
0000
0000
0000
0000
0000
1000
0000
0000
0000
0100
0000
0000
0000
00M0
0000
0000
0000
0100
0000
0000
0000
0001
0000
0000
0000
0000
1000
0000
0000
,  // measure 10
0100
0000
0100
0000
1000
0100
00M0
0100
0001
0000
1000
0010
0M00
0010
0200
0000
,  // measure 11
1300
0000
0000
0000
0000
0000
0000
0000
0M1M
0000
0000
0000
0000
0000
0000
0000
0100
0000
0000
0000
0000
0000
0000
0000
0000
0000
0000
0000
0000
0001
0000
0000
1000
0000
0000
0000
0000
0000
0000
0000
1000
0000
0000
0000
0000
0000
0000
0000
0100
0000
0000
0000
0010
0000
0000
0000
0001
0000
0000
0000
0000
0000
0000
0000
,  // measure 12
1000
0000
0000
0000
0000
0000
0000
0000
0010
0000
0000
0000
0000
0000
0000
0000
1000
0000
0000
0000
0001
0000
0000
0000
0010
0000
0000
0000
0000
0000
0000
0000
0210
0000
0000
0000
0000
0000
0000
0000
1300
0000
0000
0000
0001
0000
0000
0000
0100
0000
0000
0000
0001
0000
0000
0000
1000
0000
0000
0000
0000
0010
0000
0000
,  // measure 13
0100
0000
0001
0000
0010
0001
1000
0001
0200
0000
0310
1000
0001
1000
0200
0000
,  // measure 14
0310
0000
0000
0000
0001
0000
0000
0000
1000
0000
0000
0000
0001
0000
0000
0000
0020
0000
0000
0000
0000
0000
0000
0000
0031
0000
0000
0000
0100
0000
0000
0000
00M0
0000
0000
0000
0100
0000
0000
0000
1000
0000
0000
0000
0000
0000
0000
0000
0001
0000
0000
0000
1000
0000
0000
0000
0010
0000
0000
0000
0000
0100
0000
0000
,  // measure 15
0001
0000
0000
0000
0000
0000
0000
0000
1002
0000
0000
0000
0000
0000
0000
0000
1003
0000
0000
0000
0000
0000
0000
0000
1200
0000
0000
0000
0000
0310
0000
0000
0001
0000
0000
0000
0000
0000
0000
0000
0001
0000
0000
0000
0000
0000
0000
0000
1000
0000
0000
0000
0010
0000
0000
0000
0100
0000
0000
0000
0000
0000
0000
0000
,  // measure 16
0001
0000
0000
0000
0000
0000
0000
0000
1000
0000
0000
0000
0000
0000
0000
0000
0001
0000
0000
0000
0010
0000
0000
0000
0100
0000
0000
0000
0000
0000
0000
0000
2100
0000
0000
0000
0000
0000
0000
0000
3001
0000
0000
0000
0100
0000
0000
0000
0001
0000
0000
0000
1000
0000
0000
0000
0100
0000
0000
0000
0000
1000
0000
0000
,  // measure 17
0001
0000
0100
0000
0010
1000
0001
1000
0200
0000
0310
0001
1000
0001
0200
0000
,  // measure 18
0310
0000
0000
0000
1000
0000
0000
0000
0001
0000
0000
0000
1000
0000
0000
0000
0200
0000
0000
0000
0000
0000
0000
0000
1300
0000
0000
0000
0010
0000
0000
0000
0M00
0000
0000
0000
0010
0000
0000
0000
0001
0000
0000
0000
0000
0000
0000
0000
1000
0000
0000
0000
0010
0000
0000
0000
0100
0000
0000
0000
0000
0001
0000
0000
,  // measure 19
1000
0000
0000
0000
0000
0000
0000
0000
0001
0000
0000
0000
0010
0000
0000
0000
0001
0000
0000
0000
0100
0000
0000
0000
0010
0000
0000
0000
0000
1000
0000
0000
0001
0000
0000
0000
0000
0000
0000
0000
0100
0000
0000
0000
0000
0000
0000
0000
2010
0000
0000
0000
0000
0000
0000
0000
3100
0000
0000
0000
0000
0000
0000
0000
,  // measure 20
0012
0000
0000
0000
0103
0000
0000
0000
2010
0000
0000
0000
3100
0000
0000
0000
MM12
0000
0000
1003
0001
0000
0010
0100
1000
0000
0001
0000
0100
0010
0000
1000
,  // measure 21
0MM1
0010
2100
3010
0102
0013
2100
3010
,  // measure 22
0201
0000
0000
0000
0000
0000
0000
0000
0000
0000
0000
0000
0310
0000
0000
0000
1000
0000
0000
0000
0000
0000
0000
0000
0001
0000
0000
0000
0000
0010
0000
0000
0100
0000
0000
0000
0000
0100
0000
0000
1000
0000
0000
0000
0000
1000
0000
0000
0010
0000
0000
0000
0000
0000
0000
0000
0100
0000
0000
0000
0000
0001
0000
0000
,  // measure 23
1000
0100
0012
0103
2010
3100
0012
0103
,  // measure 24
2M1M
0000
0000
3001
1000
0000
0001
0010
0100
0000
1000
0000
0001
0100
0000
0001
1MM0
0000
0000
0000
0010
0000
0000
0000
0102
0000
0000
0000
0013
0000
0000
0000
,  // measure 25
2100
0000
0000
0000
0000
0000
0000
0000
3010
0000
0000
0000
0000
0000
0000
0000
0102
0000
0000
0000
0000
0000
0000
0000
0013
0000
0000
0000
0000
0000
0000
0000
1200
0000
0000
0000
0000
0000
0000
0000
0000
0000
0000
0000
0310
0000
0000
0000
0001
0000
0000
0000
0000
0000
0000
0000
1000
0000
0000
0000
0000
0010
0000
0000
,  // measure 26
0100
0000
0000
0000
0000
0100
0000
0000
0001
0000
0000
0000
0000
0001
0000
0000
0010
0000
0000
0000
0100
0000
0000
0000
1000
0000
0000
0000
0000
0001
0000
0000
0100
0000
0000
0000
0000
0000
0000
0000
0100
0000
0000
0000
0000
0000
0000
0000
0001
0000
0000
0000
0010
0000
0000
0000
0M00
0000
0000
0000
0010
0000
0000
0000
,  // measure 27
1000
0000
0001
0010
0000
0100
0000
1000
0002
0000
0003
0000
1000
0010
0M00
0010
,  // measure 28
0001
0000
1000
0100
0000
0010
0000
0001
1000
0000
1000
0000
0001
0100
00M0
0100
,  // measure 29
1000
0000
0000
0000
0000
0000
0000
0000
0001
0000
0000
0000
0010
0000
0000
0000
0M00
0000
0000
0000
0010
0000
0000
0000
1000
0000
0000
0000
0000
0000
0000
0000
0002
0000
0000
0000
0000
0000
0000
0000
0003
0000
0000
0000
0000
0000
0000
0000
1000
0000
0000
0000
0000
0000
0100
0000
0000
00M0
0000
0000
0100
0000
0000
0000
,  // measure 30
0001
0000
1000
0010
0000
1000
0000
0001
0010
0000
0010
0000
0001
0000
0100
0000
,  // measure 31
2000
0000
3100
0010
1000
0000
0001
0000
1000
0000
0010
0000
0100
0000
0001
0000
,  // measure 32
0010
0000
0000
0000
0000
0000
0000
0000
0100
0000
0000
0000
1000
0000
0000
0000
0001
0000
0000
0000
0000
0000
0000
0000
0100
0000
0000
0000
0000
0010
0000
0000
1000
0000
0000
0000
0000
0000
0000
0000
0001
0000
0000
0000
0000
0000
0000
0000
0001
0000
0000
0000
0000
0000
0000
0000
0010
0000
0000
0000
0000
0000
0000
0000
,  // measure 33
0100
0000
0000
0000
0000
0000
0000
0000
0000
0000
0000
0000
0000
0000
0000
0000
0000
0000
1000
0000
0000
0000
0000
0000
0000
0000
0000
0000
0000
0000
0000
0000
0000
0000
0000
0000
0001
0000
0000
0000
0000
0000
0000
0000
0000
0000
0000
0000
0100
0000
0000
0000
0000
0000
0000
0000
0000
0000
0000
0000
0000
0000
0000
0000
0000
0000
0000
0000
0000
0000
0000
0000
0010
0000
0000
0000
0000
0000
0000
0000
0000
0000
0000
0000
0000
0000
0000
0000
0000
0000
0000
0000
0000
0000
0000
0000
1M0M
0000
0000
0000
0000
0000
0000
0000
0000
0000
0000
0000
0001
0000
0000
0000
0000
0000
0000
0000
0000
0000
0000
0000
0010
0000
0000
0000
0000
0000
0000
0000
0000
0000
0000
0000
0001
0000
0000
0000
0000
0000
0000
0000
0000
0000
0000
0000
1000
0000
0000
0000
0000
0000
0000
0000
0000
0000
0000
0000
0010
0000
0000
0000
0000
0000
0100
0000
0000
0000
0000
0000
0002
0000
0000
0000
0000
0000
0000
0000
0000
0000
0000
0000
1003
0000
0000
0000
0000
0000
0000
0100
0000
0000
0000
0000
,  // measure 34
M01M
0010
0100
1000
0001
0100
0010
0100
,  // measure 35
0102
0000
0000
0000
0000
0000
0000
0000
1003
0000
0000
0000
0100
0000
0000
0000
1000
0000
0000
0000
0000
0000
0000
0000
0001
0000
0000
0000
0000
0100
0000
0000
0010
0000
0000
0000
0000
0000
0000
0000
1000
0000
0000
0000
0000
0000
0000
0000
0001
0000
0000
0000
0000
0000
0000
0000
0010
0000
0000
0000
0000
0100
0000
0000
,  // measure 36
1000
0000
1000
0001
0100
0000
0010
0000
1000
0000
0001
0000
0010
0001
1000
0000
,  // measure 37
1020
0000
0000
0000
0000
0000
0000
0000
0130
0000
0000
0000
0001
0000
0000
0000
1000
0000
0000
0000
0000
0000
0000
0000
0100
0000
0000
0000
0000
0010
0000
0000
0001
0000
0000
0000
0000
0000
0000
0000
1002
0000
0000
0000
0000
0000
0000
0000
1003
0000
0000
0000
0000
0000
0000
0000
1020
0000
0000
0000
0000
0130
0000
0000
,  // measure 38
0001
0001
0010
0100
1000
0001
0100
0010
,  // measure 39
1020
0000
0000
0000
0000
0000
0000
0000
0130
0000
0000
0000
0001
0000
0000
0000
1000
0000
0000
0000
0000
0000
0000
0000
0100
0000
0000
0000
0000
0010
0000
0000
0001
0000
0000
0000
0000
0000
0000
0000
1000
0000
0000
0000
0000
0000
0000
0000
0010
0000
0000
0000
0000
0000
0000
0000
0100
0000
0000
0000
0000
0001
0000
0000
,  // measure 40
1000
0000
1000
0001
0010
0000
0100
0000
1000
0000
0001
0000
0100
0001
1000
0000
,  // measure 41
1020
0000
0000
0000
0000
0000
0000
0000
0000
0000
0000
0000
0000
0000
0000
0000
0000
0000
0000
0000
0000
0000
0000
0000
0130
0000
0000
0000
0000
0000
0000
0000
0000
0000
0000
0000
0001
0000
0000
0000
0000
0000
0000
0000
0000
0000
0000
0000
1000
0000
0000
0000
0000
0000
0000
0000
0000
0000
0000
0000
0000
0000
0000
0000
0000
0000
0000
0000
0000
0000
0000
0000
0100
0000
0000
0000
0000
0000
0000
0000
0000
0000
0000
0000
2020
0000
0000
0000
3030
0000
0000
0000
0000
0000
0000
0000
0000
0000
0000
0000
0000
0000
0000
0000
0000
0000
0000
0000
0000
0000
0000
0000
0000
0000
0000
0000
0000
0000
0000
0000
2020
0000
0000
0000
3030
0000
0000
0000
0000
0000
0000
0000
0001
0000
0000
0000
0000
0000
0000
0000
0000
0000
0000
0000
0100
0000
0000
0000
0000
0000
0000
0000
0000
0000
0000
0000
0001
0000
0000
0000
0000
0000
0000
0000
0000
0000
0000
0000
0010
0000
0000
0000
0000
0000
0000
0000
0000
0000
0000
0000
0000
0000
0000
0001
0000
0000
0000
0000
0000
0000
0000
0000
,  // measure 42
1000
0010
0102
0013
2100
3010
0102
0013
,  // measure 43
21MM
0000
0000
3001
1000
0000
0100
0010
0001
0000
1000
0000
0010
0100
0000
0001
1MM0
0000
0000
0000
0100
0000
0000
0000
0012
0000
0000
0000
0103
0000
0000
0000
,  // measure 44
2010
0000
0000
0000
0000
0000
0000
0000
3100
0000
0000
0000
0000
0000
0000
0000
0012
0000
0000
0000
0000
0000
0000
0000
0103
0000
0000
0000
0000
0000
0000
0000
1020
0000
0000
0000
0000
0000
0000
0000
0000
0000
0000
0000
0130
0000
0000
0000
0001
0000
0000
0000
0000
0000
0000
0000
1000
0000
0000
0000
0000
0100
0000
0000
,  // measure 45
0010
0000
0000
0000
0000
0010
0000
0000
0001
0000
0000
0000
0000
0001
0000
0000
0100
0000
0000
0000
0010
0000
0000
0000
0100
0000
0000
0000
0000
0001
0000
0000
1000
0000
0000
0000
0000
0000
0000
0000
0100
0000
0000
0000
0000
0000
0000
0000
0012
0000
0000
0000
0000
0000
0000
0000
0103
0000
0000
0000
0000
0000
0000
0000
,  // measure 46
2010
0000
0000
0000
3100
0000
0000
0000
0012
0000
0000
0000
0103
0000
0000
0000
2M1M
0000
0000
3001
1000
0000
0001
0100
0010
0000
1000
0000
0001
0010
0000
0001
,  // measure 47
1MM0
0010
0102
0013
2100
3010
0102
0013
,  // measure 48
1200
0000
0000
0000
0000
0000
0000
0000
0000
0000
0000
0000
0310
0000
0000
0000
0001
0000
0000
0000
0000
0000
0000
0000
1000
0000
0000
0000
0000
0010
0000
0000
0100
0000
0000
0000
0000
0100
0000
0000
0001
0000
0000
0000
0000
0001
0000
0000
0010
0000
0000
0000
0100
0000
0000
0000
1000
0000
0000
0000
0000
0000
0000
0000
,  // measure 49
0002
0000
0000
0000
0000
0000
0000
0000
0000
0000
0000
0000
0000
0000
0000
0000
1003
0000
0000
0000
0000
0000
0000
0000
0010
0000
0000
0000
0000
0000
0000
0000
0000
0000
0000
0000
0000
1000
0000
0000
0001
0000
0000
0000
0000
0000
0000
0000
0010
0000
0000
0000
0000
0000
0000
0000
0001
0000
0000
0000
0000
0000
0000
0000
,  // measure 50
0000
0000
0000
0000
0000
1000
0000
0000
0010
0000
0000
0000
0000
0000
0000
0000
0100
0000
0000
0000
0000
0000
0000
0000
0010
0000
0000
0000
0000
0000
0000
0000
0000
0000
0000
0000
0000
1000
0000
0000
0001
0000
0000
0000
0000
0000
0000
0000
0100
0000
0000
0000
0000
0000
0000
0000
0001
0000
0000
0000
0000
0000
0000
0000
,  // measure 51
0020
0000
0000
0000
0230
0000
2300
0000
3002
0000
0000
0003
0201
0000
0310
0000
;

//---------------dance-single - Feraligatr----------------
#NOTEDATA:;
#CHARTNAME:Feraligatr SH;
#STEPSTYPE:dance-single;
#DESCRIPTION:Feraligatr;
#CHARTSTYLE:Pad;
#DIFFICULTY:Hard;
#METER:9;
#RADARVALUES:0.550256,0.621423,0.018430,0.672681,0.428488,418.000000,416.000000,2.000000,73.000000,11.000000,0.000000,0.000000,0.000000,0.000000,0.550256,0.621423,0.018430,0.672681,0.428488,418.000000,416.000000,2.000000,73.000000,11.000000,0.000000,0.000000,0.000000,0.000000;
#CREDIT:Feraligatr;
#DISPLAYBPM:62.000000:123.000000;
#NOTES:
0000
0000
0000
0000
,
0000
0000
0000
0000
,
0000
0000
0000
0000
,
0000
0000
0000
0000
,
1000
0000
1000
0000
0001
0100
0000
0100
0010
0000
1000
0001
0000
0010
0000
0100
,
2000
0000
3000
0000
0001
0100
0001
1000
0100
0000
0010
0001
0000
0001
1000
0000
,
0020
0000
0030
0000
0100
0001
1000
0000
0100
0000
0010
0001
0000
0001
1000
0000
,
0020
0000
0030
0000
0100
0001
1000
0000
0100
0000
1000
0001
0000
0001
0100
0000
,
0020
0000
0000
0030
0010
1000
0000
1000
0001
0000
0001
0010
0000
0010
0100
0000
,
2000
0000
0000
0000
3001
0100
0000
0100
0010
0000
0010
1000
0000
1000
0001
0000
,
0020
0000
0030
0000
0100
1000
0000
1000
0001
0000
0001
0100
0000
0100
0020
0000
,
1030
0000
0001
0000
0M00
0000
0000
0000
1000
0000
1000
0000
0001
0010
0001
0000
,
1000
0000
0010
0000
0100
0001
0100
0000
0020
0000
1030
0001
0010
0100
1000
0000
,
0001
0000
0100
0000
0001
1000
0001
1000
0200
0000
0310
0001
1000
0001
0200
0000
,
0310
1000
0001
1000
0200
0000
1300
0010
0000
0010
0100
0000
0001
1000
0001
0000
,
0010
0000
0200
0000
0300
0000
2000
0000
3001
0000
0001
0000
1000
0010
1000
0000
,
0001
0000
0010
0000
0100
1000
0100
0000
0020
0000
0031
1000
0010
0100
0001
0000
,
1000
0000
0100
0000
0010
0001
1000
0001
0200
0000
0310
1000
0001
1000
0200
0000
,
0310
0001
1000
0001
0200
0000
0301
0010
0000
0010
0100
0000
1000
0010
0100
0000
,
0001
0010
0000
0000
0001
0100
2000
3010
,
0002
0000
0103
0000
2000
0000
3010
0000
0M02
0000
1003
0010
0200
0000
0301
0000
,
10M0
0100
0002
0013
2000
3100
0002
0013
,
2000
0000
3001
1000
0020
0000
0130
0001
,
1000
0100
0002
0013
2000
3100
0002
0013
,
2M00
0000
3001
1000
0200
0000
0310
0000
M001
0000
0010
0000
2000
0000
3100
0000
,
0001
0010
2000
3100
0002
0000
1003
0001
,
0200
0000
0000
0000
0310
0000
1000
0000
0001
0000
0001
0000
1000
0100
0000
0100
,
0010
0000
0010
0001
0000
1000
0000
0010
0200
0000
0300
0000
0001
1000
0000
1000
,
0100
0000
0100
0010
0000
0001
0000
1000
0020
0000
0030
0000
0100
0001
0000
0001
,
1000
0000
0000
0000
1000
0000
0100
0000
0000
0000
0100
0000
0010
0000
0000
0000
0002
0000
0000
0000
0003
0000
0000
0000
1000
0000
0000
0001
0000
0000
0100
0000
,
0010
0000
0010
1000
0000
0001
0000
0010
0200
0000
0300
0000
1000
0000
0001
0000
,
0200
0000
0310
1000
0010
0000
0100
0000
0001
0000
1000
0000
0100
0000
1000
0000
,
0010
0000
0100
0001
1000
0000
0100
0000
0010
0000
0001
0000
0001
0000
1000
0000
,
0010
0000
0000
1000
0000
0000
0001
0000
0100
0000
0000
0000
0010
0000
0000
0000
100M
0000
0000
0000
0000
0000
0000
0100
0000
0000
0100
0000
0010
0000
0000
0000
,
M001
0001
1000
0100
0010
0100
1000
0001
,
0200
0000
0310
0100
0001
0000
1000
0000
0100
0000
1000
0000
0001
0000
0100
0000
,
0010
0000
1000
0001
0010
0000
0100
0000
1000
0000
0001
0000
0100
0010
1000
0000
,
0002
0000
0013
0100
1000
0000
0001
0000
0100
0000
0020
0000
0030
0000
2000
0000
,
3001
0001
0010
0100
0010
0001
1000
0010
,
0200
0000
0301
1000
0001
0000
0010
0000
0100
0000
1000
0000
0001
0000
0100
0000
,
0010
0000
1000
0001
0010
0000
0100
0000
1000
0000
0001
0000
0100
0010
1000
0000
,
0002
0000
0013
0100
1000
0000
0000
1001
0000
0000
1001
0000
0000
0000
0000
0000
,
1000
0010
0002
0103
2000
3010
0002
0103
,
20M0
0000
3001
1000
0020
0000
0130
0000
M001
0000
0100
0000
2000
0000
3010
0000
,
0002
0103
2000
3010
0002
0000
1003
0001
,
0020
0000
0000
0000
0130
1000
0001
0000
1000
0000
0010
0000
0002
0000
0103
0000
,
2000
0000
3010
0000
0002
0000
0103
0000
20M0
0000
3001
1000
0200
0000
0310
0000
,
M001
0100
2000
3010
0002
0103
2000
3010
,
0002
0000
0000
0000
1003
0000
0001
0000
0020
0000
0100
0000
0031
1000
0001
0000
,
2000
0000
3010
0100
0000
0100
0001
1000
,
0000
1000
0100
0010
0000
0010
0001
1000
,
0020
0000
2030
3002
0203
0000
0302
0013
;

//---------------dance-single - Feraligatr----------------
#NOTEDATA:;
#CHARTNAME:Feraligatr SM;
#STEPSTYPE:dance-single;
#DESCRIPTION:Feraligatr;
#CHARTSTYLE:Pad;
#DIFFICULTY:Medium;
#METER:7;
#RADARVALUES:0.417299,0.430216,0.027644,0.562103,0.161259,317.000000,314.000000,3.000000,61.000000,0.000000,0.000000,0.000000,0.000000,0.000000,0.417299,0.430216,0.027644,0.562103,0.161259,317.000000,314.000000,3.000000,61.000000,0.000000,0.000000,0.000000,0.000000,0.000000;
#CREDIT:Feraligatr;
#DISPLAYBPM:62.000000:123.000000;
#NOTES:
0000
0000
0000
0000
,
0000
0000
0000
0000
,
0000
0000
0000
0000
,
0000
0000
0000
0000
,
1001
0000
1000
0000
0010
0100
0000
0000
0010
0000
0000
1000
0001
0000
0010
0000
,
0100
0000
0000
0000
1000
0000
0000
0020
0000
0030
0020
0000
0130
0000
0000
0000
,
0001
0000
0001
0000
1000
0100
0000
0000
0010
0000
0000
0100
1000
0000
0010
0000
,
0100
0000
0000
0000
0001
0000
0000
2000
0000
3000
2000
0000
3100
0000
0000
0000
,
0010
0000
0010
0000
0001
1000
0000
0000
0010
0000
0000
0100
0001
0000
0010
0000
,
0100
0000
0000
0000
1000
0000
0000
0002
0000
0003
0002
0000
0103
0000
0000
0000
,
0010
0000
0010
0000
1000
0001
0000
0000
0010
0000
0000
0100
1000
0000
0010
0000
,
0100
0000
0000
0000
0001
0001
1000
0000
,
0001
0010
0001
0100
0010
0000
1000
0000
,
0001
0000
0010
0000
0000
0100
0000
0000
1000
0000
1000
0000
0001
0000
0000
0000
,
0100
0010
1000
0100
0010
0000
0001
0000
,
1000
0020
0030
0200
0301
0001
1000
0000
,
0010
0100
0001
0010
0100
0000
1000
0000
,
0001
0000
0100
0000
0000
0010
0000
0000
1000
0000
1000
0000
0001
0000
0000
0000
,
0010
0100
1000
0010
0100
0000
0001
0000
,
1000
0010
0000
0000
1000
0100
0020
0130
,
0002
0000
0103
0000
0020
0000
0130
0000
2000
0000
3001
0100
0020
0000
1030
0000
,
0001
0100
0020
0130
2000
3100
0020
0130
,
0002
0000
1003
0001
0020
0000
0130
0000
,
1000
0010
0200
0310
0002
0013
0200
0310
,
2000
0000
3001
0010
0200
0000
1300
0000
0001
0000
0010
0000
0200
0000
0310
0000
,
2000
3010
0200
0310
0002
0000
1003
0001
,
0200
0000
0000
0000
0310
0000
0000
0000
1000
0000
1000
0000
0001
0010
0000
0000
,
0100
0000
0000
0010
0001
0000
0100
0000
0010
0000
0000
0000
1000
0000
0000
0002
,
0000
0003
0002
0000
0003
0100
0000
0000
0010
0000
0010
0000
1000
0001
0000
0000
,
0010
0000
0000
0100
1000
0000
0010
0000
0100
0000
0000
0000
0001
0000
0000
2000
,
0000
3000
2000
0000
3000
0000
0000
0000
0001
0000
0001
0000
0100
0001
0000
0000
,
1000
0000
0000
0100
1000
0000
0010
0000
0100
0000
0000
0000
0001
0000
0000
2000
,
0000
3000
2000
0000
3000
0100
0000
0000
0010
0000
0010
0000
0001
1000
0000
0000
,
0010
0000
0000
0000
0000
0000
0100
0000
0001
0000
0000
0000
0010
0000
0000
0000
0100
0000
0000
0000
0000
0000
0000
1000
0000
0000
1000
0000
0010
0000
0000
0000
,
0100
0100
0001
0000
1000
0100
1000
0010
,
0100
0000
0000
0000
0001
0000
0000
0000
1000
0000
0100
0000
0000
0010
0000
0000
,
0001
0001
1000
0000
0010
0100
0001
0010
,
0100
0000
1000
0000
0001
0200
0300
0020
,
1030
1000
0001
0000
0100
0010
1000
0100
,
0010
0000
0000
0000
0100
0000
0000
0000
1000
0000
0001
0000
0000
0100
0000
0000
,
0010
0010
1000
0000
0001
0010
0001
0100
,
0010
0000
0000
0000
1000
0000
0000
1001
0000
0000
1001
0000
0000
0000
0000
0000
,
0001
0100
0020
0130
2000
3100
0020
0130
,
0002
0000
1003
0100
0020
0000
0031
0000
1000
0000
0010
0000
0200
0000
0310
0000
,
0002
0013
0200
0310
2000
0000
3001
1000
,
0200
0000
0310
0000
0001
0010
0200
0310
,
2000
0000
3010
0000
0200
0000
0310
0000
0002
0000
1003
0010
0200
0000
0301
0000
,
1000
0100
0020
0130
0002
0103
0020
0130
,
2000
0000
3001
1000
0020
0000
0130
0000
,
0002
0000
1003
0100
0000
0010
0001
0010
,
0000
0001
1000
0001
0000
1000
0010
1000
,
0200
0000
0320
0032
2003
0000
3010
0100
;

//---------------dance-single - Feraligatr----------------
#NOTEDATA:;
#CHARTNAME:Feraligatr SE;
#STEPSTYPE:dance-single;
#DESCRIPTION:Feraligatr;
#CHARTSTYLE:Pad;
#DIFFICULTY:Easy;
#METER:4;
#RADARVALUES:0.231687,0.238433,0.000000,0.184296,0.004607,176.000000,176.000000,0.000000,20.000000,0.000000,0.000000,0.000000,0.000000,0.000000,0.231687,0.238433,0.000000,0.184296,0.004607,176.000000,176.000000,0.000000,20.000000,0.000000,0.000000,0.000000,0.000000,0.000000;
#CREDIT:Feraligatr;
#DISPLAYBPM:62.000000:123.000000;
#NOTES:
0000
0000
0000
0000
,
0000
0000
0000
0000
,
0000
0000
0000
0000
,
0000
0000
0000
0000
,
1000
0010
0100
0001
,
0010
0100
0000
0100
,
1000
0001
0100
0001
,
0010
0100
0000
0100
,
2000
3001
0100
0010
,
2000
3001
0000
0001
,
0020
0030
0100
0000
0010
0000
0001
0000
,
0100
0000
0001
1000
,
0001
0010
0100
1000
,
0000
1000
0001
0100
,
0010
0100
0001
1000
,
0000
1000
0100
0010
,
0001
1000
0010
0100
,
0000
0100
0001
1000
,
0100
0010
0001
1000
,
0000
0000
0001
0100
,
0010
0000
0100
0000
0002
0003
0002
0003
,
1000
0100
0010
0100
,
2000
0000
3000
0000
0001
0100
0001
0000
,
1000
0010
0100
0010
,
2000
3000
2000
3000
0001
0000
0010
0000
,
0100
0010
0002
0003
,
1000
0010
1000
0000
0001
0000
0010
0000
,
0100
1000
0001
0100
,
0000
0100
0010
1000
,
0001
0010
0100
1000
,
0000
1000
0001
0100
,
0010
0100
0001
1000
,
0000
1000
0100
0010
,
0001
0000
1000
0000
0010
0000
0100
0001
,
1000
0100
0010
0001
,
1000
0010
0000
0010
,
0100
0001
1000
0100
,
0010
0001
0000
0001
,
1000
0010
0100
0001
,
1000
0100
0000
0100
,
0010
0100
1000
0001
,
0100
0000
0000
0000
0010
0000
0000
1000
0000
0000
1000
0000
0000
0000
0000
0000
,
0001
0010
0100
0010
,
0002
0003
0002
0003
1000
0000
0010
0000
,
0100
0010
2000
3000
,
0001
0010
0001
0000
1000
0000
0100
0000
,
0010
0000
0100
0000
2000
3000
2000
3000
,
0001
0100
0010
0100
,
0002
0000
0003
0000
1000
0100
1000
0000
,
0002
0103
0000
0100
,
0000
0010
0000
0010
,
2000
0000
3002
0023
0032
0000
1003
0000
;

//---------------dance-single - Feraligatr----------------
#NOTEDATA:;
#CHARTNAME:Feraligatr SB;
#STEPSTYPE:dance-single;
#DESCRIPTION:Feraligatr;
#CHARTSTYLE:Pad;
#DIFFICULTY:Beginner;
#METER:1;
#RADARVALUES:0.106628,0.190746,0.000000,0.046074,0.004607,81.000000,81.000000,0.000000,5.000000,0.000000,0.000000,0.000000,0.000000,0.000000,0.106628,0.190746,0.000000,0.046074,0.004607,81.000000,81.000000,0.000000,5.000000,0.000000,0.000000,0.000000,0.000000,0.000000;
#CREDIT:Feraligatr;
#DISPLAYBPM:62.000000:123.000000;
#NOTES:
0000
0000
0000
0000
,
0000
0000
0000
0000
,
0000
0000
0000
0000
,
0000
0000
0000
0000
,
1000
0000
0000
0000
,
0010
0000
0000
0000
,
0100
0000
0000
0000
,
0001
0000
0000
0000
,
2000
3000
0000
0000
,
0200
0300
0000
0000
,
0020
0030
0000
0000
0000
0000
0000
0000
,
0001
0000
1000
0000
,
0000
0000
0010
0000
,
0000
0000
0100
0000
,
0000
0000
0001
0000
,
0000
0000
1000
0000
,
0000
0000
0100
0000
,
0000
0000
0010
0000
,
0000
0000
0100
0000
,
0000
0000
1000
0100
,
1000
0100
1000
0000
,
0001
0100
0001
0100
,
0001
0000
0000
0000
,
1000
0010
1000
0010
,
1000
0000
0001
0010
,
0001
0010
0001
0000
,
0000
0000
1000
0000
,
0000
0000
0010
0000
,
0000
0000
0100
0000
,
0000
0000
0001
0000
,
0000
0000
1000
0000
,
0000
0000
0100
0000
,
0000
0000
0010
0000
,
0000
0000
0100
0000
,
1000
0000
0000
0000
,
0001
0000
0000
0000
,
0100
0000
0000
0000
,
0010
0000
0000
0000
,
0100
0000
0000
0000
,
0001
0000
0000
0000
,
1000
0000
0000
0000
,
0100
0000
0000
0000
0000
0000
0000
0010
0000
0000
0010
0000
0000
0000
0000
0000
,
0001
1000
0001
1000
,
0001
0000
0100
0010
,
0100
0010
0100
0000
,
0000
0000
0001
0010
,
0001
0010
0001
0000
,
1000
0100
1000
0100
,
1000
0000
0000
0000
,
0020
0130
0000
0100
,
0000
0100
0000
0100
,
0002
0000
0000
0013
;
