#TITLE:WAWA;
#SUBTITLE:;
#ARTIST:Party Favor;
#TITLETRANSLIT:;
#SUBTITLETRANSLIT:;
#ARTISTTRANSLIT:;
#GENRE:;
#CREDIT:;
#BANNER:WAWA-bn.png;
#BACKGROUND:WAWA-bg.png;
#LYRICSPATH:;
#CDTITLE:maxx-cdtitle.png;
#MUSIC:WAWA.ogg;
#OFFSET:-0.120000;
#SAMPLESTART:69.722000;
#SAMPLELENGTH:12.800000;
#SELECTABLE:YES;
#DISPLAYBPM:75.000000:150.000000;
#BPMS:0.000000=75.000000
,8.000000=84.375000
,9.250000=93.750000
,10.500000=103.125000
,11.500000=112.500000
,13.500000=121.875000
,15.000000=131.250000
,16.750000=140.625000
,18.000000=150.000000
,20.500000=159.375000
,22.500000=168.750000
,25.000000=178.125000
,26.750000=187.500000
,30.000000=196.875000
,32.500000=206.250000
,35.250000=215.625000
,37.500000=225.000000
,41.000000=150.000000
,88.000000=225.000000
,88.750000=75.000000
,89.000000=150.000000
,266.000000=131.250000
,267.500000=112.500000
,269.000000=93.750000
,270.000000=75.000000
;
#STOPS:
;
#BGCHANGES:;
#KEYSOUNDS:;
#ATTACKS:;

//---------------dance-single - Maxx----------------
#NOTES:
     dance-single:
     Maxx:
     Challenge:
     12:
     0.830410,0.989266,0.050694,0.270366,0.996975,688.000000,682.000000,6.000000,32.000000,121.000000,0.000000,0.830410,0.989266,0.050694,0.270366,0.996975,688.000000,682.000000,6.000000,32.000000,121.000000,0.000000:
0000
0000
0000
0000
,
0000
0000
0000
0000
,
0002
0000
0000
0000
0000
2003
0000
0000
0000
0000
3200
0000
0000
0000
0320
0000
,
0000
M000
M000
M032
0000
0000
2003
0M00
,
0M00
0000
0M00
3020
0000
0000
0000
0000
0230
0000
000M
0000
000M
0000
000M
0000
,
0000
0302
0000
00M0
00M0
20M3
0000
0000
,
0000
0000
0000
0000
3200
0000
000M
0000
000M
0000
000M
0320
0000
0000
0000
0000
,
M000
M000
M000
M000
M032
0000
0M00
0M00
,
0M00
0000
2M03
0000
0M00
0000
0M00
0000
0M00
0000
0M00
0000
0M00
3020
000M
0000
,
000M
000M
000M
023M
M00M
M00M
M00M
M00M
,
M000
0000
0301
1000
0100
0010
0001
0100
,
0010
1000
0001
0010
0001
0100
0010
1000
,
0010
1000
0001
0010
0100
1000
0010
0100
,
0010
1000
0100
0010
0100
1000
0001
0100
,
0001
0100
0010
0010
1000
1000
0001
1000
,
0100
0000
0010
0001
1000
0000
1000
0000
0010
0000
0010
0000
0100
0000
0001
0000
,
1000
0000
0001
1000
0001
0010
0001
0010
0100
1000
0100
1000
0001
0100
0001
0100
,
0010
0000
1000
0000
0010
0000
1000
0000
0004
0003
0000
0000
0001
0000
1000
0000
0400
0300
0000
0000
0100
0000
0010
0000
0004
0003
0000
0000
4000
3000
0000
0000
,
0040
0030
0000
0000
0400
0300
0000
0000
0001
0000
1000
0000
0100
0000
0000
0000
0100
0000
0000
0000
0100
0000
0000
0000
0100
0000
0000
0000
1000
0000
0010
0000
,
0100
0010
1000
0000
0001
1000
0100
0000
0100
0000
0100
0000
0100
0000
1000
0010
,
0100
0010
1000
0000
0001
1000
0010
0000
0010
0000
0010
0000
0010
0000
1000
0100
,
0010
0100
1000
0000
0001
1000
0010
0000
0010
0000
0010
0000
0200
0000
0000
0300
,
1001
0000
0000
0000
0001
1000
0100
0000
0001
0000
MMM1
0000
0010
0000
0001
0100
,
0010
0100
0001
0000
1000
0001
0100
0000
1000
0000
1MMM
0000
0010
0000
1000
0100
,
0010
0100
1000
0000
0001
1000
0100
0000
0001
0000
MMM1
0000
0010
0000
0001
0100
,
0010
0100
0001
0000
1000
0001
0100
0000
1000
0000
1MMM
0000
0010
0100
0010
0100
,
0001
1000
0001
1000
0100
0010
0001
0000
0100
0000
M1MM
0000
1000
0000
0001
0010
,
0100
0010
0001
0000
1000
0001
0100
0000
0010
0000
MM1M
0000
0001
0000
1000
0010
,
0100
0010
1000
0000
0001
1000
0010
0000
0100
0000
M1MM
0000
1000
0000
0001
0010
,
0100
0010
0001
0000
1000
0001
0100
0000
0010
0000
MM1M
0000
0001
0000
1000
0010
,
0100
0010
0100
0001
1000
0100
0010
0000
0001
0000
0100
0000
M1MM
0000
1000
0010
,
0100
0010
1000
0000
0001
0010
0100
0000
1000
0000
0010
0000
MM1M
0000
0001
0100
,
0010
0100
0010
1000
0100
0010
0001
0000
1000
0000
0100
0000
M1MM
0000
0001
0100
,
0010
0100
0001
0000
1000
0100
0010
0000
0001
0000
1000
0000
0020
0000
0000
0030
,
1001
0000
0000
0001
1000
0001
0100
0000
0010
0000
1000
0000
1MMM
0000
0100
0010
,
0100
0010
1000
0000
0001
1000
0010
0000
0100
0000
0001
0000
MMM1
0000
0100
0010
,
0100
0010
0001
0000
1000
0001
0100
0000
0010
0000
1000
0000
1MMM
0000
0100
0010
,
0100
0010
1000
0000
0001
1000
0010
0000
0100
0000
0001
0000
MMM1
0000
0100
0010
,
0100
0010
0001
0000
1000
0010
0100
0001
1000
0000
0001
0000
0010
0000
0100
0000
,
1000
0001
0100
0000
0010
0000
0100
0001
1000
0000
0100
0000
0010
0000
0001
0000
,
1000
0010
0100
0000
0004
1003
0100
0010
0004
1003
0010
0100
0001
0010
0001
1000
,
0001
0100
0010
1000
0001
0010
0001
0010
0100
1000
0100
1000
0020
0000
0000
0000
,
0130
0000
0001
0000
1001
1000
0100
1000
0010
0100
0010
1000
0001
0010
0001
0100
,
0010
1000
0001
1000
0100
0010
0001
1000
0001
0100
0010
1000
0001
0010
0100
01M0
,
0001
1000
0100
01M0
0001
1000
0100
1000
0010
0100
0010
1000
0001
0010
0001
0100
,
0010
1000
0001
1000
0100
0010
0100
1000
0001
0100
0010
1000
0001
1000
0100
M100
,
0001
1000
0100
M100
0001
1000
0001
0010
0100
1000
0001
0100
0010
1000
0100
1000
,
0010
0100
0010
1000
0001
0100
0001
1000
0100
0010
0100
1000
0001
0100
0010
0M10
,
0001
1000
0010
0M10
0001
1000
0100
1000
0010
0100
0001
1000
0100
0010
0100
1000
,
0010
0100
0001
1000
0001
0010
0001
0100
0010
1000
0001
1000
0100
0010
0100
0010
,
0002
0000
1003
0000
1001
0001
1000
0010
0100
0100
01M0
0001
1000
0100
0010
0M10
,
1000
0001
0100
010M
1000
0010
M010
0010
1000
0001
0010
0100
1000
0001
0100
010M
,
1000
0001
0100
010M
1000
0001
0010
0001
0100
0100
01M0
0001
1000
0100
0010
0M10
,
1000
0001
0100
010M
1000
0001
0100
0001
1000
0100
0010
0100
1000
0001
0100
01M0
,
1000
0001
0100
M100
1000
0001
1000
0001
0100
010M
0100
0001
1000
0001
0010
001M
,
1000
0001
0100
010M
1000
0010
0010
001M
1000
0001
0100
010M
1000
0001
0010
001M
,
1000
0001
0100
010M
1000
0000
0001
0000
1000
0100
M100
0100
1000
0010
M010
0001
,
1000
0001
0100
010M
1000
0010
0100
0000
0001
1000
0001
1000
0100
0010
0001
0000
,
1000
0010
0000
0000
1001
0000
0001
0100
0010
0000
2000
0000
0000
3001
1000
0000
,
0010
0000
0100
0000
0001
1000
0001
0000
1000
0000
0001
1000
0100
0010
0001
1000
,
0010
0000
0000
0000
1001
0000
1000
0100
0010
0000
0002
0000
0000
1003
0001
0000
,
1000
0000
0001
0000
0010
0100
1000
0000
0001
0100
0001
0100
0020
0000
0000
1030
,
0001
0000
0000
0000
2000
0000
0100
0000
3002
0000
0100
0000
1003
0010
0200
0000
,
0001
0000
0310
1000
0002
0000
1000
0000
0013
0000
1000
0001
1000
0100
0020
0000
,
0001
0000
0130
1000
0002
0000
0100
0000
1003
0000
0010
0100
0010
1000
0002
0000
,
0010
0000
1003
0100
0010
0100
2000
0000
0010
0000
3001
0000
0200
0000
0000
0000
,
0000
0000
0300
0000
00M0
0000
0000
00M0
,
0000
00M0
00M0
00M0
,
0000
0000
0000
0000
0000
0000
0000
00M0
;

//---------------dance-single - Feraligatr----------------
#NOTES:
     dance-single:
     Feraligatr SH:
     Hard:
     11:
     0.802650,0.960169,0.067592,0.033796,1.022322,665.000000,657.000000,8.000000,4.000000,30.000000,0.000000,0.802650,0.960169,0.067592,0.033796,1.022322,665.000000,657.000000,8.000000,4.000000,30.000000,0.000000:
// measure 0
0000
0000
0000
0000
,  // measure 1
0000
0000
0000
0000
,  // measure 2
M000
0000
0000
0000
0000
0M00
0000
0000
0000
0000
00M0
0000
0000
0000
000M
0000
,  // measure 3
0000
0000
0000
M000
0000
0000
00M0
0000
,  // measure 4
0000
0000
0000
0M00
0000
0000
0000
0000
000M
0000
0000
0000
0000
0000
0000
0000
,  // measure 5
0000
M000
0000
0000
0000
0M00
0000
0000
,  // measure 6
0000
0000
0000
0000
00M0
0000
0000
0000
0000
0000
0000
000M
0000
0000
0000
0000
,  // measure 7
0000
0000
M000
0000
,  // measure 8
0000
0000
00M0
0000
0000
0000
0000
0000
0000
0000
0000
0000
0000
0M00
0000
0000
,  // measure 9
0000
0000
0000
000M
0000
0000
0000
0000
,  // measure 10
0000
0000
1000
0001
0100
0001
0010
0100
,  // measure 11
0010
0001
0100
0010
1000
0100
1000
0001
,  // measure 12
0100
0001
0010
0100
0010
0001
0100
0010
,  // measure 13
0100
0001
0010
0100
1000
0010
0100
0001
,  // measure 14
1000
0100
0010
0001
0010
0001
1000
0010
,  // measure 15
1000
0000
0010
0100
0001
0000
0100
0000
0001
0000
0100
0000
0010
0000
1000
0000
,  // measure 16
0010
0000
1000
0001
0010
0100
1000
0001
0100
0001
1000
0100
0010
0100
1000
0001
,  // measure 17
1000
0010
0100
0001
0040
0030
0100
1000
0040
0030
0100
0001
4000
3000
0400
0300
,  // measure 18
0040
0030
0004
0003
1000
0010
0100
0000
0100
0000
0100
0000
0100
0000
0001
1000
,  // measure 19
0001
1000
0100
0000
1000
0010
0100
0000
0100
0000
0100
0000
0100
0000
0001
1000
,  // measure 20
0001
1000
0100
0000
1000
0010
0100
0000
0100
0000
0100
0000
0100
0000
0001
1000
,  // measure 21
0001
1000
0100
0000
1000
0010
0100
0000
0100
0000
0100
0000
0200
0000
0000
0000
,  // measure 22
030M
0000
0000
0000
0001
1000
0100
0000
0100
0000
0100
0000
0010
0000
0001
1000
,  // measure 23
0001
1000
0010
0000
0100
0001
1000
0000
1000
0000
1000
0000
0100
0000
0010
0001
,  // measure 24
0010
0001
1000
0000
0001
0100
0010
0000
0010
0000
0010
0000
1000
0000
0001
0010
,  // measure 25
0001
0010
0100
0000
1000
0001
0100
0000
0100
0000
0100
0000
0001
1000
0001
0100
,  // measure 26
0001
1000
0001
0010
0100
1000
0010
0000
0010
0000
0010
0000
0100
0000
0001
1000
,  // measure 27
0001
1000
0100
0000
0010
0001
1000
0000
1000
0000
1000
0000
0010
0000
0100
0001
,  // measure 28
0100
0001
1000
0000
0100
0010
0001
0000
0001
0000
0001
0000
1000
0000
0001
0100
,  // measure 29
0001
0100
0010
0000
1000
0001
0010
0000
0010
0000
0010
0000
0100
0000
1000
0001
,  // measure 30
1000
0001
0100
0000
0010
1000
0001
0000
0001
0000
0001
0000
0010
0000
0100
1000
,  // measure 31
0100
1000
0001
0000
0100
0010
1000
0000
1000
0000
1000
0000
0100
0000
0010
0001
,  // measure 32
0010
0001
1000
0000
0010
0100
0001
0000
0001
0000
0001
0000
1000
0000
0100
0010
,  // measure 33
0100
0010
0001
0000
1000
0010
0100
0000
0100
0000
0100
0000
0002
0000
0000
0000
,  // measure 34
0003
0000
0000
1000
0100
0010
0001
0000
0001
0000
0001
0000
1000
0000
0001
0100
,  // measure 35
0001
0100
0010
0000
1000
0001
0010
0000
0010
0000
0010
0000
0100
0000
1000
0001
,  // measure 36
1000
0001
0100
0000
0010
1000
0001
0000
0001
0000
0001
0000
0010
0000
0100
1000
,  // measure 37
0100
1000
0001
0000
0100
0010
1000
0000
1000
0000
1000
0000
0001
0000
0010
0100
,  // measure 38
0010
0100
1000
0000
0001
0100
0010
1000
0100
0000
0010
0000
0001
0000
1000
0000
,  // measure 39
0010
0100
0001
0000
1000
0000
0100
0010
0001
0000
1000
0000
0010
0000
0100
0000
,  // measure 40
0001
1000
0100
0000
0010
0001
1000
0001
0100
0010
0100
0001
0010
0100
1000
0001
,  // measure 41
0100
0001
0010
0100
1000
0001
0100
0001
1000
0100
0010
0001
0100
0000
0000
0000
,  // measure 42
0000
0000
0000
0000
0001
1000
0100
1000
0001
0100
0001
1000
0100
0010
0001
1000
,  // measure 43
0010
0000
0100
0000
0001
0000
1000
0000
0100
0000
1000
0000
0001
0000
0100
0000
0010
0000
1000
0000
0001
0000
0010
0000
0100
0000
1000
0000
0100
00M0
0100
0000
,  // measure 44
0001
0000
1000
0000
0100
00M0
0100
0000
0001
0000
1000
0000
0010
0000
0100
0000
0001
0000
1000
0000
0100
0000
1000
0000
0001
0000
0100
0000
0010
0000
1000
0000
,  // measure 45
0001
0000
0010
0000
0100
0000
1000
0000
0001
0000
0100
0000
0001
0000
1000
0000
0100
0000
0010
0000
0100
0000
1000
0000
0001
0000
1000
0000
0100
00M0
0100
0000
,  // measure 46
0001
0000
1000
0000
0100
00M0
0100
0000
0001
0000
0100
0000
0010
0000
1000
0000
0001
0000
0010
0000
0001
0000
1000
0000
0010
0000
0100
0000
0001
0000
1000
0000
,  // measure 47
0100
0000
1000
0000
0001
0000
0100
0000
0001
0000
1000
0000
0100
0000
0010
0000
0001
0000
1000
0000
0010
0000
0100
0000
0001
0000
1000
0000
0100
00M0
0100
0000
,  // measure 48
0001
0000
1000
0000
0100
00M0
0100
0000
0001
0000
1000
0000
0100
0000
0010
0000
0001
0000
1000
0000
0010
0000
0100
0000
0001
0000
1000
0000
0100
0000
1000
0000
,  // measure 49
0001
0100
0010
1000
0001
0010
0100
0010
0001
1000
0010
0100
0010
1000
0001
0010
,  // measure 50
0100
0000
0000
0000
1000
0001
0100
0001
1000
0100
0010
0100
1000
0001
0100
0010
,  // measure 51
1000
0000
0001
0000
0010
0000
0100
0000
1000
0000
0001
0000
0100
0000
0001
0000
1000
0000
0100
0000
0010
0000
0001
0000
1000
0000
0001
0000
0100
00M0
0100
0000
,  // measure 52
1000
0000
0001
0000
0100
00M0
0100
0000
1000
0000
0001
0000
1000
0000
0100
0000
0010
0000
0001
0000
1000
0000
0010
0000
0100
0000
0001
0000
1000
0000
0001
0000
,  // measure 53
0010
0000
0100
0000
1000
0000
0001
0000
0100
0000
0010
0000
1000
0000
0001
0000
0010
0000
0100
0000
0010
0000
0001
0000
1000
0000
0001
0000
0100
00M0
0100
0000
,  // measure 54
1000
0000
0001
0000
0100
00M0
0100
0000
1000
0000
0001
0000
0100
0000
0001
0000
1000
0000
0100
0000
0010
0000
0001
0000
1000
0000
0001
0000
0100
0000
0010
0000
,  // measure 55
1000
0000
0001
0000
0010
0000
0100
0000
0010
0000
0001
0000
1000
0000
0010
0000
1000
0000
0001
0000
0010
0000
0100
0000
1000
0000
0001
0000
0100
00M0
0100
0000
,  // measure 56
1000
0000
0001
0000
0100
00M0
0100
0000
1000
0000
0000
0000
0010
0000
0000
0000
1000
0000
0001
0000
1000
0000
0100
0000
0010
0000
0001
0000
1000
0000
0001
0000
,  // measure 57
0100
0010
1000
0001
1000
0100
0010
0000
0001
1000
0010
0100
0001
0010
0100
0000
,  // measure 58
1000
0001
0000
0000
0101
0000
1000
0000
1100
0000
0001
0000
0101
0000
1000
0000
,  // measure 59
1100
0000
0001
0000
0010
0100
1000
0000
1000
0000
0001
0100
0010
1000
0100
0010
,  // measure 60
0001
0000
0011
1000
1010
0001
0011
1000
,  // measure 61
1010
0000
0001
0000
1000
0010
0100
0000
0001
1000
0100
1000
0020
0000
0000
0130
,  // measure 62
0001
0000
0000
0000
1000
0000
0001
0000
0100
0000
0001
0000
0010
0100
1000
0000
,  // measure 63
0001
0000
0100
0010
1000
0000
0001
0000
1000
0000
0100
0010
0001
0100
0010
0000
,  // measure 64
1000
0000
0001
0010
0100
0000
1000
0000
0001
0000
1000
0010
0100
0001
0010
0000
,  // measure 65
0100
0000
1000
0001
0100
0010
1000
0000
1000
0000
1000
0000
0002
0000
0000
0000
,  // measure 66
0003
0000
0000
0000
,  // measure 67
0000
0000
0000
0000
,  // measure 68
0000
0000
0000
0000
0000
0000
0000
0M00
;

//---------------dance-single - Feraligatr----------------
#NOTES:
     dance-single:
     Feraligatr SM:
     Medium:
     8:
     0.505730,0.611070,0.160530,0.016898,0.118285,419.000000,400.000000,19.000000,2.000000,16.000000,0.000000,0.505730,0.611070,0.160530,0.016898,0.118285,419.000000,400.000000,19.000000,2.000000,16.000000,0.000000:
0000
0000
0000
0000
,
0000
0000
0000
0000
,
M000
0000
0000
0000
0000
0M00
0000
0000
0000
0000
00M0
0000
0000
0000
000M
0000
,
0000
0000
0000
M000
0000
0000
00M0
0000
,
0000
0000
0000
0M00
0000
0000
0000
0000
000M
0000
0000
0000
0000
0000
0000
0000
,
0000
M000
0000
0000
0000
0M00
0000
0000
,
0000
0000
0000
0000
00M0
0000
0000
0000
0000
0000
0000
000M
0000
0000
0000
0000
,
0000
0000
M000
0000
,
0000
0000
00M0
0000
0000
0000
0000
0000
0000
0000
0000
0000
0000
0M00
0000
0000
,
0000
0000
0000
000M
0000
0000
0000
0000
,
0000
0000
1000
0100
1000
0001
0100
0010
,
1000
0001
0010
0100
0010
0001
1000
0010
,
0100
0001
1000
0100
1000
0001
0100
0010
,
1000
0001
0010
0100
1000
0001
0100
0010
,
0100
0001
1000
0100
1000
0001
0100
0010
,
1000
0001
1000
0100
0010
0001
1000
0010
,
0100
0001
0040
0000
0000
0000
0000
0000
,
0000
0000
0000
0000
0130
0000
1000
0001
0100
0000
0010
1000
0001
0000
0010
0000
,
0100
1000
0001
0000
0000
0000
0000
0000
,
0000
0000
0000
0000
,
0000
0000
0000
0000
,
0000
0000
0000
0000
,
0000
0000
1001
1000
0100
0100
0100
0010
,
0001
1000
0010
0100
0001
0001
0001
1000
,
0100
1000
0001
0100
0010
0010
0010
1000
,
0001
0010
0100
1000
0001
0001
0002
0000
,
0003
0000
1000
0100
0010
0010
0010
0001
,
1000
0010
0100
0001
1000
1000
1000
0100
,
0010
0001
1000
0010
0100
0100
0100
0001
,
1000
0100
1000
0001
0100
0100
0100
0010
,
1000
0001
0010
0100
1000
1000
1000
0001
,
0100
0010
1000
0001
0010
0010
0010
0100
,
1000
0001
0100
0010
1000
1000
1000
0001
,
0010
0100
0010
0001
1000
1000
2000
0000
,
3000
0000
0001
0100
0010
0010
0010
1000
,
0001
1000
0100
0010
0001
0001
0001
1000
,
0010
0100
0001
1000
0100
0100
0100
0010
,
0001
1000
0010
0100
0001
0001
0001
1000
,
0100
1000
0001
0100
0010
1000
0001
0010
,
0001
0100
0010
1000
0100
1000
0001
0100
,
0001
1000
0100
0010
0001
0100
0010
1000
,
0100
0010
0001
0100
0010
1000
0100
0000
,
0000
0000
0000
0000
0011
0000
0000
0001
1000
0000
0010
0000
0000
0100
0001
0000
,
1000
0000
0000
0001
0010
0000
0000
0001
0010
0000
0100
0000
0000
1000
0001
0000
,
0100
0000
0000
0000
1010
0000
0000
1000
0001
0000
0010
0000
0000
0100
1000
0000
,
0001
0000
0000
0100
0010
0000
1000
0001
0100
0000
0010
1000
0001
0000
0010
0100
,
1000
0000
0001
0000
0101
0000
0000
0100
0010
0000
1000
0000
0000
0001
0010
0000
,
0100
0000
0000
1000
0001
0000
0000
1000
0001
0000
0100
0000
0000
0010
1000
0000
,
0001
0000
0000
0000
0011
0000
0000
0010
0100
0000
1000
0000
0000
0001
0100
0000
,
0010
0000
0000
1000
0001
0000
0010
0100
1000
0000
0001
0100
0010
0000
1000
0000
,
0100
0000
0011
0001
1000
0001
0100
0010
,
0100
0101
1000
0100
1001
0001
0100
0010
,
1000
0001
0011
0100
1000
1100
0001
0100
,
0010
0110
1000
0001
1000
0010
0100
0001
,
1000
0100
1100
0001
0100
0010
1000
0001
,
0010
0110
1000
0001
0101
0100
0010
1000
,
0001
0010
0110
0001
1000
1100
0100
0010
,
0001
1001
1000
0010
0100
0001
0010
0100
,
1000
0000
1001
0001
1000
0100
0010
0001
,
1000
0000
0010
0000
0100
0000
0001
0000
1000
0000
0100
0000
0010
0000
0001
0100
,
0010
0000
1001
0001
1000
0010
0100
0001
,
1000
0100
1000
0001
0100
0010
1000
0001
,
0010
0000
0100
1000
0100
1000
0001
0100
,
0010
1000
0001
0010
0100
1000
0001
0100
,
0010
1000
0001
1000
0100
0010
0100
1000
,
0001
0100
0010
1000
0100
0010
0001
0000
;

//---------------dance-single - Feraligatr----------------
#NOTES:
     dance-single:
     Feraligatr SE:
     Easy:
     4:
     0.231742,0.306697,0.042245,0.042245,0.000000,192.000000,187.000000,5.000000,5.000000,0.000000,0.000000,0.231742,0.306697,0.042245,0.042245,0.000000,192.000000,187.000000,5.000000,5.000000,0.000000,0.000000:
0000
0000
0000
0000
,
0000
0000
0000
0000
,
0000
0000
0000
0000
,
0000
0000
0000
0000
,
0000
0000
0000
0000
,
0000
0000
0000
0000
,
0000
0000
0000
0000
,
0000
0000
0000
0000
,
0000
0000
0000
0000
,
0000
0000
0000
0000
,
0000
1000
0010
0100
,
0001
0010
0100
1000
,
0000
0001
0100
0010
,
1000
0100
0010
0001
,
0000
1000
0010
1000
,
0100
0010
0001
1000
,
0010
0200
0001
0001
,
0301
0000
1000
0000
1000
0000
1000
0001
,
1000
0100
0010
0000
0000
0000
0000
0000
,
0000
0000
0000
0000
,
0000
0000
0000
0000
,
0000
0000
0000
0000
,
0000
1001
1000
0010
,
0000
0100
0001
1000
,
0000
0100
0010
0001
,
0000
1000
0010
0200
,
0300
0010
1000
0001
,
0000
0010
0100
1000
,
0000
0001
0100
0010
,
0000
1000
0001
0010
,
0000
0100
0010
0001
,
0000
1000
0010
0100
,
0000
0001
1000
0100
,
0000
0010
0001
2000
,
3000
0010
0100
0001
,
0000
1000
0100
0010
,
0000
0100
1000
0001
,
0000
0100
0010
1000
,
0001
0010
0100
1000
,
0010
0100
0001
1000
,
0100
0001
0100
1000
,
0010
0001
0010
1000
,
0000
1001
0001
1000
,
0100
1000
0001
0100
,
0010
1000
0001
0010
,
0100
1000
0001
1000
,
0010
0100
0001
1000
,
0100
1000
0001
0100
,
0010
1000
0001
0010
,
0100
1000
0001
0100
,
0000
0110
0001
1000
,
0001
0100
0010
0100
,
0001
1000
0100
1000
,
0001
0100
0010
1000
,
0001
0010
0100
1000
,
0001
0100
0001
1000
,
0100
0010
0001
1000
,
0010
0100
0000
0000
,
0000
1001
0001
1000
,
0001
1000
0001
0010
,
0100
1001
1000
0001
,
1000
0001
1000
0200
,
0300
0010
0001
0010
,
0001
1000
0100
1000
,
0100
0010
0001
1000
,
0010
0100
0001
0020
,
0030
0000
0000
0000
;

//---------------dance-single - Feraligatr----------------
#NOTES:
     dance-single:
     Feraligatr SN:
     Beginner:
     2:
     0.098973,0.194431,0.033796,0.016898,0.000000,82.000000,78.000000,4.000000,2.000000,0.000000,0.000000,0.098973,0.194431,0.033796,0.016898,0.000000,82.000000,78.000000,4.000000,2.000000,0.000000,0.000000:
0000
0000
0000
0000
,
0000
0000
0000
0000
,
0000
0000
0000
0000
,
0000
0000
0000
0000
,
0000
0000
0000
0000
,
0000
0000
0000
0000
,
0000
0000
0000
0000
,
0000
0000
0000
0000
,
0000
0000
0000
0000
,
0000
0000
0000
0000
,
0000
1000
0000
0000
,
0000
0100
0000
0000
,
0000
0010
0000
0000
,
0000
0001
0000
0000
,
0000
1000
0000
0010
,
0000
0100
0000
0001
,
0000
2000
0000
0000
,
0000
3200
0000
0000
,
0000
0310
0000
0000
,
0000
0000
0000
0000
,
0000
0000
0000
0000
,
0000
0000
0000
0000
,
0000
1001
0000
0000
,
0000
0001
0000
0000
,
0000
0100
0000
0000
,
0000
0010
0000
0000
,
0000
1000
0000
0000
,
0000
0001
0000
0000
,
0000
0010
0000
0000
,
0000
0100
0000
0000
,
0000
1000
0000
0000
,
0000
0001
0000
0000
,
0000
0100
0000
0000
,
0000
0001
0000
0000
,
0000
1000
0000
0000
,
0000
0100
0000
0000
,
0000
0010
0000
0000
,
0000
0001
0000
0000
,
0000
1000
0000
0000
,
0000
0010
0000
0000
,
0000
0100
0000
0000
,
0000
0001
0000
0000
,
0000
1001
0000
1000
,
0000
0100
0000
0010
,
0000
0001
0000
1000
,
0000
0001
0000
0100
,
0000
0010
0000
1000
,
0000
0001
0000
0010
,
0000
0100
0000
1000
,
0000
0001
0000
0100
,
0000
0010
0000
1000
,
0000
0001
0000
0010
,
0000
0100
0000
0010
,
0000
0001
0000
1000
,
0000
0010
0000
0100
,
0000
0001
0000
1000
,
0000
0100
0000
0010
,
0000
0001
0000
0000
,
0000
0110
0000
0100
,
0000
0010
0000
0100
,
0000
1001
0000
0001
,
0000
1000
0000
0001
,
0000
0010
0000
0010
,
0000
0100
0000
0100
,
0000
1000
0000
1000
,
0000
0001
0000
0001
;
