#TITLE:Valhalla;
#SUBTITLE:;
#ARTIST:Retrograde & Xomu;
#TITLETRANSLIT:;
#SUBTITLETRANSLIT:;
#ARTISTTRANSLIT:;
#GENRE:;
#CREDIT:;
#BANNER:Valhalla-bn.png;
#BACKGROUND:Valhalla-bg.png;
#LYRICSPATH:;
#CDTITLE:loodeecdtitle.png;
#MUSIC:valhalla.ogg;
#OFFSET:-0.029;
#SAMPLESTART:91.916;
#SAMPLELENGTH:29.999;
#SELECTABLE:YES;
#DISPLAYBPM:128.000;
#BPMS:0.000=128.000;
#STOPS:;
#BGCHANGES:;
#KEYSOUNDS:;

//---------------dance-single - Loodee----------------
#NOTES:
     dance-single:
     Loodee:
     Challenge:
     11:
     0.750,0.773,0.159,0.375,0.984:
0000
0000
0000
0000
,
0000
0000
0000
0000
,
0000
0000
0000
0000
,
0000
0000
0000
0000
,
0000
0000
0000
0000
,
1000
0001
0000
0001
0000
0000
1000
0100
0000
0010
0000
0010
0000
0100
1000
0001
,
0100
0010
0000
0010
0000
0000
1000
0100
0000
0010
0000
0010
0000
0100
0010
0001
,
0100
0000
0000
0000
0100
0000
0000
0000
0010
0000
0000
0000
0010
0000
0000
0000
1000
0000
0001
0000
0010
0000
0100
0000
1000
0000
0010
0000
0100
0001
0100
0001
,
1000
0010
0000
0010
1000
0000
0100
0010
0000
0100
0001
0100
0010
0001
1000
0010
,
0200
0000
0000
0000
0000
0000
0000
0000
0301
0000
1000
0000
0100
00M0
0100
0000
0001
0000
0010
0000
0100
0000
0010
0000
0001
0000
0100
0000
0010
0000
1000
0000
,
0002
0000
0000
0103
0010
0000
1000
0100
0010
0000
0010
0001
1000
0000
0010
0000
,
0102
0000
0000
0003
1001
0000
1000
0010
0002
0000
0013
1000
0200
0000
0310
0001
,
2000
0000
0000
0000
3000
0000
0010
0000
1000
0000
0000
0000
0100
0000
0100
0000
0010
0000
0001
0000
0100
00M0
0100
0000
1000
0000
0000
0000
1000
0000
0100
0000
,
0020
0000
0000
0000
0000
0000
0000
0000
0031
0000
1000
0000
0010
0M00
0010
0000
0001
0000
0010
0000
0100
0000
0001
0000
0100
0000
0000
0000
2000
0000
0000
0000
,
3020
0000
0130
0000
0001
0100
0010
1000
1000
0001
1000
0100
0010
0000
0100
0000
,
0012
0000
0000
0000
1003
0010
0100
0001
1000
0100
0010
0100
1000
0001
1000
0010
,
0100
0000
0000
0100
0000
0000
0100
0000
1000
0100
0010
1000
0001
0010
0100
0000
,
2100
0000
0000
0000
0000
0000
0000
0000
3001
0000
0100
0000
0010
M000
0010
0000
0001
0000
0100
0000
0010
0000
0100
0000
0001
0000
1000
0000
0100
0000
0010
0000
,
0200
0000
0000
1300
0001
0000
1000
0010
0100
0000
0100
0001
0010
0000
0001
0000
,
2001
0000
0000
3000
1010
0000
0010
0100
2000
0000
3100
0001
0020
0000
0130
1000
,
0002
0000
0000
0000
0003
0000
0100
0000
0001
0000
0000
0000
0010
0000
0010
0000
0100
0000
1000
0000
0100
00M0
0100
0000
0001
0000
0000
0000
0001
0000
0100
0000
,
0020
0000
0000
0000
0000
0000
0000
0000
1030
0000
0001
0000
0100
00M0
0100
0000
1000
0000
0100
0000
0010
0000
1000
0000
0010
0000
0000
0000
0002
0000
0000
0000
,
0203
0000
0310
0000
0100
0001
1000
1000
0100
0010
0001
0100
0010
0000
0100
0000
,
1020
0000
0000
0000
0130
0001
1000
0100
0010
0100
0010
0001
1000
0010
0100
0001
,
0010
0000
0000
0010
0000
0000
0010
0000
1000
0010
0001
0000
1000
0010
0100
0000
,
0102
0000
0000
0000
,
0003
0000
0000
0000
,
2000
0000
0000
0000
0000
3000
0000
0000
,
0000
0000
0000
0000
,
0200
0000
0000
0000
0310
0100
1000
0001
,
0100
0000
0100
0000
0100
0010
1000
0001
,
0010
0000
0010
0000
0010
0100
1000
0010
,
1000
0000
1000
0100
0100
0010
0010
0000
,
0011
0000
0001
1000
0010
0100
0001
0100
,
0010
0000
0000
0000
0010
0000
1000
0000
0100
0000
0010
0000
0100
1000
0001
0100
,
0001
0000
0001
1000
0010
0100
0001
0010
,
0100
0000
0100
0010
0100
1000
0001
0000
,
0100
0000
0100
0010
1000
0100
0100
1000
,
0010
0000
0000
0000
0010
0000
0100
0000
0001
0000
1000
0000
1000
0100
0010
0100
,
0010
0000
0010
0001
0010
0100
1000
0001
,
0100
0000
0100
0010
0010
1000
1000
0000
,
0002
0000
0000
0000
,
0023
0000
0000
0030
,
0100
1000
0000
1000
0000
0000
0001
0100
0000
0010
0000
0010
0000
1000
0001
0010
,
0200
0000
0000
0300
,
0010
0001
0000
0001
0000
0000
1000
0001
0000
0100
0000
0100
0000
0010
1000
0100
,
0010
0100
0000
0100
0000
0000
1000
0001
0000
0100
0000
0010
0000
0100
0001
0010
,
0100
0000
0000
0000
0100
0000
0000
0000
1000
0000
0000
0000
1000
0000
0000
0000
0010
0000
0100
0000
0010
0000
1000
0000
0001
0000
1000
0000
0100
0010
0001
1000
,
0001
0100
0000
0100
0010
0000
1000
0001
0000
0100
1000
0100
0010
1000
0001
0010
,
0200
0000
0000
0000
0000
0000
0300
0000
1100
0000
0000
0000
2000
0000
0000
0000
3001
0000
1000
0000
0010
M000
0010
0000
0001
0000
1000
0000
0100
0000
0010
0000
,
0001
0100
00M0
0100
1000
0000
0010
0100
0001
1000
0100
0000
0010
0100
1000
0001
,
0100
0000
0010
0000
2000
0000
0000
0000
3100
0000
1000
0000
0010
0M00
0010
0000
0001
0000
0010
0000
0100
M000
0100
0000
0001
0000
1000
0000
0010
0000
0100
0000
,
0001
0010
0M00
0010
1000
0000
0200
0000
1300
0010
0M00
0010
0001
1000
0001
0001
,
0100
0000
0010
0000
0002
0000
0000
0000
0013
0000
1000
0000
0100
00M0
0100
0000
0001
0000
1000
0000
0010
000M
0010
0000
0100
0000
0010
0000
0001
0000
1000
0000
,
0001
0000
0100
0000
00M0
0000
0100
0000
1000
0000
0100
0000
0010
000M
0010
0000
1000
0000
0001
0000
0010
0M00
0010
0000
1000
0000
0001
0000
1000
0000
0100
0000
,
0010
0100
0002
0000
0403
0000
0000
0000
0310
0001
0100
0000
2020
0000
0000
3030
,
1000
0001
0000
0010
0100
0000
1000
0100
0000
0010
1000
0010
0004
0000
0000
0000
,
2003
0000
0000
0000
0000
0000
3000
0000
1010
0000
0000
0000
0020
0000
0000
0000
0130
0000
0001
0000
0100
M000
0100
0000
0010
0000
0100
0000
1000
0000
0001
0000
,
1000
0010
0M00
0010
0001
0000
0010
0001
0100
0010
1000
0000
0001
0010
0100
1000
,
0010
0000
0100
0000
2000
0000
0000
0000
3100
0000
0001
0000
0100
00M0
0100
0000
1000
0000
0100
0000
0010
000M
0010
0000
1000
0000
0010
0000
0100
0000
0001
0000
,
1000
0100
00M0
0100
0001
0000
0020
0000
0031
0100
00M0
0100
1000
0001
1000
1000
,
0100
0000
0010
0000
2000
0000
0000
0000
3010
0000
0001
0000
0010
0M00
0010
0000
1000
0000
0001
0000
0100
M000
0100
0000
0010
0000
0100
0000
1000
0000
0001
0000
,
0100
0000
0010
0000
M000
0000
0010
0000
0001
0000
0100
0000
0010
M000
0010
0000
0001
0000
0010
0000
0100
M000
0100
0000
0001
0000
0010
0000
0001
0000
0100
0000
,
0020
0000
0031
0000
0020
0000
1030
0100
0020
0000
1030
0000
0010
0001
2000
0000
,
3010
0100
0000
0001
0100
0000
0010
1000
0004
0000
0000
0000
0043
0000
0000
0030
,
2100
0000
0000
0000
0000
0000
0000
0000
3001
0000
0000
0000
0010
0000
0100
0000
0020
0000
0000
0000
1030
0M0M
1000
0000
0100
0000
0000
0000
0010
0000
0000
0000
,
0012
0000
0000
0000
0000
0000
1003
0000
0001
0000
0000
0000
0100
00M0
0100
0000
1000
0000
0000
0000
0010
0000
0100
0000
0001
0000
0000
0000
0100
0000
0000
0000
,
1020
0000
0000
0030
0110
0000
0100
0010
0001
0000
0010
1000
0001
0000
0010
0100
,
1000
0000
0000
0000
0000
0000
0001
0000
1000
0000
0000
0000
0010
0000
0010
0000
0100
0000
0001
0000
0100
00M0
0100
0000
1000
0000
0000
0000
1000
0000
0100
0000
,
0020
0000
0000
0000
0000
0000
0030
0000
1001
0000
0000
0000
0001
0100
0001
0100
0001
0000
0000
0000
0010
0000
0100
0000
1000
0000
0000
0000
0010
0000
0000
0000
,
0201
0000
0000
0000
0310
1000
0001
0001
0010
0100
1000
0100
0010
0000
0001
1000
,
0020
0000
0000
0000
0130
0001
0010
0100
0010
0001
0100
0010
1000
0100
0010
0001
,
0010
0000
0000
0010
0000
0000
0010
0000
1000
0010
0001
0000
0100
0010
1000
0000
,
0102
0000
0000
0000
0000
0000
0000
0000
1003
0000
0000
0000
0100
0000
1000
0000
0020
0000
0000
0000
0031
MM00
0001
0000
0100
0000
0000
0000
0010
0000
0000
0000
,
2001
0000
0000
0000
0000
0000
3100
0000
0010
0000
0000
0000
0100
00M0
0100
0000
0001
0000
0000
0000
1000
0000
0010
0000
0100
0000
0000
0000
0001
0000
0000
0000
,
0021
0000
0000
0030
0110
0000
0100
0010
1000
0000
0010
0100
1000
0000
0001
1000
,
0010
0000
0000
0000
0000
0000
0100
0000
0010
0000
0000
0000
1000
0000
1000
0000
0001
0000
0010
0000
0100
M000
0100
0000
0001
0000
0000
0000
0001
0000
1000
0000
,
0020
0000
0000
0000
0000
0000
0030
0000
1010
0000
0000
0000
1000
0001
1000
0001
1000
0000
0000
0000
0100
0000
0010
0000
0001
0000
0000
0000
0100
0000
0000
0000
,
1020
0000
0000
0000
0130
0001
1000
1000
0001
0010
0100
1000
0100
0000
0010
0001
,
0200
0000
0000
0000
0310
1000
0001
0010
0001
0100
0010
1000
0100
0010
0100
1000
,
0010
0000
0000
0010
0000
0000
0010
0000
0001
0010
0100
0000
0001
0010
0100
0000
,
2100
0000
0000
0000
,
3002
0000
0000
0000
,
00M3
0000
0000
0000
,
0M00
0000
0000
0000
;

//---------------dance-single - Loodee----------------
#NOTES:
     dance-single:
     Loodee:
     Hard:
     9:
     0.550,0.651,0.070,0.292,0.384:
0000
0000
0000
0000
,
0000
0000
0000
0000
,
0000
0000
0000
0000
,
0000
0000
0000
0000
,
0000
0000
0000
0000
,
0001
1000
0000
1000
0000
0000
0100
0000
0000
0010
0000
0010
0000
0000
0001
1000
,
0010
0000
0000
0010
0000
0000
0100
0001
0000
0001
0000
1000
0000
0000
0100
0010
,
0001
0000
0001
0000
1000
0000
1000
0000
0001
0100
0001
0100
0020
0000
0000
0000
,
1030
0000
0000
0000
0100
0000
0000
0000
1000
0001
1000
0000
0010
0000
0000
0000
,
1020
0000
0000
0000
0130
0000
0001
1000
0001
0000
0010
0100
0010
0000
0001
0000
,
0200
0000
0000
0000
0310
0000
1000
0100
0010
0000
0100
0010
0001
0000
1000
0000
,
0010
0000
0000
0000
0010
0000
0100
0001
1000
0000
0001
0010
0100
0000
1000
0000
,
0001
0000
0000
1000
0001
0000
0000
0000
0001
0000
0100
0010
1000
0000
0001
0000
,
0020
0000
0000
0000
0031
0000
1000
0010
1000
0000
0100
0010
0100
0000
0010
0000
,
0002
0000
0000
0000
1003
0000
0010
0100
0001
0000
1000
0000
0100
0000
0010
0000
,
0100
0000
0100
1000
0001
0100
0010
0100
,
1000
0000
0000
1000
0000
0000
1000
0000
0100
0000
0001
0000
0010
0000
0100
0000
,
0200
0000
0000
0000
0310
0000
0100
1000
0100
0000
1000
0001
1000
0000
0010
0000
,
0200
0000
0000
0000
0301
0000
1000
0100
0010
0000
0100
1000
0001
0000
0100
0000
,
0010
0000
0000
0000
0010
0000
1000
0001
0010
0000
0100
0010
0001
0000
1000
0000
,
0001
0000
0000
1000
0001
0000
0000
0000
0100
0000
0001
0010
0100
0000
1000
0000
,
0020
0000
0000
0000
1030
0000
0001
0100
0001
0000
0010
0100
0010
0000
0001
0000
,
2000
0000
0000
0000
3010
0000
0100
0001
1000
0000
0100
0000
0010
0000
0100
0000
,
0010
0000
0010
0001
1000
0010
0100
0010
,
0001
0000
0000
0001
0000
0000
0001
0000
0010
0000
1000
0000
0100
0000
0010
0000
,
0012
0000
0000
0000
,
0003
0000
0000
0000
,
2000
0000
3000
0000
,
0000
0000
0000
0000
,
0002
0000
0003
0000
0001
0100
0010
0100
,
0001
0000
0001
0000
0001
1000
0100
1000
,
0001
0000
0001
0000
0001
1000
0010
1000
,
0001
0000
0001
0010
0010
0100
0100
0000
,
1100
0000
1000
0000
1000
0100
0010
0100
,
1000
0000
0000
0000
1000
0000
0000
0000
1000
0000
0010
0000
0100
0001
0100
0000
,
0010
0000
0010
0000
0010
0100
0001
1000
,
0100
0000
0100
0010
0100
1000
1000
0000
,
0010
0000
0010
0000
0010
0100
0100
0001
,
0010
0000
0000
0000
0010
0000
0000
0000
0010
0000
0100
0000
0100
0010
0001
0000
,
1000
1000
1000
1000
,
0001
0000
0001
0100
0100
0001
0001
0000
,
2002
0000
0000
0000
,
3003
0000
0000
0000
,
1000
0100
0000
0100
0000
0000
0010
0000
0000
0001
0000
0001
0000
0000
1000
0000
,
0020
0000
0000
0030
,
0100
0001
0000
0001
0000
0000
1000
0000
0000
0100
0000
0100
0000
0000
0010
0000
,
0100
1000
0000
1000
0000
0000
0001
0000
0000
0100
0000
0100
0000
0000
0010
0000
,
1000
0000
0001
0000
1000
0000
0001
0000
1000
0100
0010
0001
1000
0100
1000
0100
,
1000
0000
0000
0000
0010
0000
0000
0000
1000
0001
1000
0000
0110
0000
0000
0000
,
1002
0000
0000
0000
0103
0000
0010
0000
1000
0001
1000
0001
0010
0000
0100
0000
,
0010
0001
0000
0000
0011
0000
0000
0000
0010
0100
0000
0000
1000
0000
0100
0010
,
0002
0000
2003
0000
3010
0100
0010
0100
0001
0100
0001
0100
0010
0000
1000
0000
,
0001
0010
0000
0000
0110
0000
0000
0000
0100
1000
0000
0000
0001
0000
0100
0010
,
0100
0000
0002
0000
1003
0100
1000
0100
0010
0001
0010
0001
1000
0000
0010
0000
,
0100
0001
0000
0000
0100
0001
0100
0001
1000
0001
1000
0001
0010
0000
0100
0000
,
2000
3002
0203
0000
0320
0000
2030
0000
,
3100
0100
0000
2000
,
3020
0000
0000
0000
0130
0000
0001
0000
1000
0100
1000
0100
0010
0000
0001
0000
,
1000
0010
0000
0000
1010
0000
0000
0000
1000
0001
0000
0000
0010
0000
0100
1000
,
0200
0000
0320
0000
0130
1000
0100
1000
0001
1000
0001
1000
0010
0000
0100
0000
,
0001
1000
0000
0000
1001
0000
0000
0000
0001
0010
0000
0000
0100
0000
0010
0001
,
0020
0000
0032
0000
1003
0001
1000
0001
0100
0010
0100
0010
1000
0000
0100
0000
,
0010
0100
0000
0000
1000
0100
1000
0100
0010
0001
0010
0001
1000
0000
0010
0000
,
0200
0302
2003
3100
0200
0320
0031
0001
,
1000
0000
0000
0000
0010
0000
0000
0000
0400
0000
0000
0000
0000
0300
0000
0000
,
0120
0000
0000
0000
1030
0000
0100
0010
0001
0000
0010
0100
1000
0000
0001
0000
,
0200
0000
0000
0000
0310
0000
1000
0001
1000
0000
0100
0000
0010
0000
0100
0000
,
2000
0000
0000
0000
3001
0000
0100
0010
0100
0000
0001
1000
0001
0000
0010
0000
,
0100
0000
0000
1000
0100
0000
0000
0000
1000
0000
0001
0100
0001
0000
1000
0000
,
0200
0000
0000
0000
0310
0000
0001
0010
0100
0000
0010
0100
1000
0000
0001
0000
,
0200
0000
0000
0000
0310
0000
0100
0001
0100
0000
0010
0000
1000
0000
0100
0000
,
0010
0000
0010
0100
1000
0001
0100
0010
,
0001
0000
0000
0001
0000
0000
0001
0000
0010
0000
0100
0000
0001
0000
1000
0000
,
0200
0000
0000
0000
0310
0000
0100
1000
0010
0000
0100
0001
1000
0000
0100
0000
,
0020
0000
0000
0000
0130
0000
0010
0001
0010
0000
0001
1000
0010
0000
0100
0000
,
0020
0000
0000
0000
1030
0000
0001
0010
0001
0000
1000
0001
1000
0000
0010
0000
,
0100
0000
0000
0001
0100
0000
0000
0000
0001
0000
1000
0100
0010
0000
0100
0000
,
0020
0000
0000
0000
0031
0000
0100
0001
1000
0000
0100
0010
0001
0000
0010
0000
,
0200
0000
0000
0000
1300
0000
0001
0100
0001
0000
1000
0000
0100
0000
0010
0000
,
0100
0000
0100
1000
0001
0100
0010
0100
,
1000
0000
0000
1000
0000
0000
1000
0000
0100
0000
0010
0000
1000
0000
0100
0000
,
0020
0000
0000
0000
,
0030
0000
0000
0000
;

//---------------dance-single - Loodee----------------
#NOTES:
     dance-single:
     Loodee:
     Medium:
     6:
     0.412,0.442,0.178,0.235,0.070:
0000
0000
0000
0000
,
0000
0000
0000
0000
,
0000
0000
0000
0000
,
0000
0000
0000
0000
,
0000
0000
0000
0000
,
0001
0000
0000
0001
0000
0000
0001
0000
0000
1000
0000
0000
0001
0000
0000
0000
,
0010
0000
0000
0010
0000
0000
0100
0000
0000
1000
0000
0000
1000
0000
0000
0000
,
0001
0100
0001
0100
0040
0000
0000
0000
,
1030
0000
0000
1000
,
0110
0000
1001
1000
0100
0010
0100
1000
,
0020
0000
0000
0130
0010
0000
1000
0000
0001
0000
0001
0000
1000
0000
0000
0000
,
1100
0000
0110
0000
1001
0001
0100
0010
,
0100
0000
0010
0000
0001
0010
0100
0000
,
1001
0000
1100
0100
0010
0001
1000
0010
,
0001
0000
0010
0100
0001
1000
0100
0000
,
0110
0000
0001
0001
1000
1000
0010
0100
,
2000
0000
0000
0000
3100
0010
1000
0001
,
0020
0000
0130
0100
0010
0001
1000
0010
,
0200
0000
0000
0301
0100
0000
0010
0000
1000
0000
1000
0000
0100
0000
0000
0000
,
0110
0000
1100
1000
0001
0100
0001
1000
,
0100
0000
0010
0000
1000
0010
0001
0010
,
0200
0000
1300
1000
0010
0001
0010
0100
,
0002
0000
1003
1000
0100
0010
0100
0000
,
1100
0000
1000
1000
0001
0001
0100
0010
,
0002
0000
0023
0000
,
2030
0000
0000
0000
,
3000
0000
0000
0000
,
0200
0000
0000
0300
,
0000
0000
0000
0000
,
0200
0000
0000
0000
,
1300
0000
1000
0000
1000
0001
0100
0000
,
0001
0000
0001
0000
0001
0010
0100
0000
,
0010
0000
0010
0000
0001
0100
0100
0000
,
0110
0000
0010
0000
0010
1000
0100
0010
,
0001
0000
0001
0000
0001
0100
0001
0010
,
0100
0000
0100
0000
0100
1000
0001
1000
,
0010
0000
0010
0000
0100
0001
0001
0000
,
1000
0000
1000
0000
1000
0100
0100
0000
,
0001
0000
0100
0000
0010
0001
0010
0000
,
0001
0001
1000
1000
,
0010
0000
0010
0000
0100
0010
0010
0000
,
2000
0000
0000
0000
,
0000
0000
0000
0000
,
3002
0000
0000
0000
,
0000
0000
0000
0000
0000
0000
0000
0003
,
0010
0000
0000
0100
0000
0000
0010
0000
0000
0001
0000
0000
0001
0000
0000
0000
,
1000
0000
0000
1000
0000
0000
0010
0000
0000
0100
0000
0000
0100
0000
0000
0000
,
0001
1000
0001
1000
0400
0000
0000
0000
,
0310
0000
0000
0001
,
2000
0000
3010
0100
0010
0010
1000
0100
,
0010
0000
0000
0010
0001
0000
0000
0000
2000
3000
0000
0000
1010
0000
0010
0000
,
0200
0000
0301
0001
0010
0010
0001
0100
,
0010
0000
0000
0010
2000
0000
0000
0000
3200
0300
0000
0000
0110
0000
0000
0000
,
0200
0000
1300
1000
0010
0010
1000
0100
,
0010
0000
0000
0010
0100
0000
0100
0000
1000
0000
1000
0000
0001
0000
1000
0000
,
0020
0000
0130
0001
0200
0000
0320
0000
,
2030
0001
0000
3001
,
0020
0000
0130
0010
0001
0001
1000
0010
,
0100
0000
0000
0100
0010
0000
0000
0000
2000
3000
0000
0000
1001
0000
0001
0000
,
2000
0000
3100
0010
0001
0010
0100
1000
,
0010
0000
0000
0010
2000
0000
0000
0000
3002
0003
0000
0000
0011
0000
0000
0000
,
0020
0000
0130
1000
0010
1000
0100
0010
,
0001
0000
0000
0001
1000
0000
0010
0000
0100
0000
0001
0000
0100
0000
0010
0000
,
2000
0000
3100
0010
0200
0000
1300
0001
,
2000
0000
0000
3010
,
0110
0000
0000
0000
0101
0000
0000
0001
1000
0000
0100
0000
0010
0000
0100
0000
,
1000
0000
0000
0000
1100
0000
0000
0100
0010
0000
0100
0000
1000
0000
0000
0000
,
0010
0000
0110
0000
0100
0001
0010
0100
,
0010
0000
0010
0000
1000
0010
0100
1000
,
0001
0000
0000
0000
0101
0000
0000
0100
0010
0000
0100
0000
0001
0000
1000
0000
,
0100
0000
1100
0000
1000
0010
0010
0100
,
0001
0000
0001
0010
0001
0010
0100
1000
,
0020
0000
0000
0000
0031
0010
0100
0000
,
0101
0000
0000
0000
1001
0000
0000
1000
0001
0000
1000
0000
0100
0000
0010
0000
,
0001
0000
0000
0000
0011
0000
0000
0010
0001
0000
1000
0000
0010
0000
0000
0000
,
0100
0000
0101
0000
0001
1000
0100
1000
,
0100
0000
0100
0000
0001
0100
1000
0100
,
0010
0000
0000
0000
0011
0000
0000
0001
1000
0000
0010
0000
1000
0000
0010
0000
,
0100
0000
0110
0000
0010
1000
1000
0001
,
1000
0000
1000
0100
0010
0100
0010
0001
,
0200
0000
2300
3200
,
0320
0000
0000
0000
,
0030
0000
0000
0000
;

//---------------dance-single - Loodee----------------
#NOTES:
     dance-single:
     Loodee:
     Easy:
     4:
     0.278,0.283,0.063,0.121,0.000:
0000
0000
0000
0000
,
0000
0000
0000
0000
,
0000
0000
0000
0000
,
0000
0000
0000
0000
,
0000
0000
0000
0000
,
0001
0000
0000
0001
0000
0000
0010
0000
,
0100
0000
0000
0100
0000
0000
1000
0000
,
0001
0100
0001
0000
2000
0000
0000
0000
,
3100
0000
0000
0100
,
1001
0000
0001
0000
0100
0010
0100
0000
,
0001
0000
1000
0000
0100
1000
0100
1000
,
0001
0000
0001
0000
0001
0100
0010
0000
,
1000
0000
1000
0000
0100
0100
0010
0000
,
0001
0000
1000
0010
1000
0000
0100
0000
,
0010
0000
0100
0000
1000
0001
0100
0000
,
0010
0000
0010
1000
0010
1000
0001
0000
,
0020
0000
0130
1000
,
0010
0000
1000
0001
1000
0000
0100
0000
,
0010
0000
0100
0000
1000
0001
0100
0000
,
0010
0000
0010
0000
0010
1000
0010
0000
,
0200
0000
0000
0000
0301
1000
0001
0000
,
0010
0000
0100
0000
0010
0001
0010
0001
,
1000
0000
0010
0000
1000
0001
1000
0000
,
0100
0000
0100
0010
0100
0010
0001
0000
,
0200
0000
0320
0000
,
1030
0000
0000
0000
,
0000
0000
0000
0000
,
0002
0000
0003
0000
,
0000
0000
0000
0000
,
0002
0000
0003
0000
,
0001
0000
0001
1000
,
0100
0000
0100
0010
,
0100
0000
1000
0001
,
1001
1000
0000
1000
,
1010
0010
0000
0010
,
0110
0100
0000
0100
,
0101
0001
0001
1000
,
1001
0001
0000
0010
,
0110
0010
0000
0001
,
1001
1000
0001
1000
,
0002
0000
0000
0003
,
0200
0000
0000
0000
,
0000
0000
0000
0300
,
0020
0000
0000
0000
,
0000
0000
0000
0030
,
1000
0000
0000
0001
0000
0000
1000
0000
,
0100
0000
0000
0010
0000
0000
0100
0000
,
1000
0001
1000
0000
0020
0000
0000
0000
,
0130
0000
0000
0001
,
1001
0000
1000
0100
0010
0000
0010
0000
,
0001
0000
0100
0000
1000
0000
0100
0010
,
0100
0000
0001
1000
0001
1000
0001
0000
,
0010
0100
0001
0100
,
1000
0000
0001
0100
0001
0100
0001
0000
,
1000
0000
0100
0010
0100
0000
1000
0000
,
0020
0000
0130
0100
,
0002
0000
0000
0003
,
0001
0000
0100
0010
1000
0000
1000
0000
,
0100
0000
0010
0000
1000
0000
0010
0100
,
0010
0000
0001
1000
0001
1000
0001
0000
,
0100
0010
0001
0010
,
1000
0000
0001
0010
0001
0010
0001
0000
,
1000
0000
0100
0010
0100
0000
1000
0000
,
0020
0000
0230
0000
,
0302
0000
0003
0000
,
0011
0010
1000
0010
,
0001
0000
1000
0010
1000
0000
1000
0000
,
0100
0000
0100
0000
1000
0001
1000
0000
,
0010
0000
0010
1000
,
0001
0010
1000
0010
,
0001
0000
1000
0001
1000
0000
0010
0000
,
0100
0000
0100
0010
0100
0010
1000
0000
,
0002
0000
0013
0000
,
0100
0010
1000
0010
,
0001
0000
1000
0000
0010
0100
0010
0000
,
1000
0000
1000
0000
0001
0010
0001
0000
,
0100
0000
0100
0001
,
1000
0100
0001
0100
,
1000
0000
0010
0000
0100
0001
0100
0000
,
0010
0000
0010
1000
0010
1000
0001
0000
,
0020
0000
0230
0000
,
1300
0000
0000
0000
;

//---------------dance-single - Loodee----------------
#NOTES:
     dance-single:
     Loodee:
     Beginner:
     1:
     0.073,0.077,0.006,0.083,0.000:
0000
0000
0000
0000
,
0000
0000
0000
0000
,
0000
0000
0000
0000
,
0000
0000
0000
0000
,
0000
0000
0000
0000
,
0001
0000
0000
0000
,
0001
0000
0000
0000
,
2000
0000
0000
0000
,
3000
0000
0000
0000
,
0001
0000
0000
0000
,
0010
0000
0000
0000
,
0001
0000
0001
0000
,
0001
0000
0000
0000
,
1000
0000
0000
0000
,
0010
0000
0000
0000
,
2000
0000
0000
0000
,
3000
0000
0000
0000
,
0100
0000
0000
0000
,
0010
0000
0000
0000
,
0100
0000
0100
0000
,
0100
0000
0000
0000
,
0010
0000
0000
0000
,
0001
0000
0000
0000
,
0200
0000
0000
0000
,
0300
0000
0000
0000
,
0020
0000
0000
0000
,
0000
0000
0000
0000
,
0030
0000
0000
0000
,
0000
0000
0000
0000
,
0020
0000
0000
0000
,
0030
0000
0000
0000
,
2000
0000
0000
0000
,
3000
0000
0000
0000
,
1001
0000
0000
0000
,
0001
0000
0000
0000
,
0010
0000
0000
0000
,
0001
0000
0000
0000
,
0100
0000
0000
0000
,
0010
0000
0000
0000
,
0200
0000
0000
0000
,
0000
0000
0000
0300
,
0002
0000
0000
0000
,
0000
0000
0000
0000
,
0003
0000
0000
0000
,
0000
0000
0000
0000
,
1000
0000
0000
0000
,
1000
0000
0000
0000
,
0200
0000
0000
0000
,
0300
0000
0000
0000
,
0010
0000
0000
0000
,
0001
0000
0000
0000
,
0010
0000
0000
0000
,
0001
0000
0000
0000
,
1000
0000
0000
0000
,
0010
0000
0000
0000
,
2000
0000
0000
0000
,
3100
0000
0000
0000
,
0010
0000
0000
0000
,
0100
0000
0000
0000
,
0010
0000
0000
0000
,
0001
0000
0000
0000
,
0100
0000
0000
0000
,
0010
0000
0000
0000
,
1000
0000
1000
0000
,
0000
0000
0000
0000
,
0001
0000
0000
0000
,
0100
0000
0000
0000
,
0001
0000
0001
0000
,
0001
0000
0000
0000
,
1000
0000
0000
0000
,
0100
0000
0000
0000
,
2000
0000
0000
0000
,
3000
0000
0000
0000
,
0010
0000
0000
0000
,
1000
0000
0000
0000
,
0010
0000
0010
0000
,
0010
0000
0000
0000
,
1000
0000
0000
0000
,
0001
0000
0000
0000
,
0020
0000
0000
0000
,
0230
0000
0000
0000
,
1300
0000
0000
0000
;
