#TITLE:The Serpent;
#SUBTITLE:;
#ARTIST:KSHMR & Snails;
#TITLETRANSLIT:;
#SUBTITLETRANSLIT:;
#ARTISTTRANSLIT:;
#GENRE:Big Room House;
#CREDIT:Feraligatr;
#BANNER:The Serpent-bn.png;
#BACKGROUND:The Serpent-bg.png;
#LYRICSPATH:;
#CDTITLE:FeraligatrV4-cd.png;
#MUSIC:KSHMR & Snails - The Serpent.ogg;
#OFFSET:0.009000;
#SAMPLESTART:48.741001;
#SAMPLELENGTH:15.000000;
#SELECTABLE:YES;
#DISPLAYBPM:128.000000:150.000000;
#BPMS:0.000000=128.000000
,168.000000=130.000000
,169.000000=133.000000
,170.000000=136.000000
,171.000000=140.000000
,172.000000=141.000000
,173.000000=142.000000
,174.000000=143.000000
,175.000000=144.000000
,175.500000=144.500000
,176.000000=150.000000
;
#STOPS:
;
#BGCHANGES:;
#KEYSOUNDS:;
#ATTACKS:;

//---------------dance-single - Feraligatr----------------
#NOTES:
     dance-single:
     Feraligatr:
     Challenge:
     11:
     0.669447,0.804380,0.211679,0.262774,0.737226,642.000000,613.000000,29.000000,36.000000,45.000000,0.000000,0.669447,0.804380,0.211679,0.262774,0.737226,642.000000,613.000000,29.000000,36.000000,45.000000,0.000000:
// measure 0
0000
0000
0000
0000
,  // measure 1
0000
0000
0000
0000
,  // measure 2
0000
0000
0000
0000
,  // measure 3
0000
0000
0000
0000
,  // measure 4
2100
0000
0000
0000
3001
1000
0010
0000
0110
0000
0100
0001
0000
0001
1000
0000
,  // measure 5
1100
0000
0100
0010
0000
0010
0001
0000
1001
0000
1000
0010
0000
0010
0100
0000
,  // measure 6
0001
1000
0100
0000
0010
0100
1000
0001
0000
0001
0100
0010
0100
0001
1000
0100
,  // measure 7
0000
0100
0010
0000
0001
0000
1000
0000
0010
0100
0000
0100
0001
1000
0100
0000
,  // measure 8
0120
0000
0000
0000
,  // measure 9
0000
0000
0000
0000
0000
0000
M000
0000
000M
0000
M000
0000
0001
0000
0000
0030
,  // measure 10
0011
0000
0000
0000
1000
0000
0001
0100
0010
0000
0100
0000
0001
0000
2000
0000
,  // measure 11
0000
0000
3001
0010
0100
0000
0010
0000
1000
0000
0010
0000
0100
0000
1000
0000
,  // measure 12
0001
0000
0000
0000
0100
0010
1000
0100
0001
0000
0100
0000
0010
0000
0002
0000
,  // measure 13
0000
0000
1003
0001
0100
0000
0010
0000
0100
0000
1000
0000
0100
0000
0001
0000
,  // measure 14
1000
0000
0000
0000
0100
0000
0010
0001
1000
0000
0010
0000
0100
0000
0002
0000
,  // measure 15
0000
0000
1003
0001
0010
0000
0100
0000
0001
0000
0100
0000
0010
0000
0001
0000
,  // measure 16
1000
0000
0000
0000
0100
0010
0001
0100
1000
0000
0100
0000
0010
0000
2000
0000
,  // measure 17
0000
0000
3001
1000
0100
0000
0010
0000
0100
0000
0001
0000
0100
0000
0010
0000
,  // measure 18
0011
0000
0000
0010
0000
001M
1000
0000
0001
0000
0000
0100
0000
010M
1000
0000
,  // measure 19
0001
0000
0000
0010
0000
001M
1000
0000
0001
0000
0000
0100
0000
010M
1000
0000
,  // measure 20
1100
0000
0000
0100
0000
M100
0001
0000
1000
0000
0000
0010
0000
M010
0001
0000
,  // measure 21
1000
0000
0000
0100
0000
M100
0001
0000
1000
0000
0000
0100
0000
M100
0010
1000
,  // measure 22
0001
0000
1000
0000
0100
0000
0010
0000
0100
0000
1000
0000
0001
0000
0100
0010
,  // measure 23
1000
0000
0001
0000
1000
0000
0100
0000
0010
0000
0001
0000
1000
0000
0010
0100
,  // measure 24
0001
1000
0100
1000
0001
0100
0010
0100
0001
0010
0100
1000
0001
0100
0010
1000
,  // measure 25
0001
0000
0000
0000
0001
0000
00M0
0000
0M01
0000
00M0
0000
1002
0000
0000
0003
,  // measure 26
4100
0000
0000
0000
3000
0001
1000
0000
0400
0000
0300
0010
0000
0M10
1000
0000
,  // measure 27
0004
0000
0003
0100
0000
010M
1000
0000
0004
0000
1003
0010
0000
M010
0001
0000
,  // measure 28
1004
0000
0000
0000
0003
0010
0001
0000
4000
0000
3000
0010
0000
M010
0001
0000
,  // measure 29
4000
0000
3000
0100
0000
M100
0010
0000
1000
0001
0000
0001
1000
0010
0100
0000
,  // measure 30
0401
0000
0000
0000
0300
0010
1000
0000
0004
0000
0003
0010
0000
001M
1000
0000
,  // measure 31
0004
0000
0003
0100
0000
010M
1000
0000
0004
0000
1003
0100
0000
M100
0001
0000
,  // measure 32
1000
0100
0010
0100
1000
0001
0100
0010
1000
0001
0010
0100
0010
0001
1000
0010
,  // measure 33
0200
0000
0000
0000
0300
0000
0001
0000
0000
0000
1000
0000
0100
1000
0100
0000
0010
0000
0004
0000
0003
0000
1000
0000
0100
0000
1000
0000
0004
0000
0003
0000
,  // measure 34
0400
0000
0000
0000
0310
1000
1000
0000
2000
0000
0000
3100
0000
M100
0001
0000
,  // measure 35
0020
0000
0000
1030
0000
0010
0100
0000
2000
0000
0000
3100
0000
M100
0001
0000
,  // measure 36
0401
0000
0000
0000
0310
1000
1000
0000
2000
0000
0000
3010
0000
M010
0001
0000
,  // measure 37
2000
0000
0000
3010
0000
0100
0001
1000
0100
0010
0100
1000
0001
0100
0040
0030
,  // measure 38
2010
0000
0000
3001
1000
0100
0100
0000
0200
0000
0310
0001
1000
0010
1000
0000
,  // measure 39
0200
0000
0000
0000
1300
0001
1000
0000
0100
0000
1000
0000
0001
0000
0000
0000
1000
0000
0010
0000
0100
0000
0001
0000
1000
0000
0100
0000
0010
0000
0000
0000
,  // measure 40
0014
0000
0000
1003
0010
0100
0100
0000
0200
0000
0301
1000
0001
0010
0100
0000
,  // measure 41
2000
0000
0000
0000
3001
0100
0001
0000
1000
0000
0001
0000
0100
0000
0000
0000
0020
0000
0000
0000
1030
0000
0001
0000
0010
0000
0100
0000
1000
0000
0000
0000
,  // measure 42
2001
0000
0000
0000
,  // measure 43
0000
0000
0000
0M00
00M0
0M00
0000
0000
,  // measure 44
3001
0000
0100
0010
1000
0100
0010
0002
,  // measure 45
0000
0103
0001
0100
1000
0100
0010
1000
,  // measure 46
0001
0000
0000
0000
0010
0000
0001
0100
1000
0000
0100
0000
0010
0000
2000
0000
,  // measure 47
0000
3100
0010
0001
0100
1000
0100
0010
,  // measure 48
1000
0000
0100
0010
0001
1000
0010
0200
,  // measure 49
0000
0301
1000
0100
0001
0100
0010
0001
,  // measure 50
1000
0000
0000
0000
0001
0000
1000
0010
0001
0000
0010
0000
0100
0000
0002
0000
,  // measure 51
0000
1003
0100
1000
0010
0001
0010
0100
,  // measure 52
0101
0000
0000
0000
0100
0001
1000
0000
0100
0000
0000
0000
0010
0001
1000
0000
,  // measure 53
0010
0000
0000
0000
0100
0001
1000
0000
0100
0000
0000
0000
0010
0100
1000
0000
,  // measure 54
1100
0000
0000
0000
1000
0001
0100
0000
0010
0000
0000
0000
0100
0010
1000
0000
,  // measure 55
0001
0000
0000
0000
0010
0100
1000
0000
0001
0000
0000
0000
1000
0010
0100
0001
,  // measure 56
1000
0000
0001
0000
0010
0000
0100
0000
1000
0000
0001
0000
0100
0000
0010
1000
,  // measure 57
0001
0000
0010
0000
0100
0000
0010
0000
0001
0000
1000
0000
0010
0000
0100
0001
,  // measure 58
1000
0100
0010
0100
1000
0001
0100
0001
0010
0100
1000
0001
0100
0010
0100
0001
,  // measure 59
1000
0000
0000
0000
1000
0000
0M00
0000
10M0
0000
0M00
0000
2001
0000
0000
3000
,  // measure 60
0104
0000
0000
0000
1003
0010
0100
0000
0004
0000
0003
0100
0000
010M
1000
0000
,  // measure 61
0004
0000
0003
0010
0000
001M
1000
0000
0004
0000
0003
0100
0000
010M
1000
0000
,  // measure 62
4001
0000
0000
0000
3010
0100
0001
0000
4000
0000
3000
0100
0000
M100
0001
0000
,  // measure 63
4000
0000
3000
0100
0000
0010
0100
0000
4000
0000
3000
0000
0004
0000
0000
0000
,  // measure 64
0403
0000
0000
0000
0310
1000
0001
0000
0040
0000
0030
0100
0000
01M0
0001
0000
,  // measure 65
4000
0000
3000
0100
0000
M100
0001
0000
4000
0000
3000
0010
0000
M010
0001
0000
,  // measure 66
1004
0000
0000
0000
1003
0010
0100
0000
0004
0000
0003
0100
0000
010M
1000
0000
,  // measure 67
0002
0000
0003
0000
1000
0100
0010
0000
0001
4000
3010
0100
0010
1000
0004
0003
,  // measure 68
0401
0000
0000
0000
0310
1000
1000
0000
2000
0000
0000
3100
0000
M100
0001
0000
,  // measure 69
0020
0000
0130
1000
0001
0100
0010
0000
2000
0000
0000
3010
0000
M010
0001
0000
,  // measure 70
4001
0000
0000
0000
3010
0100
0100
0000
0200
0000
0000
0310
0000
0M10
0001
0000
,  // measure 71
2000
0000
0000
3100
0000
0010
0100
0000
1100
0000
0001
0000
0101
0000
1000
0000
,  // measure 72
1040
0000
0000
0000
0130
0001
0001
0000
0002
0000
0000
0013
0000
001M
1000
0000
,  // measure 73
0200
0000
0310
0001
1000
0010
0100
0000
0002
0000
0000
0103
0000
010M
1000
0000
,  // measure 74
1004
0000
0000
0000
1003
0010
0010
0000
0020
0000
0000
0130
0000
01M0
1000
0000
,  // measure 75
0002
0000
0103
0010
0100
0001
1000
0100
0010
0004
0003
1000
0100
1000
0004
0003
,  // measure 76
1001
0000
0000
0000
;

//---------------dance-single - Feraligatr----------------
#NOTES:
     dance-single:
     Feraligatr:
     Hard:
     9:
     0.572471,0.610219,0.153285,0.218978,0.547445,549.000000,528.000000,21.000000,30.000000,0.000000,0.000000,0.572471,0.610219,0.153285,0.218978,0.547445,549.000000,528.000000,21.000000,30.000000,0.000000,0.000000:
0000
0000
0000
0000
,
0000
0000
0000
0000
,
0000
0000
0000
0000
,
0000
0000
0000
0000
,
1001
0000
0000
0000
1000
0001
0100
0000
0010
0000
0000
1000
0000
1000
0100
0000
,
0010
0000
0000
0001
0000
0001
1000
0000
0010
0000
0100
0001
1000
0001
0100
0000
,
0001
1000
0001
0000
1000
0100
0010
0000
0001
0000
0000
1000
0000
1000
0010
0100
,
0000
0100
0001
0000
1000
0000
0000
0000
0001
0000
0000
0000
0110
0000
0000
0000
,
1002
0000
0000
0000
,
0000
0000
0000
0000
0000
0000
0000
0000
0000
0000
0000
0000
0100
0000
0000
0003
,
0101
0000
0000
0000
0100
0000
0010
1000
0001
0000
0010
0000
0100
0000
2000
0000
,
0000
0000
3001
1000
0010
0000
0100
0000
0001
0000
1000
0000
0100
0000
0010
0000
,
0001
0000
0000
0000
1000
0100
1000
0100
0010
0000
0001
0000
0100
0000
0020
0000
,
0000
0000
1030
0001
1000
0000
0100
0000
0010
0000
0001
0000
1000
0000
0010
0000
,
0100
0000
0000
0000
0001
0000
1000
0001
0010
0000
0100
0000
1000
0000
0002
0000
,
0000
0000
0103
0010
1000
0000
0001
0000
0010
0000
0100
0000
1000
0000
0001
0000
,
0100
0000
0000
0000
0010
1000
0010
1000
0001
0000
0010
0000
0100
0000
2000
0000
,
0000
0000
3001
0100
0010
0000
0100
0000
0001
0000
0010
0000
0100
0000
1000
0000
,
0001
0000
0000
0100
0000
0000
0010
0000
1000
0000
0000
0001
0000
0000
0010
0000
,
0100
0000
0000
0010
0000
0000
0001
0000
1000
0000
0000
0010
0000
0000
0100
0000
,
0001
0000
0000
1000
0000
0000
0100
0000
0010
0000
0000
0100
0000
0000
1000
0000
,
0001
0000
0000
0100
0000
0000
0010
0000
1000
0000
0000
0001
0000
0000
1000
0100
,
1000
0000
0100
0000
1000
0000
0100
0000
0010
0000
0001
0000
0010
0000
0001
1000
,
0010
0000
1000
0000
0010
0000
1000
0000
0001
0000
0100
0000
0001
0000
0100
0001
,
4000
3400
0340
0034
,
1003
0000
0000
0000
1000
0000
0000
0000
1000
0000
0000
0000
1002
0000
0000
0003
,
0201
0000
0000
0000
0300
0010
1000
0000
0001
0000
0000
0010
0000
0100
1000
0000
,
0001
0000
0000
0100
0000
0010
1000
0000
0001
0000
0000
0010
0000
0100
1000
0000
,
1002
0000
0000
0000
0003
1000
0010
0000
0100
0000
0000
0001
0000
1000
0100
0000
,
0010
0000
0000
0100
0000
1000
0001
0000
1000
0010
0000
0100
0001
0100
0001
0000
,
2001
0000
0000
0000
3000
0100
1000
0000
0001
0000
0000
0100
0000
0100
0010
0000
,
1000
0000
0000
0001
0000
0001
0010
0000
0100
0000
0000
1000
0000
1000
0001
0000
,
0100
0001
0100
0001
0000
1000
0100
1000
0000
0001
0010
0001
0000
1000
0010
1000
,
0001
0000
0000
0000
0100
0000
0010
1000
0001
0000
0010
0000
0100
0000
0000
0000
,
2000
0000
0000
0000
3001
0100
0001
0000
0001
0000
0000
1000
0000
0001
0100
0000
,
1000
0000
0000
0100
0000
0010
1000
0000
0001
0000
0000
1000
0000
0100
0010
0000
,
0012
0000
0000
0000
1003
0010
1000
0000
1000
0000
0000
0001
0000
0010
0100
0000
,
1000
0000
0000
0001
0000
0100
0010
0000
2000
0000
0000
0000
3001
0100
0001
0000
,
2001
0000
0000
3001
1000
0001
0010
0000
0010
0000
0000
0001
0000
1000
0010
0000
,
0001
0000
0000
0010
0000
0100
0001
0000
1000
0000
0000
0001
0000
0010
0100
0000
,
2100
0000
0000
3001
1000
0100
1000
0000
1000
0000
0000
0001
0000
0100
0010
0000
,
1000
0000
0000
0100
0000
0010
0001
0000
2000
0000
0000
0000
3001
1000
0100
0000
,
0120
0000
0000
0000
,
0000
0000
0000
0000
,
0031
0000
0100
0010
1000
0001
0010
0200
,
0000
1300
0001
0100
0010
0001
0010
0100
,
0001
0000
0000
0000
1000
0000
0100
0010
0001
0000
1000
0000
0010
0000
0200
0000
,
0000
0301
1000
0100
1000
0001
0100
0010
,
1000
0000
0001
0010
0100
0010
0001
2000
,
0000
3001
0100
0010
0001
0010
0100
0001
,
1000
0000
0000
0000
0100
0000
0010
0100
1000
0000
0001
0000
0100
0000
0020
0000
,
0000
1030
0001
0010
0100
0010
0001
1000
,
1001
0000
0000
0000
0001
1000
0001
0000
0010
0000
0000
0000
0100
1000
0100
0000
,
1000
0000
0000
0000
0001
1000
0001
0000
0100
0000
0000
0000
0010
1000
0010
0000
,
0100
0000
0000
0000
0001
1000
0001
0000
0010
0000
0000
0000
0100
1000
0100
0000
,
0010
0000
0000
0000
0001
1000
0001
0000
0100
0000
0000
0000
0010
1000
0010
0100
,
0001
0000
0100
0000
0001
0000
0100
0000
0010
0000
1000
0000
0010
0000
1000
0001
,
0010
0000
0100
0000
0010
0000
0100
0000
1000
0000
0001
0000
1000
0000
0001
0100
,
0040
0430
0304
4003
,
3001
0000
0000
0000
0001
0000
0000
0000
0001
0000
0000
0000
2001
0000
0000
3000
,
1200
0000
0000
0000
0310
0001
0010
0000
0100
0000
0000
1000
0000
0001
1000
0000
,
0010
0000
0000
0100
0000
0001
1000
0000
0100
0000
0000
0010
0001
0000
0001
0000
,
2001
0000
0000
0000
3001
0100
0001
0000
1000
0000
0000
0100
0000
0010
0001
0000
,
1000
0000
0000
0010
0000
0000
0010
0000
0100
0000
0000
0001
0000
1000
0001
0000
,
0020
0000
0000
0000
0130
1000
0100
0000
0010
0000
0000
0001
0000
1000
0001
0000
,
0100
0000
0000
0010
0000
1000
0001
0000
0010
0000
0000
0100
1000
0000
1000
0000
,
2001
0000
0000
0000
3010
1000
0010
0000
0100
0000
0000
0001
0000
1000
0001
0000
,
0010
0000
0000
0000
0100
1000
0100
0000
0010
0000
0001
0000
1000
0000
0000
0000
,
1002
0000
0000
0000
0103
0001
0100
0000
0100
0000
0000
0001
0000
0100
0001
0000
,
0010
0000
0000
0100
0000
0100
1000
0000
0001
0000
0000
0100
0000
0100
0010
0000
,
2000
0000
0000
0000
3001
1000
0001
0000
0001
0000
0000
0010
0000
0010
0100
0000
,
1000
0000
0000
0001
0000
0000
0001
0000
0100
0000
0010
0000
0100
0000
0010
0000
,
2010
0000
0000
0000
3001
0100
0001
0000
0001
0000
0000
0100
0000
0100
0001
0000
,
0010
0000
0000
0001
0000
0001
1000
0000
0010
0000
0000
0100
0001
0000
0001
0000
,
2001
0000
0000
0000
3100
0010
0100
0000
0100
0000
0000
1000
0000
0001
0100
0000
,
0010
0000
0000
1000
0000
1000
0100
0000
0020
0000
0000
0000
0031
0000
0000
0000
,
1001
0000
0000
0000
;

//---------------dance-single - Feraligatr----------------
#NOTES:
     dance-single:
     Feraligatr:
     Medium:
     7:
     0.421272,0.471533,0.167883,0.211679,0.003650,404.000000,381.000000,23.000000,29.000000,0.000000,0.000000,0.421272,0.471533,0.167883,0.211679,0.003650,404.000000,381.000000,23.000000,29.000000,0.000000,0.000000:
0000
0000
0000
0000
,
0000
0000
0000
0000
,
0000
0000
0000
0000
,
0000
0000
0000
0000
,
1000
0000
0001
0100
0010
0000
0010
0100
,
0001
0000
0001
1000
0100
0000
0100
1000
,
0001
0000
0100
0010
1000
0000
1000
0001
,
0010
0010
0010
0010
,
0210
0000
0000
0000
,
0000
0000
0000
0000
0000
0000
0000
0000
0000
0000
0000
0000
0000
0000
0000
0300
,
1100
0000
1000
0001
0100
0010
0100
0002
,
0000
1003
0100
0010
0100
1000
0001
0100
,
0010
0000
0100
0001
0010
0100
1000
0002
,
0000
0103
0001
1000
0100
0010
0001
1000
,
0010
0000
0100
0001
1000
0100
0010
0002
,
0000
1003
0010
1000
0001
0010
0100
1000
,
0001
0000
0100
0001
0010
0100
0010
0002
,
0000
1003
0010
0100
0001
1000
0100
0010
,
0001
1000
0010
0100
,
0010
1000
0001
0010
,
0110
0100
1000
0001
,
0100
0000
0010
0000
1000
0000
0001
0001
,
0010
0100
0010
0100
1000
0100
1000
0100
,
1000
0001
1000
0001
0100
0001
0100
0001
,
4000
0000
0000
0000
,
3000
0000
0000
0000
0000
0000
0000
0000
0000
0000
0000
0000
1002
0000
0000
0003
,
2100
0000
3100
0010
0001
0000
1000
0001
,
0100
0000
0010
1000
0001
0000
0010
0100
,
2000
0000
3001
0100
0001
0000
1000
0100
,
0010
0000
0100
1000
0001
0100
0010
1000
,
0002
0000
0013
0100
1000
0000
0001
0100
,
0010
0000
1000
0001
0010
0000
0100
1000
,
0001
0000
1000
0010
0100
0000
0010
1000
,
0001
0000
0010
0100
1000
0010
0100
0000
,
0102
1003
1001
0001
,
0011
0010
0110
0100
,
2100
3001
1001
1000
,
1010
0000
0010
0000
0100
0001
0100
0001
,
2000
3100
0110
0010
,
0011
0001
1001
1000
,
2010
3010
0110
0100
,
0101
0001
2000
3100
,
0120
0000
0000
0000
,
0000
0000
0000
0000
,
0031
0000
1000
0010
0100
0010
1000
0002
,
0000
0013
0100
0010
0001
1000
0010
0100
,
0001
0000
1000
0100
1000
0001
0100
0020
,
0000
1030
0001
0010
0100
0010
0001
1000
,
0010
0000
0100
0001
1000
0100
0010
0002
,
0000
1003
0010
0100
0010
1000
0001
0010
,
0100
0000
1000
0001
0100
0010
1000
0002
,
0000
0013
0100
0010
0001
1000
0010
0100
,
0001
0001
1000
1000
,
0100
0100
0010
0010
,
0001
0001
1000
1000
,
0010
0010
0100
0100
,
0001
1000
0001
1000
0100
0010
0100
0010
,
0001
1000
0001
1000
0010
0100
0010
0100
,
0004
0000
0000
0000
,
0003
0000
0000
0000
0000
0000
0000
0000
0000
0000
0000
0000
1002
0000
0000
0003
,
0201
0000
0310
1000
0001
0000
0010
0100
,
1000
0000
0001
0100
0010
0000
0100
0001
,
2000
0000
3001
0010
0100
0000
0010
0001
,
1000
0000
0010
0100
0001
0000
0010
0100
,
2000
0000
3001
0100
0010
0000
1000
0001
,
0010
0000
0100
1000
0001
0000
0100
0010
,
2000
0000
3001
0010
0100
0000
0010
0001
,
1000
0000
0010
0100
0001
1000
0100
0000
,
0120
0000
0031
1000
0001
0000
0100
0000
,
0100
0000
0010
1000
0001
0000
0010
0010
,
0020
0000
0130
1000
0001
0000
0100
0000
,
0100
0000
0000
0010
0000
0000
1000
0000
0001
0000
0010
0000
0001
0000
0010
0000
,
0200
0000
1300
0001
0100
0000
0010
0000
,
0010
0000
1000
0001
0010
0000
0100
0100
,
0200
0000
1300
0001
0100
0000
0010
0000
,
0010
0000
1000
0001
0020
0000
0130
0000
,
1001
0000
0000
0000
;

//---------------dance-single - Feraligatr----------------
#NOTES:
     dance-single:
     Feraligatr:
     Easy:
     4:
     0.218978,0.277372,0.072993,0.131387,0.000000,210.000000,200.000000,10.000000,18.000000,0.000000,0.000000,0.218978,0.277372,0.072993,0.131387,0.000000,210.000000,200.000000,10.000000,18.000000,0.000000,0.000000:
0000
0000
0000
0000
,
0000
0000
0000
0000
,
0000
0000
0000
0000
,
0000
0000
0000
0000
,
1000
0100
0010
0100
,
1000
0001
0100
0010
,
0100
0001
1000
0100
,
0010
0010
0010
0010
,
1002
0000
0000
0000
,
0000
0000
0000
0000
,
0103
0000
0010
1000
,
0010
0000
0100
0001
,
0100
0000
0001
1000
,
0001
0000
0010
0100
,
0010
0000
0001
1000
,
0001
0000
0100
0010
,
0100
0000
0001
1000
,
0001
0000
0010
0100
,
0010
0000
0010
0000
,
0001
0000
0001
0000
,
1000
0000
1000
0000
,
0010
0000
0010
0000
,
0100
0100
0001
0001
,
1000
1000
0100
0100
,
0020
0000
0000
0000
,
0030
0000
0000
0000
,
1002
0003
0100
0010
,
1000
0000
0001
0010
,
0200
0300
0010
0001
,
1000
0000
0001
0100
,
0120
0030
0100
0001
,
1000
0000
0100
0010
,
0001
0001
1000
1000
,
0010
0000
0010
0100
,
0002
0003
0010
0100
,
1000
0000
0001
0100
,
0020
0030
1000
0100
,
0010
0000
0100
1000
,
1002
0003
0100
0010
,
1000
0000
0001
0010
,
0200
0300
1000
0001
,
0100
0100
0010
0010
,
2010
0000
0000
0000
,
0000
0000
0000
0000
,
3100
0000
0010
0001
,
1000
0000
0010
0100
,
0001
0000
1000
0100
,
1000
0000
0001
0100
,
0001
0000
0010
0100
,
1000
0000
0001
0100
,
0010
0000
0100
0001
,
1000
0000
0100
0010
,
0001
0000
0001
0000
,
1000
0000
1000
0000
,
0010
0000
0010
0000
,
0100
0000
0100
0000
,
0001
0001
1000
1000
,
0100
0100
0010
0010
,
0002
0000
0000
0000
,
0003
0000
0000
0000
,
2001
3000
0010
0100
,
0100
0000
0001
1000
,
1000
0000
0001
0010
,
0010
0000
0100
1100
,
2000
3000
0001
0100
,
0100
0000
0010
1000
,
1000
0000
0001
0010
,
0001
0001
0100
0100
,
0120
0030
1000
0001
,
0001
0000
0010
0100
,
0200
0300
1000
0001
,
0001
0100
0100
0010
,
2010
3000
0001
0010
,
0010
0000
0100
1000
,
2000
3000
0001
0100
,
0100
0000
0020
0030
,
1001
0000
0000
0000
;

//---------------dance-single - Feraligatr----------------
#NOTES:
     dance-single:
     Feraligatr:
     Beginner:
     1:
     0.128259,0.166423,0.124088,0.145985,0.000000,123.000000,106.000000,17.000000,20.000000,0.000000,0.000000,0.128259,0.166423,0.124088,0.145985,0.000000,123.000000,106.000000,17.000000,20.000000,0.000000,0.000000:
0000
0000
0000
0000
,
0000
0000
0000
0000
,
0000
0000
0000
0000
,
0000
0000
0000
0000
,
1000
0000
0000
0000
,
0100
0000
0000
0000
,
0010
0000
0000
0000
,
0001
0000
0000
0000
,
2001
0000
0000
0000
,
0000
0000
0000
0000
,
3001
0000
0100
0000
,
0010
0000
0100
0000
,
0001
0000
1000
0000
,
0100
0000
0010
0000
,
0001
0000
1000
0000
,
0010
0000
0100
0000
,
0001
0000
1000
0000
,
0100
0000
0010
0000
,
1001
0000
0000
0000
,
0110
0000
0000
0000
,
1001
0000
0000
0000
,
0110
0000
0000
0000
,
1000
0000
1000
0000
,
0001
0000
0001
0000
,
0020
0000
0000
0000
,
0030
0000
0000
0000
,
2002
3003
0000
0000
,
1000
0000
0000
0000
,
0020
0030
0000
0000
,
0100
0000
0000
0000
,
1002
0003
0000
0000
,
0010
0000
0000
0000
,
0100
0000
0000
0000
,
1000
0000
0001
0000
,
0200
0300
0000
0000
,
0010
0000
0000
0000
,
2000
3000
0000
0000
,
0001
0000
0000
0000
,
0210
0300
0000
0000
,
1000
0000
0000
0000
,
0020
0030
0000
0000
,
0100
0000
0001
0000
,
1002
0000
0000
0000
,
0000
0000
0000
0000
,
1003
0000
0100
0000
,
0010
0000
0100
0000
,
1000
0000
0001
0000
,
0100
0000
0010
0000
,
0100
0000
0001
0000
,
1000
0000
0100
0000
,
0010
0000
0001
0000
,
1000
0000
0010
0000
,
0110
0000
0000
0000
,
1001
0000
0000
0000
,
0110
0000
0000
0000
,
1001
0000
0000
0000
,
1000
0000
1000
0000
,
0001
0000
0001
0000
,
0200
0000
0000
0000
,
0300
0000
0000
0000
,
1002
0003
1000
0000
,
0010
0000
0100
0000
,
0002
0003
1000
0000
,
0100
0000
0010
0000
,
0002
0003
1000
0000
,
0010
0000
0100
0000
,
0002
0003
1000
0000
,
0100
0000
0010
0000
,
2001
3000
0001
0000
,
0100
0000
0010
0000
,
2000
3000
0001
0000
,
0010
0000
0100
0000
,
0120
0030
0001
0000
,
1000
0000
0010
0000
,
0200
0300
0001
0000
,
1000
0000
0000
0000
,
1001
0000
0000
0000
;
