#VERSION:0.83;
#TITLE:That Brass;
#SUBTITLE:(Shwann Edit);
#ARTIST:Antum;
#TITLETRANSLIT:;
#SUBTITLETRANSLIT:;
#ARTISTTRANSLIT:;
#GENRE:Big Room House;
#ORIGIN:;
#CREDIT:Feraligatr;
#BANNER:That Brass-bn.png;
#BACKGROUND:That Brass-bg-wide.png;
#PREVIEWVID:;
#JACKET:That Brass-jacket.png;
#CDIMAGE:FeraligatrV4-cd.png;
#DISCIMAGE:That Brass-bg.png;
#LYRICSPATH:;
#CDTITLE:FeraligatrV4-cd.png;
#MUSIC:Antum - That Brass (Shwann Edit).ogg;
#OFFSET:0.009000;
#SAMPLESTART:29.990999;
#SAMPLELENGTH:15.000000;
#SELECTABLE:YES;
#DISPLAYBPM:128.000000;
#BPMS:0.000=128.000;
#STOPS:;
#DELAYS:;
#WARPS:;
#TIMESIGNATURES:0.000=4=4;
#TICKCOUNTS:0.000=4;
#COMBOS:0.000=1;
#SPEEDS:0.000=1.000=0.000=0;
#SCROLLS:0.000=1.000;
#FAKES:;
#LABELS:0.000=Song Start;
#BGCHANGES:;
#KEYSOUNDS:;
#ATTACKS:
;

//---------------dance-single - Feraligatr----------------
#NOTEDATA:;
#CHARTNAME:Feraligatr;
#STEPSTYPE:dance-single;
#DESCRIPTION:Feraligatr;
#CHARTSTYLE:;
#DIFFICULTY:Challenge;
#METER:12;
#RADARVALUES:0.830357,0.929688,0.773438,0.070313,0.929688,744.000000,631.000000,99.000000,9.000000,3.000000,14.000000,8.000000,0.000000,0.000000,0.830357,0.929688,0.773438,0.070313,0.929688,744.000000,631.000000,99.000000,9.000000,3.000000,14.000000,8.000000,0.000000,0.000000;
#CREDIT:Feraligatr;
#DISPLAYBPM:128.000000;
#NOTES:
0000
0000
0000
0000
,
0000
0000
0000
0000
,
0000
0000
0000
0000
,
0000
0000
0000
0000
,
1101
0000
0000
0000
0001
1000
0100
1000
0001
0010
0100
0000
1000
0001
0100
0000
,
0010
0000
1000
0000
0001
0100
0010
0100
0001
1000
0100
1000
0001
0100
0010
1000
,
0011
0000
1000
0000
0001
0010
0100
0010
0001
1000
0010
0000
0200
0000
0000
0000
,
0301
0000
1000
0100
1000
0001
0100
0010
2000
0000
3010
0100
0000
0000
0000
0000
,
0001
0000
0000
0000
1000
0000
0000
0000
0010
0000
0000
0000
0100
0000
0001
1000
0001
0000
0000
0000
0010
0000
0000
0000
0100
0000
0000
0000
1000
0000
0001
0100
,
0001
0000
0000
0000
1000
0000
0000
0000
0100
0000
0000
0000
0010
0000
0001
1000
0001
0000
0000
0000
0100
0000
0000
0000
0010
0000
0000
0000
1000
0000
0001
0010
,
0001
0000
0000
0000
1000
0000
0000
0000
0010
0000
0000
0000
0100
0000
0001
1000
0001
0000
0000
0000
0010
0000
0000
0000
0100
0000
0000
0000
1000
0000
0001
0100
,
0001
0000
0000
0000
1000
0000
0000
0000
0100
0000
0000
0000
0010
0000
0001
1000
0001
0000
0000
0000
0010
0000
0000
0000
0100
0000
0000
0000
1000
0000
0001
0100
,
0001
1000
0100
1000
0001
0100
0010
1000
0001
0010
0100
0010
0001
1000
0010
0100
,
0001
1000
0100
1000
0001
0100
0010
1000
0001
0010
0100
0010
0001
1000
0010
0100
,
0001
0010
0001
1000
0010
0100
0001
0010
0100
1000
0001
0100
0001
0010
0100
0010
,
0004
0000
0000
0000
4000
0000
0000
0000
0000
0000
0000
0000
0000
0000
0000
0000
0000
0000
0000
0000
0000
0000
0000
0000
0000
0000
0000
0000
0000
0000
0000
0000
0000
0000
0000
0000
0000
0000
0000
0000
0000
0000
0000
0000
0003
0000
0000
0000
3040
0030
0000
0000
0400
0300
0000
0000
0004
0003
0000
0000
0000
0000
0000
0000
,
1011
0000
1000
0000
0001
0010
0010
0010
0101
0000
0000
1010
0000
0000
0001
0000
,
1100
0000
0010
0000
1000
0010
0010
0010
1100
0000
0010
0010
0101
0000
0000
0000
,
1101
0000
1000
0000
0001
0100
0100
0100
0011
0000
0000
1100
0000
0000
0001
0000
,
1010
0000
0100
0000
1000
0100
0100
0100
1010
0000
0100
0100
0011
0000
1000
0000
,
1011
0000
0001
0000
1000
0100
0100
0100
1010
0000
0000
0101
0000
0000
1000
0000
,
0011
0000
0100
0000
0001
0100
0100
0100
0011
0000
0100
0100
1010
0000
0000
0000
,
1011
0000
1000
0000
0001
0010
0010
0010
0101
0000
0000
1010
0000
0000
0100
0000
,
0010
0000
0001
0000
1000
0000
0010
0010
0000
0001
0100
0001
0020
0000
0000
0030
,
0210
0000
0000
0000
1300
0100
0100
0100
1010
0000
0000
0101
1000
0000
0010
0000
,
1100
0000
0001
0000
1000
0100
0100
0100
1010
0000
0100
0100
0011
0000
0000
0000
,
1011
0000
1000
0000
0001
0010
0010
0010
0101
0000
0000
1010
0001
0000
0100
0000
,
0011
0000
1000
0000
0001
0100
0100
0100
0011
0000
0100
0100
1010
0000
0000
0000
,
1011
0000
0001
0000
1000
0010
0010
0010
1100
0000
0000
0011
1000
0000
0100
0000
,
1010
0000
0001
0000
1000
0010
0010
0010
1100
0000
0010
0010
0101
0000
0000
0000
,
1101
0000
1000
0000
0001
0100
0100
0100
0011
0000
0000
1100
0001
0000
0010
0000
,
0101
0000
1000
0000
0001
0100
0100
0100
0010
0000
0100
0100
2000
0000
0000
0000
,
3002
0000
0000
0000
,
0000
0000
0000
0000
,
0103
0000
0010
0000
1000
0001
0010
0000
1000
0000
0000
0010
0000
0100
0000
0000
,
1000
0000
0001
0000
0100
0010
1000
0000
0100
0000
0000
0010
0000
0001
0000
0000
,
1000
0000
0010
0000
1000
0001
0010
0000
1000
0000
0000
0010
0000
0100
0000
0000
,
1000
0000
0001
0000
0100
0010
1000
0000
0100
0000
0000
0001
0000
0100
0000
0000
,
0010
0000
0100
0000
1000
0001
0100
0000
1000
0000
0000
0100
0000
0010
0000
0000
,
1000
0000
0001
0000
0010
0100
1000
0000
0010
0000
0000
0100
0000
0001
0000
0000
,
1000
0000
0100
0000
1000
0001
0100
0000
1000
0000
0000
0100
0000
0010
0000
0000
,
1M10
0000
0000
0000
0000
0000
0000
0000
0000
0000
0000
0000
0000
0000
0000
0000
1M10
0000
0000
0000
0000
0000
0000
0000
0000
0000
0000
0000
0000
0000
0000
0000
1M10
0000
0000
0000
0000
0000
0000
0000
0000
0000
0000
0000
0000
0000
0000
0000
4000
3000
0000
0000
0004
0003
0000
0000
0040
0030
0000
0000
0000
0000
0000
0000
,
1011
0000
0000
1000
0000
0001
0000
1000
0101
0000
1000
0011
0000
1000
0101
1000
,
0101
0000
0000
0010
0000
0100
0000
1000
0101
0000
1000
0101
0000
1000
0101
1000
,
0101
0000
0000
0010
0000
0001
0000
1000
0011
0000
1000
0101
0000
1000
0011
1000
,
0011
0000
0000
0100
0000
0001
0000
1000
0100
0000
0010
0001
0200
0000
0310
1000
,
1011
0000
0000
0001
0000
1000
0100
0010
0101
1000
0001
1100
0000
0001
1010
0001
,
1010
0000
0000
0100
0000
0010
0001
1000
0011
0100
0001
1100
0000
0010
1100
0010
,
1100
0000
0000
0001
0000
1000
0100
0010
0101
1000
0001
1100
0000
0001
1010
0001
,
1010
0000
0000
0100
0000
1000
0001
0100
0010
0000
0100
0010
0000
0100
0010
1000
,
0100
0000
1000
0000
0001
0100
0100
0100
0011
0000
0000
1100
0001
0000
0010
0000
,
0101
0000
1000
0000
0001
0100
0100
0100
0011
0000
0100
0100
1010
0000
0000
0000
,
1011
0000
0001
0000
1000
0010
0010
0010
1100
0000
0000
0011
1000
0000
0100
0000
,
1010
0000
0001
0000
1000
0010
0010
0010
1100
0000
0010
0010
0101
0000
0000
0000
,
1101
0000
1000
0000
0001
0100
0100
0100
0011
0000
0000
1100
0001
0000
0010
0000
,
0101
0000
1000
0000
0001
0100
0100
0100
0011
0000
0100
0100
1010
0000
0000
0000
,
1011
0000
0001
0000
1000
0010
0010
0010
1100
0000
0000
0011
1000
0000
0100
0000
,
1010
0000
0001
0000
1000
0010
0010
0010
0100
0000
0010
0010
0002
0000
0000
0003
,
1011
0000
0001
0000
1000
0100
0100
0100
0010
0001
1000
0000
0001
0100
0010
0000
,
1000
0000
0001
0000
0010
0100
0100
0100
1000
0001
0010
0010
1000
0001
1000
0010
,
1100
0000
0001
0000
1000
0100
0100
0100
0010
0001
1000
0000
0001
0100
0010
0000
,
1000
0000
0001
0000
0010
0100
0100
0100
1000
0001
0010
0010
1000
0001
1000
0100
,
1010
0000
0001
0000
1000
0010
0010
0010
0100
0001
1000
0000
0001
0010
0100
0000
,
1000
0000
0001
0000
0100
0010
0010
0010
1000
0001
0100
0100
1000
0001
0100
0010
,
1100
0000
0001
0000
1000
0100
0100
0100
0010
0001
1000
0000
0001
0100
0010
0000
,
1000
0000
0001
0000
0001
0000
1000
0000
0010
0100
0001
0000
1000
0000
0100
0000
,
0020
0000
0000
0000
,
0000
0000
0000
0000
,
0030
0000
0000
0000
;

//---------------dance-single - Feraligatr----------------
#NOTEDATA:;
#CHARTNAME:Feraligatr SH;
#STEPSTYPE:dance-single;
#DESCRIPTION:Feraligatr;
#CHARTSTYLE:;
#DIFFICULTY:Hard;
#METER:10;
#RADARVALUES:0.637277,0.637500,0.117188,0.078125,0.671875,571.000000,556.000000,15.000000,10.000000,0.000000,0.000000,0.000000,0.000000,0.000000,0.637277,0.637500,0.117188,0.078125,0.671875,571.000000,556.000000,15.000000,10.000000,0.000000,0.000000,0.000000,0.000000,0.000000;
#CREDIT:Feraligatr;
#DISPLAYBPM:128.000000;
#NOTES:
// measure 0
0000
0000
0000
0000
,  // measure 1
0000
0000
0000
0000
,  // measure 2
0000
0000
0000
0000
,  // measure 3
0000
0000
0000
0000
,  // measure 4
1001
0000
0000
0000
0001
0000
0100
0000
0010
1000
0001
0000
1000
0001
0010
0000
,  // measure 5
0100
0000
1000
0000
0001
0000
0010
0000
0100
1000
0001
0000
1000
0010
0100
0001
,  // measure 6
0010
0000
0000
0000
0100
0000
1000
0000
0001
0100
0010
0000
2000
0000
0000
0000
,  // measure 7
3001
0000
0010
0100
1000
0001
1000
0010
0200
0000
0310
1000
0000
0000
0000
0000
,  // measure 8
0001
1000
0100
0010
0100
1000
0001
0100
,  // measure 9
0010
0100
0001
1000
0100
0010
0001
1000
,  // measure 10
0010
0100
0010
1000
0001
0010
0100
1000
,  // measure 11
0001
0100
0001
1000
0100
0010
0001
1000
,  // measure 12
0010
0010
0100
0100
0001
0001
1000
1000
,  // measure 13
0100
0100
0010
0010
0001
0001
1000
1000
,  // measure 14
0001
0000
0000
0100
0000
0000
0010
0000
0000
1000
0000
0000
0001
0000
0000
0010
,  // measure 15
0000
0000
0100
0000
0000
1000
0000
0000
0002
0000
0000
0000
1003
0100
1000
0000
,  // measure 16
1001
0000
0001
0000
0100
0010
1000
0010
0100
0000
0000
0001
0000
0000
0010
0000
,  // measure 17
0100
0000
1000
0000
0001
0100
0010
0100
0001
0000
1000
0100
0010
0000
0000
0000
,  // measure 18
0011
0000
0001
0000
1000
0001
0100
0001
1000
0000
0000
0100
0000
0000
0010
0000
,  // measure 19
0001
0000
0100
0000
0010
1000
0001
1000
0010
0000
1000
0001
0010
0000
0100
0000
,  // measure 20
1100
0000
1000
0000
0001
0100
0010
0100
0001
0000
0000
1000
0000
0000
0100
0000
,  // measure 21
0010
0000
0100
0000
1000
0001
0100
0001
1000
0000
0010
0100
0001
0000
0000
0000
,  // measure 22
1001
0000
1000
0000
0001
0010
0100
0010
0001
0000
0000
1000
0000
0000
0010
0000
,  // measure 23
0100
0000
0001
0000
1000
0000
0100
0010
0000
0100
1000
0001
0200
0000
0000
0300
,  // measure 24
0120
0000
0000
0000
0130
0001
1000
0001
0010
0000
0000
0100
1000
0000
0001
0000
,  // measure 25
0100
0000
0010
0000
1000
0001
0100
0001
1000
0000
0001
0010
0100
0000
0000
0000
,  // measure 26
1100
0000
1000
0000
0001
0100
0010
0100
0001
0000
0000
1000
0001
0000
0010
0000
,  // measure 27
0100
0000
1000
0000
0001
1000
0010
1000
0001
0000
0010
0100
1000
0000
0000
0000
,  // measure 28
1001
0000
0001
0000
0100
0010
1000
0010
0100
0000
0000
0001
1000
0000
0100
0000
,  // measure 29
0010
0000
0001
0000
1000
0001
0010
0001
1000
0000
0100
0010
0001
0000
0000
0000
,  // measure 30
1001
0000
1000
0000
0001
0100
0010
0100
0001
0000
0000
1000
0100
0000
0010
0000
,  // measure 31
0100
0000
1000
0000
0001
0100
0010
0100
0001
0000
1000
0100
0020
0000
0000
0000
,  // measure 32
0032
0000
0000
0000
,  // measure 33
0000
0000
0000
0000
,  // measure 34
1003
0000
0010
0000
0100
0001
1000
0000
0100
0000
0000
0010
0000
0001
0000
0000
,  // measure 35
1000
0000
0001
0000
0100
0001
1000
0000
0100
0000
0000
0010
0000
0001
0000
0000
,  // measure 36
1000
0000
0010
0000
0100
0001
1000
0000
0100
0000
0000
0010
0000
0001
0000
0000
,  // measure 37
1000
0000
0010
0000
0100
0001
1000
0000
0100
0000
0000
0010
0000
0100
0000
0000
,  // measure 38
1000
0000
0001
0000
0100
0010
1000
0000
0001
0000
0000
0010
0000
0100
0000
0000
,  // measure 39
0010
0000
0001
0000
1000
0010
0100
0000
0001
0000
0000
1000
0000
0100
0000
0000
,  // measure 40
0010
0000
0100
0000
1000
0001
0100
0000
0010
0000
0000
1000
0000
0001
0000
0000
,  // measure 41
0010
0000
0000
0000
0010
0000
0000
0000
0010
0000
0000
0000
0100
1000
0100
0000
,  // measure 42
1001
0000
0000
0001
0000
1000
0000
0001
0100
0000
0001
0010
0000
0001
1000
0001
,  // measure 43
1000
0000
0000
0100
0000
0010
0000
0001
1000
0000
0001
1000
0000
0001
1000
0001
,  // measure 44
1000
0000
0000
0001
0000
0100
0000
0010
1000
0000
0010
0100
0000
0010
1000
0010
,  // measure 45
1000
0000
0000
0001
0000
0010
0000
0100
1000
0000
0001
0100
0020
0000
0000
0030
,  // measure 46
1010
0000
0000
1000
0000
0001
0000
1000
0100
0000
1000
0010
0000
1000
0001
1000
,  // measure 47
0001
0000
0000
0100
0000
0010
0000
1000
0001
0000
1000
0001
0000
1000
0001
1000
,  // measure 48
0001
0000
0000
0010
0000
0100
0000
1000
0001
0000
1000
0010
0000
1000
0001
1000
,  // measure 49
0001
0000
0000
0010
0000
0100
1000
0001
0100
0000
0010
0100
0000
0010
0100
0001
,  // measure 50
1000
0000
0001
0000
0010
0100
1000
0100
0010
0000
0000
0001
1000
0000
0010
0000
,  // measure 51
0100
0000
0001
0000
1000
0100
0010
0100
1000
0000
0001
0100
0010
0000
0000
0000
,  // measure 52
1010
0000
1000
0000
0001
0010
0100
0010
0001
0000
0000
1000
0010
0000
0100
0000
,  // measure 53
0001
0000
1000
0000
0100
0010
0001
0010
0100
0000
1000
0001
0100
0000
0000
0000
,  // measure 54
0110
0000
0010
0000
1000
0001
0100
0001
1000
0000
0000
0100
0010
0000
0001
0000
,  // measure 55
1000
0000
0010
0000
0100
0001
1000
0001
0100
0000
0001
1000
0100
0000
0000
0000
,  // measure 56
0110
0000
0010
0000
0001
1000
0010
1000
0001
0000
0000
0010
0100
0000
1000
0000
,  // measure 57
0001
0000
0100
0000
0010
1000
0001
1000
0010
0000
0100
0001
2000
0000
0000
3000
,  // measure 58
1001
0000
0001
0000
0010
0000
0100
0000
1000
0001
0100
0000
0001
0100
0010
0000
,  // measure 59
1000
0000
0001
0000
0010
0000
0100
0000
1000
0001
0100
0000
0010
1000
0010
1000
,  // measure 60
0001
0000
0010
0000
0100
0000
1000
0000
0001
1000
0010
0000
0100
0001
1000
0000
,  // measure 61
0001
0000
0010
0000
0100
0000
1000
0000
0001
0100
0010
0000
1000
0001
1000
0001
,  // measure 62
0010
0000
0100
0000
1000
0000
0001
0000
0100
0010
1000
0000
0010
1000
0001
0000
,  // measure 63
0010
0000
0100
0000
1000
0000
0001
0000
0100
0010
1000
0000
0001
0010
0001
0010
,  // measure 64
0100
0000
1000
0000
0001
0000
0100
0000
0010
1000
0001
0000
1000
0001
0010
0000
,  // measure 65
0100
1000
1000
0001
0100
0010
0100
0001
,  // measure 66
2000
0000
0000
0000
,  // measure 67
0000
0000
0000
0000
,  // measure 68
3000
0000
0000
0000
;

//---------------dance-single - Feraligatr----------------
#NOTEDATA:;
#CHARTNAME:Feraligatr SM;
#STEPSTYPE:dance-single;
#DESCRIPTION:Feraligatr;
#CHARTSTYLE:;
#DIFFICULTY:Medium;
#METER:8;
#RADARVALUES:0.462054,0.531250,0.726563,0.085938,0.144531,414.000000,321.000000,93.000000,11.000000,0.000000,0.000000,0.000000,0.000000,0.000000,0.462054,0.531250,0.726563,0.085938,0.144531,414.000000,321.000000,93.000000,11.000000,0.000000,0.000000,0.000000,0.000000,0.000000;
#CREDIT:Feraligatr;
#DISPLAYBPM:128.000000;
#NOTES:
0000
0000
0000
0000
,
0000
0000
0000
0000
,
0000
0000
0000
0000
,
0000
0000
0000
0000
,
1001
0000
0001
0100
0001
0000
2000
0000
,
3100
0000
0010
0001
0010
0000
0001
0000
,
1001
0000
1000
0010
1000
0000
0002
0000
,
0013
0000
0100
1000
0001
0100
0000
0000
,
0010
1000
0001
0000
1000
0100
0010
0000
,
0100
1000
0001
0000
0100
0010
1000
0100
,
0010
0001
1000
0000
0010
0100
0001
0000
,
1000
0001
0010
0000
0100
1000
0001
0000
,
0100
0100
0010
0010
1000
1000
0001
0001
,
0010
0010
0100
0100
0010
0010
0001
0001
,
1000
0000
0000
0001
0000
0000
0100
0000
0000
0010
0000
0000
0100
0000
0000
0001
,
0000
0000
1000
0000
0000
0100
0000
0000
0020
0000
0000
0000
0030
0000
0000
0000
,
1001
0000
0001
0000
0100
0000
0000
0000
1010
0000
0000
1001
0000
0000
0001
0000
,
0011
0010
0100
0000
1100
0000
0011
0000
,
0101
0000
0001
0000
1000
0000
0000
0000
1010
0000
0000
0110
0000
0000
0100
0000
,
0101
0001
1000
0000
1100
0000
0011
0000
,
1001
0000
1000
0000
0001
0000
0000
0000
0101
0000
0000
0110
0000
0000
0010
0000
,
1010
1000
0001
0000
0011
0000
1100
0000
,
1001
0000
0001
0000
0100
0000
0000
0000
0110
0000
0000
1010
0000
0000
1000
0000
,
0001
0000
0010
0000
0200
0000
0000
0000
0300
0000
1000
0000
0020
0000
0000
0030
,
0210
0000
0000
0000
0301
0000
0000
0000
1001
0000
0000
0011
0000
0000
0010
0000
,
0110
0100
1000
0000
1001
0000
0110
0000
,
1001
0000
1000
0000
0001
0000
0000
0000
0101
0000
0000
1001
0000
0000
1000
0000
,
1100
0100
0010
0000
0011
0000
1100
0000
,
1001
0000
0001
0000
0100
0000
0000
0000
0110
0000
0000
1010
0000
0000
1000
0000
,
1001
0001
0010
0000
1100
0000
0011
0000
,
1001
0000
1000
0000
0010
0000
0000
0000
0110
0000
0000
0101
0000
0000
0001
0000
,
1001
1000
0100
0000
0010
0000
0001
0000
,
2000
0000
0000
0000
,
0000
0000
0000
0000
,
3010
0000
0000
0000
0100
0000
0000
0000
0001
0000
0000
0010
0000
0100
0000
0000
,
1000
0000
0000
0000
0010
0000
0000
0000
0100
0000
0000
0001
0000
0010
0000
0000
,
0100
0000
0000
0000
0010
0000
0000
0000
0001
0000
0000
1000
0000
0010
0000
0000
,
0100
0000
0000
0000
0010
0000
0000
0000
1000
0000
0000
0001
0000
0010
0000
0000
,
0100
0000
0000
0000
1000
0000
0000
0000
0001
0000
0000
0100
0000
0010
0000
0000
,
0100
0000
0000
0000
0001
0000
0000
0000
1000
0000
0000
0001
0000
0010
0000
0000
,
0100
0000
0000
0000
0010
0000
0000
0000
0001
0000
0000
1000
0000
0010
0000
0000
,
0100
0100
0100
0000
,
1001
0000
0000
0000
1000
0000
0000
0000
1100
0000
0000
0110
0000
0000
1100
0000
,
1100
0000
0000
0000
0001
0000
0000
0000
1001
0000
0000
1001
0000
0000
1001
0000
,
1001
0000
0000
0000
1000
0000
0000
0000
1010
0000
0000
0110
0000
0000
1010
0000
,
1010
0000
0000
0000
0001
0000
0000
0000
0010
0000
0100
0000
2000
0000
0000
3000
,
1001
0000
0000
0000
0001
0000
0000
0000
0101
0000
0000
0110
0000
0000
0101
0000
,
0101
0000
0000
0000
0001
0000
0000
0000
0110
0000
0000
0110
0000
0000
0110
0000
,
0110
0000
0000
0000
0001
0000
0000
0000
0011
0000
0000
0110
0000
0000
0011
0000
,
0011
0000
0000
0000
0010
0000
0000
0000
0100
0000
0000
0100
0000
0000
0100
0000
,
1001
0000
1000
0000
0010
0000
0000
0000
0101
0000
0000
1001
0000
0000
1000
0000
,
1100
0100
0010
0000
0011
0000
1100
0000
,
1010
0000
1000
0000
0001
0000
0000
0000
0101
0000
0000
0110
0000
0000
0010
0000
,
1010
1000
0001
0000
0011
0000
1100
0000
,
1001
0000
0001
0000
1000
0000
0000
0000
1010
0000
0000
0110
0000
0000
0100
0000
,
0101
0001
1000
0000
1100
0000
0011
0000
,
1001
0000
1000
0000
0010
0000
0000
0000
0110
0000
0000
0101
0000
0000
0001
0000
,
1000
0000
0100
0000
0020
0000
0000
0000
0031
0000
0000
0000
2000
0000
0000
3000
,
1001
0001
1000
0000
0010
0000
0010
0000
,
1000
0001
1000
0000
0100
0000
0100
0000
,
0010
0001
0010
0000
0100
0000
0100
0000
,
1000
0001
1000
0000
0010
0000
0010
0000
,
0100
0001
0100
0000
0010
0000
0010
0000
,
1000
0001
1000
0000
0100
0000
0100
0000
,
0010
0001
0010
0000
0100
0000
0100
0000
,
1000
0001
1000
0000
0010
0000
0010
0000
,
0200
0000
0000
0000
,
0000
0000
0000
0000
,
0300
0000
0000
0000
;

//---------------dance-single - Feraligatr----------------
#NOTEDATA:;
#CHARTNAME:Feraligatr SE;
#STEPSTYPE:dance-single;
#DESCRIPTION:Feraligatr;
#CHARTSTYLE:;
#DIFFICULTY:Easy;
#METER:5;
#RADARVALUES:0.241071,0.318750,0.500000,0.039063,0.000000,216.000000,152.000000,64.000000,5.000000,0.000000,0.000000,12.000000,0.000000,0.000000,0.241071,0.318750,0.500000,0.039063,0.000000,216.000000,152.000000,64.000000,5.000000,0.000000,0.000000,12.000000,0.000000,0.000000;
#CREDIT:Feraligatr;
#DISPLAYBPM:128.000000;
#NOTES:
0000
0000
0000
0000
,
0000
0000
0000
0000
,
0000
0000
0000
0000
,
0000
0000
0000
0000
,
1001
0000
1000
0000
,
0010
0000
0010
0000
,
0100
0000
0100
0000
,
0001
0000
0001
0000
,
0010
0100
0010
0001
,
1000
0001
0100
0010
,
0100
0001
1000
0100
,
1000
0001
0100
0010
,
0100
0001
1000
0100
,
0010
0001
1000
0010
,
0100
0001
1000
0100
,
0020
0000
0000
0030
,
1001
0000
1010
0000
,
0101
0000
1100
1001
,
0110
0000
1001
0000
,
0011
0000
0110
1100
,
1001
0000
0101
0000
,
0110
0000
1010
1001
,
0011
0000
0110
0000
,
1000
0000
0000
0000
0000
0000
0000
0000
0000
0000
0000
0000
0020
0000
0000
0030
,
0110
0000
1001
0000
,
1100
0000
0110
0011
,
1001
0000
1010
0000
,
0110
0000
1001
1100
,
0110
0000
1100
0000
,
1001
0000
0101
0110
,
1010
0000
1001
0000
,
0011
0000
0010
0100
,
2000
0000
0000
0000
,
0000
0000
0000
0000
,
3001
0000
0100
0000
,
0010
0000
0100
0000
,
0001
0000
1000
0000
,
0100
0000
0010
0000
,
0100
0000
1000
0000
,
0001
0000
0100
0000
,
0010
0000
1000
0000
,
0001
0001
0001
0000
,
1001
0000
4400
0000
,
3300
0000
4004
0000
,
3003
0000
4040
0000
,
3030
0000
0000
0000
0000
0000
0000
0000
0001
0000
0000
0000
2000
0000
0000
3000
,
1100
0000
4004
0000
,
3003
0000
0404
0000
,
0303
0000
4004
0000
,
3003
0000
0010
0010
,
1001
0000
0101
0000
,
1010
0000
0011
1001
,
0110
0000
1001
0000
,
1100
0000
0110
0011
,
1001
0000
1010
0000
,
0110
0000
0101
1001
,
1100
0000
0110
0000
,
0011
0000
1000
0010
,
0110
0100
0100
0000
,
0001
0001
0001
0000
,
1000
1000
1000
0000
,
0100
0100
0100
0010
,
0011
0001
0001
0000
,
1000
1000
1000
0000
,
0010
0010
0010
0000
,
0100
0100
0100
0000
,
0002
0000
0000
0000
,
0000
0000
0000
0000
,
0003
0000
0000
0000
;

//---------------dance-single - Feraligatr----------------
#NOTEDATA:;
#CHARTNAME:Feraligatr SB;
#STEPSTYPE:dance-single;
#DESCRIPTION:Feraligatr;
#CHARTSTYLE:;
#DIFFICULTY:Beginner;
#METER:1;
#RADARVALUES:0.117188,0.185937,0.257813,0.023438,0.000000,105.000000,72.000000,33.000000,3.000000,0.000000,0.000000,0.000000,0.000000,0.000000,0.117188,0.185937,0.257813,0.023438,0.000000,105.000000,72.000000,33.000000,3.000000,0.000000,0.000000,0.000000,0.000000,0.000000;
#CREDIT:Feraligatr;
#DISPLAYBPM:128.000000;
#NOTES:
0000
0000
0000
0000
,
0000
0000
0000
0000
,
0000
0000
0000
0000
,
0000
0000
0000
0000
,
1001
0000
0000
0000
,
1000
0000
0000
0000
,
0010
0000
0000
0000
,
0100
0000
0000
0000
,
0001
0000
0001
0000
,
1000
0000
1000
0000
,
0100
0000
0100
0000
,
0010
0000
0010
0000
,
0001
0000
0001
0000
,
1000
0000
1000
0000
,
0010
0000
0010
0000
,
0200
0000
0000
0300
,
1001
0000
0000
0000
,
0110
0000
0000
0000
,
1001
0000
0000
0000
,
0110
0000
0000
0000
,
1001
0000
0000
0000
,
0110
0000
0000
0000
,
1001
0000
0000
0000
,
0001
0000
0000
0000
,
0011
0000
0000
0000
,
1100
0000
0000
0000
,
0101
0000
0000
0000
,
1010
0000
0000
0000
,
1100
0000
0000
0000
,
0011
0000
0000
0000
,
1010
0000
0000
0000
,
0101
0000
0000
0000
,
0002
0000
0000
0000
,
0000
0000
0000
0000
,
1003
0000
0000
0000
,
0010
0000
0000
0000
,
0100
0000
0000
0000
,
0001
0000
0000
0000
,
1000
0000
0000
0000
,
0100
0000
0000
0000
,
0010
0000
0000
0000
,
0001
0001
0001
0000
,
1001
0000
0000
0000
,
0110
0000
0000
0000
,
1001
0000
0000
0000
,
0110
0000
0000
0000
,
1001
0000
0000
0000
,
0110
0000
0000
0000
,
1001
0000
0000
0000
,
0110
0000
1000
0000
,
1100
0000
0000
0000
,
0011
0000
0000
0000
,
0101
0000
0000
0000
,
1010
0000
0000
0000
,
1100
0000
0000
0000
,
0011
0000
0000
0000
,
0101
0000
0000
0000
,
1010
0000
0000
0000
,
1001
0000
0000
0000
,
0001
0000
0000
0000
,
0010
0000
0000
0000
,
0100
0000
0000
0000
,
1000
0000
0000
0000
,
0001
0000
0000
0000
,
0100
0000
0000
0000
,
0010
0000
0000
0000
,
2000
0000
0000
0000
,
0000
0000
0000
0000
,
3000
0000
0000
0000
;
