#TITLE:TOY;
#SUBTITLE:;
#ARTIST:Netta;
#TITLETRANSLIT:;
#SUBTITLETRANSLIT:;
#ARTISTTRANSLIT:;
#GENRE:;
#CREDIT:;
#BANNER:toy-bn.png;
#BACKGROUND:Toy-bg.png;
#LYRICSPATH:;
#CDTITLE:maxx-cdtitle.png;
#MUSIC:TOY.ogg;
#OFFSET:-0.406000;
#SAMPLESTART:66.175003;
#SAMPLELENGTH:14.769000;
#SELECTABLE:YES;
#DISPLAYBPM:65.000000:130.000000;
#BPMS:0.000000=130.000000
,112.000000=65.000000
,120.000000=130.000000
,232.000000=65.000000
,240.000000=130.000000
,288.000000=65.000000
,294.000000=130.000000
;
#STOPS:
;
#BGCHANGES:;
#KEYSOUNDS:;
#ATTACKS:;

//---------------dance-single - Maxx----------------
#NOTES:
     dance-single:
     Maxx:
     Challenge:
     10:
     0.531100,0.673155,0.162819,0.732685,0.617355,548.000000,522.000000,24.000000,108.000000,65.000000,11.000000,0.531100,0.673155,0.162819,0.732685,0.617355,548.000000,522.000000,24.000000,108.000000,65.000000,11.000000:
// measure 0
0000
0000
0000
0000
,  // measure 1
0000
0000
0000
0000
,  // measure 2
0000
0000
0000
0000
,  // measure 3
0000
0000
0000
0000
0000
0000
0000
0000
0000
0000
0000
0000
0000
0000
0000
0000
0000
0000
0000
0000
0000
0000
0000
0000
0000
0000
0000
0000
0000
0000
0001
1000
,  // measure 4
0100
0000
0000
0020
0000
0030
0110
0000
,  // measure 5
0000
0000
0000
0000
0000
0000
0000
0000
0000
0000
0000
0000
2000
0000
0000
0000
0000
0000
0000
0000
3000
0000
0000
0000
0002
0000
0000
0000
0003
0000
1000
0001
,  // measure 6
0100
0000
0000
0020
0000
0030
0110
0000
,  // measure 7
0000
0000
0000
0000
0000
0000
0000
0000
0000
0000
0000
0000
0002
0000
0000
0000
0000
0000
0000
0000
0003
0000
0000
0000
2000
0000
0000
0000
3000
0000
0001
1000
,  // measure 8
0100
0000
0000
0020
0000
0030
0110
0000
,  // measure 9
0000
0000
0000
0000
0000
0000
0000
0000
0000
0000
0000
0000
2000
0000
0000
0000
0000
0000
0000
0000
3000
0000
0000
0000
0002
0000
0000
0000
0003
0000
1000
0001
,  // measure 10
0100
0000
0000
0020
0000
0030
0110
0000
,  // measure 11
0000
0000
0000
0002
0000
0003
2000
3000
,  // measure 12
1001
0000
0000
0001
1000
0000
0001
0000
0200
0000
0000
0301
1000
0000
0001
0000
,  // measure 13
0010
0000
0100
0000
0040
0000
0000
0000
0032
0000
0000
1003
0010
1000
0001
0010
,  // measure 14
0200
0000
0000
1300
0001
0000
1000
0000
0020
0000
0000
0130
0001
0000
1000
0000
,  // measure 15
0100
0000
0000
0000
0010
0000
0000
0000
0400
0000
0000
0000
0000
0000
0000
0000
2300
0000
0000
0000
0000
0000
0000
0000
3010
0000
0000
0000
0100
0000
0001
1000
,  // measure 16
0100
0000
0000
0000
0010
0000
0001
0000
0200
0000
0300
2000
0000
3000
0100
0000
,  // measure 17
0020
0000
0030
2000
0000
3000
0100
0000
0002
0000
0000
0103
0010
0001
1000
0010
,  // measure 18
0200
0000
0000
0000
0300
0000
0200
0000
0000
0000
0300
0000
0100
0000
0000
0000
0010
0000
0000
0000
0000
0000
1000
0000
0000
0000
0000
0000
0001
0000
1000
0001
,  // measure 19
2000
0000
3000
2000
0000
3000
0100
0000
0010
0000
0000
0001
1000
0001
0100
0000
,  // measure 20
0220
0000
0000
0000
0000
0000
0330
0000
0000
0100
0000
0000
0000
0000
0000
0000
0000
0000
0000
0000
0001
0000
0000
0000
1000
0000
0000
0000
0010
0000
0000
0000
1000
0000
0000
0000
0001
0000
0000
0000
0010
0000
0000
0000
0001
0000
0000
0000
,  // measure 21
0202
0000
0000
0000
0000
0000
0303
0000
0000
0001
0000
0000
0000
0000
0000
0000
0000
0000
1000
0000
0000
0100
0000
0000
0010
0000
0000
0000
0100
0000
0000
0000
1000
0000
0000
0000
0010
0000
0000
0000
0100
0000
0000
0000
0010
0000
0000
0000
,  // measure 22
2020
0000
3030
1000
0000
0000
0000
0001
0010
0001
1000
0000
0010
1000
0100
0000
,  // measure 23
2100
0000
0010
0000
0001
0000
0100
3000
,  // measure 24
1020
0000
0000
0000
0000
0000
0000
0000
0000
1000
0000
0000
0000
0000
0000
0000
0000
0000
0030
0000
1000
0000
0000
0000
0001
0000
0000
0000
1000
0000
0000
0000
0100
0000
0000
0000
0010
0000
0000
0000
0001
0000
0000
0000
0100
0000
0000
0000
,  // measure 25
0202
0000
0303
0001
0000
0000
1000
0000
0001
1000
0100
0000
0010
0001
1000
0000
,  // measure 26
2020
0000
0000
0000
0000
0000
3030
0000
0000
1000
0000
0000
0000
0000
0000
0000
0000
0000
0010
0000
0000
0000
0000
0000
0100
0000
0000
0000
0010
0000
0000
0000
1000
0000
0000
0000
0001
0000
0000
0000
0000
0000
0010
0000
0000
0000
0000
0000
,  // measure 27
2002
0000
0000
0000
0010
0000
0000
3003
0220
0000
0000
0000
0000
0000
0000
0330
,  // measure 28
200M
0000
3001
0100
0010
1000
0010
1000
0001
0010
0001
2000
0000
0000
0000
0000
,  // measure 29
3200
0000
0000
0000
0310
0000
0001
0000
1000
0000
0010
0000
1000
0000
0010
0000
0100
0000
0001
0000
1000
0000
0200
0000
0000
0000
0000
0000
0000
0000
0310
0001
,  // measure 30
M100
010M
0000
M010
001M
0000
M100
010M
0000
M010
001M
0000
2000
0000
0000
0000
,  // measure 31
3100
010M
M000
0010
001M
M000
0100
010M
M000
0010
001M
M000
0004
0000
0000
0000
,  // measure 32
0103
M100
000M
0010
M010
000M
0100
M100
000M
0010
M010
000M
0100
M100
000M
0010
,  // measure 33
0001
0100
0010
0100
0001
1000
0100
0010
0001
0000
1000
0000
0010
0000
0100
0000
,  // measure 34
0110
0000
0000
0010
1000
0000
0001
0000
0020
0000
0000
0031
1000
0000
0010
0000
,  // measure 35
0400
0000
0000
0000
0000
0000
0310
1000
0001
0000
1000
0000
0100
0000
0010
0000
,  // measure 36
0110
0000
0000
0100
1000
0000
0010
0000
0100
0000
0000
0010
1000
0000
0001
0000
,  // measure 37
0040
0000
0000
0000
0000
0000
0130
1000
0001
0000
0000
0000
0100
0000
0000
0000
,  // measure 38
0002
0000
0000
0000
0020
0000
0000
0000
0200
0000
0000
0000
2000
0000
0000
3333
,  // measure 39
0002
0000
0000
0000
0200
0000
0000
0000
0020
0000
0000
0000
2000
0000
0000
3333
,  // measure 40
0001
1000
0001
1000
0200
0000
0310
0001
,  // measure 41
1000
0010
1000
0010
0200
0000
0301
1000
,  // measure 42
1001
0000
0000
0001
0100
0000
0001
0000
0010
0000
0000
0001
1000
0000
0100
0000
,  // measure 43
0010
0000
0100
1000
0020
0000
0130
0001
0020
0000
0030
0001
1000
0000
0001
0000
,  // measure 44
0100
0000
0000
0010
1000
0000
0001
0000
0010
0000
0000
0100
1000
0000
0010
0000
,  // measure 45
0100
0000
0010
1000
0200
0000
0310
0001
0200
0000
0300
0001
1000
0000
0100
0000
,  // measure 46
0110
0000
0000
0000
1000
0000
0100
M100
0000
0001
0000
0010
001M
0000
1000
0000
,  // measure 47
0001
0000
0100
010M
1000
0000
0100
M100
0010
0000
0100
010M
1000
0000
0100
M100
,  // measure 48
0001
0000
0001
1000
0001
0000
0100
010M
0000
1000
0000
0010
M010
0000
0001
0000
,  // measure 49
1000
0000
0100
M100
0001
0000
0100
010M
1000
0000
0000
0000
1001
0000
1000
0001
,  // measure 50
0010
0000
0001
0100
0020
0000
1030
0100
0020
0000
0000
0030
0111
0000
0000
0000
,  // measure 51
1000
1000
0020
0000
0230
0000
0302
0000
,  // measure 52
0003
0000
1000
0100
0020
0000
0031
0100
0020
0000
0000
0030
1110
0000
0000
0000
,  // measure 53
0100
0000
0100
0000
0002
0000
0000
0003
2000
0000
0000
3000
0200
0000
0000
0000
,  // measure 54
0300
0000
2000
0000
0000
3002
0000
0000
0203
0000
0000
2300
0000
0000
3100
0000
,  // measure 55
0020
2030
3002
0023
,  // measure 56
0230
0000
0000
0000
0300
0000
0200
0000
0000
0000
0300
0000
0100
0000
0000
0000
0010
0000
0000
0000
0000
0000
0000
0000
0000
0000
0000
0000
0001
0000
1000
0001
,  // measure 57
2000
0000
3000
2000
0000
3000
1000
0000
0010
0000
1000
0010
0100
0001
1000
0100
,  // measure 58
002M
0000
0031
0100
0010
1000
0010
1000
0001
0010
0001
2000
0000
0000
0000
0000
,  // measure 59
3200
0000
0000
0000
0310
0000
0001
0000
1000
0000
0010
0000
1000
0000
0010
0000
0100
0000
0001
0000
1000
0000
0200
0000
0000
0000
0000
0000
0000
0000
0310
0001
,  // measure 60
M100
010M
0000
M010
001M
0000
M100
010M
0000
M010
001M
0000
2000
0000
0000
0000
,  // measure 61
3100
010M
M000
0010
001M
M000
0100
010M
M000
0010
001M
M000
0004
0000
0000
0000
,  // measure 62
0103
M100
000M
0010
M010
000M
0100
M100
000M
0010
M010
000M
0100
M100
000M
0010
,  // measure 63
0001
0100
0010
0100
0001
1000
0100
0010
0000
0000
0001
0000
1000
0000
0010
0000
,  // measure 64
0110
0000
0000
0010
1000
0000
0001
0000
0020
0000
0000
0031
1000
0000
0001
0000
,  // measure 65
0400
0000
0000
0000
0000
0000
0310
1000
0001
0000
1000
0000
0100
0000
0010
0000
,  // measure 66
0110
0000
0000
0010
0001
0000
1000
0000
0010
0000
0000
1000
0001
0000
1000
0000
,  // measure 67
0400
0000
0000
0000
0000
0000
0310
0001
1000
0000
0000
0000
0001
0000
0000
0000
,  // measure 68
2000
0000
0000
0000
0020
0000
0000
0000
0200
0000
0000
0000
0002
0000
0000
3333
,  // measure 69
0002
0000
0000
0000
0020
0000
0000
0000
0200
0000
0000
0000
2000
0000
0000
3333
,  // measure 70
0001
1000
0001
1000
0200
0000
0310
0001
,  // measure 71
1000
0010
1000
0010
0200
0300
0110
0010
,  // measure 72
2000
0000
3000
2000
0000
3000
1000
0000
0002
0000
0003
2000
0000
3000
0001
0000
0020
0000
0030
0020
0000
0030
0010
0000
0200
0000
0300
2000
0000
3000
0010
0000
,  // measure 73
0400
0000
030M
0000
;

//---------------dance-single - Feraligatr----------------
#NOTES:
     dance-single:
     Feraligatr SH:
     Hard:
     9:
     0.528192,0.648223,0.067841,0.332422,0.556298,545.000000,535.000000,10.000000,49.000000,0.000000,0.000000,0.528192,0.648223,0.067841,0.332422,0.556298,545.000000,535.000000,10.000000,49.000000,0.000000,0.000000:
0000
0000
0000
0000
,
0000
0000
0000
0000
,
0000
0000
0000
0000
,
0000
0000
0000
0000
,
1000
0000
0000
0010
0000
0000
0100
0000
,
0000
0000
0000
0001
0000
0000
1000
0000
,
0100
0000
0000
0010
0000
0000
0001
0000
,
0000
0000
0000
1000
0000
0000
0010
0000
,
0100
0000
0000
0001
0000
0000
1000
0000
,
0000
0000
0000
0100
0000
0000
0010
0000
,
0001
0000
0000
1000
0000
0000
0010
0000
,
0000
0000
0000
0100
0000
0000
0001
0000
,
1001
0000
0000
0000
1000
0000
0100
0000
0020
0000
0000
0030
0100
0000
1000
0000
,
0010
0000
0100
0000
0001
0000
1000
0000
0200
0000
0000
0300
0010
0001
0010
0001
,
1000
0000
0000
0000
0010
0000
0100
0000
0002
0000
0000
1003
0100
0000
1000
0000
,
0010
0000
0100
0000
0001
0000
1000
0000
0200
0000
0000
0300
0020
0000
0000
0030
,
0001
0000
0000
1000
0010
0000
0100
0000
0001
0000
0000
1000
0000
0000
0100
0000
,
0010
0000
0000
0001
0000
0000
0010
0000
0200
0000
0000
0300
1000
0001
1000
0010
,
0100
0000
0000
0100
0000
0000
0100
0000
0010
0000
0000
1000
0000
0000
0001
0000
,
0010
0000
0000
0010
0100
0000
0010
0000
0001
0000
0000
1000
0001
0100
0010
0000
,
1000
0000
0000
0000
0000
0000
0000
0000
0000
0001
0000
0000
0000
0000
0000
0000
0000
0000
0000
0000
1000
0000
0000
0000
0100
0000
0000
0000
0010
0000
0000
0000
0001
0000
0000
0000
1000
0000
0000
0000
0010
0000
0000
0000
1000
0000
0000
0000
,
0100
0000
0000
0000
0000
1000
0001
0100
0010
1000
0100
0010
,
0001
0000
0000
0000
0000
0000
0000
1000
0010
1000
0001
0000
0010
0000
0100
0000
,
1000
0001
0100
0010
,
1010
0000
0000
0000
0000
0000
0000
0000
0000
1000
0000
0000
0000
0000
0000
0000
0000
0000
0000
0000
0001
0000
0000
0000
0010
0000
0000
0000
0100
0000
0000
0000
1000
0000
0000
0000
0001
0000
0000
0000
0100
0000
0000
0000
0010
0000
0000
0000
,
1000
0000
0000
0001
0000
0000
1000
0000
0100
0010
0001
0000
1000
0010
0100
0000
,
0001
0000
0000
0000
0000
0000
0000
0000
0000
1000
0000
0000
0000
0000
0000
0000
0000
0000
0100
0000
0000
0000
0000
0000
0010
0000
0000
0000
0001
0000
0000
0000
1000
0000
0000
0000
0010
0000
0000
0000
0000
0000
0100
0000
0000
0000
0000
0000
,
0001
0000
0000
1000
0100
0000
0010
0000
0002
0000
0000
0000
0000
0000
0000
0003
,
1001
0000
0001
0100
0010
1000
0001
1000
0100
0010
0001
2000
0000
0000
0000
0000
,
3010
0000
0000
0000
0100
0000
0001
0000
1000
0000
0100
0000
1000
0000
0001
0000
0100
0000
0010
0000
1000
0000
0002
0000
0000
0000
0000
0000
0000
0000
0103
0001
,
1000
0100
0000
0001
0100
0000
1000
0100
0000
0001
0100
0000
0020
0000
0000
0000
,
0031
0100
0000
1000
0100
0000
0001
0100
0000
1000
0100
0000
0010
0000
0010
0000
,
1000
0100
0000
0001
0100
0000
0001
0100
0000
0001
0100
0000
0001
0100
0000
0001
,
0100
0010
0001
1000
0001
0100
0010
1000
0001
0000
0010
0000
0100
0000
1000
0000
,
1020
0000
0000
0130
0001
0000
1000
0000
0200
0000
0000
0310
0200
0000
1300
0000
,
0002
0000
0000
1003
0100
0000
0001
0100
2000
0000
3010
0000
0100
0000
0001
0000
,
0021
0000
0000
0130
1000
0000
0001
0000
0200
0000
0000
0310
1000
0000
0001
0000
,
0020
0000
0000
0031
1000
0000
0010
1000
0200
0000
0000
0310
0001
0000
1000
0000
,
0010
0000
0000
1000
0001
0000
0010
0000
0100
0000
0000
1000
0001
0000
0100
0000
,
0010
0000
0000
1000
0001
0000
0010
0000
0100
0000
0000
1000
0001
0000
0100
0000
,
0010
1000
0010
1000
0200
0000
0310
0100
,
1000
0001
1000
0001
0200
0000
0310
1000
,
1200
0000
0000
0310
0001
0000
1000
0000
0010
0000
0000
0100
0001
0000
1000
0000
,
0100
0000
1000
0010
0001
0000
0001
0010
2000
0000
0000
3001
0010
0000
0100
0000
,
1000
0000
0000
0001
0100
0000
0010
0000
1000
0000
0000
0001
0010
0000
0100
0000
,
0010
0000
0001
0100
1000
0000
1000
0100
0002
0000
0000
1003
0100
0000
0010
0000
,
0001
0000
0000
0000
1000
0000
0001
1000
0000
1000
0000
0001
0100
0000
0010
0000
,
1000
0000
0100
0010
0001
0000
1000
0010
0100
0000
0001
1000
0100
0000
1000
0001
,
0100
0000
0010
0000
1000
0000
0001
1000
0000
1000
0000
0001
0010
0000
0001
0000
,
1000
0000
0010
1000
0100
0000
0010
0001
0100
0000
0000
0000
0010
0000
0000
0000
,
1010
0000
1000
0100
0001
0000
0001
0100
2000
0000
0000
3000
0001
0000
0000
0000
,
0100
0000
0010
0000
1000
0000
0001
0000
0020
0000
0000
0030
0200
0000
0000
0000
,
0310
0000
0001
0100
1000
0000
1000
0100
0002
0000
0000
0003
1000
0000
0000
0000
,
0100
0000
0010
0000
0001
0000
1000
0000
0020
0000
0000
0030
0200
0000
0000
0000
,
0301
0000
1000
0000
0000
0100
0000
0000
0010
0000
0000
0001
0000
0000
1000
0000
,
0020
0230
0302
0023
,
0130
0000
0000
0100
0000
0000
0100
0000
0010
0000
0000
0000
0001
0000
1000
0000
,
0010
0000
0000
0010
0100
0000
0010
0000
1000
0000
0000
0000
0001
0100
0001
0000
,
1001
0000
1000
0100
0010
0001
1000
0001
0100
0010
1000
0002
0000
0000
0000
0000
,
0013
0000
0000
0000
0100
0000
1000
0000
0001
0000
0100
0000
0001
0000
1000
0000
0100
0000
0010
0000
0001
0000
2000
0000
0000
0000
0000
0000
0000
0000
3100
1000
,
0001
0100
0000
1000
0100
0000
0001
0100
0000
1000
0100
0000
0020
0000
0000
0000
,
1030
0100
0000
0001
0100
0000
1000
0100
0000
0001
0100
0000
0010
0000
0010
0000
,
0001
0100
0000
1000
0100
0000
1000
0100
0000
1000
0100
0000
1000
0100
0000
1000
,
0100
0010
1000
0001
1000
0100
0010
0001
1000
0000
0010
0000
0100
0000
0001
0000
,
0021
0000
0000
0130
1000
0000
0001
0000
0200
0000
0000
0310
0200
0000
0301
0000
,
2000
0000
0000
3001
0100
0000
1000
0100
0002
0000
0013
0000
0100
0000
1000
0000
,
1020
0000
0000
0130
0001
0000
1000
0000
0200
0000
0000
0310
0001
0000
1000
0000
,
0020
0000
0000
1030
0001
0000
0010
0001
0200
0000
0000
0310
1000
0000
0001
0000
,
0010
0000
0000
0001
1000
0000
0010
0000
0100
0000
0000
0001
1000
0000
0100
0000
,
0010
0000
0000
0001
1000
0000
0010
0000
0100
0000
0000
0001
1000
0000
0100
0000
,
0010
0001
0010
0001
0200
0000
0310
0100
,
0001
1000
0001
1000
0200
0000
0310
0001
,
1000
0000
0000
0100
0000
0000
1000
0000
0010
0000
0000
0100
0000
0000
0001
0000
1000
0000
0000
0100
0000
0000
1000
0000
0010
0000
0000
0100
0000
0000
0001
0000
,
0020
0000
0030
0000
;

//---------------dance-single - Feraligatr----------------
#NOTES:
     dance-single:
     Feraligatr SM:
     Medium:
     6:
     0.320792,0.398906,0.061057,0.142467,0.064449,331.000000,322.000000,9.000000,21.000000,0.000000,0.000000,0.320792,0.398906,0.061057,0.142467,0.064449,331.000000,322.000000,9.000000,21.000000,0.000000,0.000000:
0000
0000
0000
0000
,
0000
0000
0000
0000
,
0000
0000
0000
0000
,
0000
0000
0000
0000
,
1000
1000
0000
0001
0000
0100
0002
0000
,
0000
0000
1003
0001
0000
1000
0100
0000
,
0010
0010
0000
0001
0000
1000
0002
0000
,
0000
0000
1003
0010
0000
0100
0001
0000
,
2000
0000
0000
0000
,
3200
0000
0000
0000
,
0320
0000
0000
0000
,
0032
0000
0000
0000
,
0103
0000
0010
1000
0001
0000
1000
0000
,
0100
0010
0001
0000
1000
0000
0001
0000
,
0100
0000
0010
1000
0001
0000
0010
0000
,
0100
1000
0001
0000
0100
0000
0010
0000
,
1000
0000
0001
0010
0100
0000
1000
0000
,
0001
0100
0010
1000
,
0001
0000
0000
0010
0000
0000
0001
0000
0100
0000
0000
0000
0000
0000
0000
0000
,
0001
0000
0000
0100
0000
0000
0001
0000
0010
0000
0000
0000
0000
0000
0000
0000
,
0110
0000
0000
0000
1000
0000
0001
0100
,
0010
0000
1000
0000
0001
0000
0010
0100
,
1000
0000
0001
0000
0100
0000
0010
1000
,
0001
0010
0100
1000
,
0020
0000
0030
0000
0100
0000
0001
1000
,
0100
0000
0010
0000
0001
0000
1000
0010
,
0100
0000
0001
0000
1000
0000
0100
0010
,
0001
0000
2000
0000
,
3010
0100
0001
0100
0001
1000
0100
0000
,
0010
0001
1000
0001
1000
0010
0100
0000
,
0001
0000
0000
1000
0000
0000
0001
0000
0000
1000
0000
0000
0001
0000
0000
0000
,
0010
0000
0000
0100
0000
0000
0010
0000
0000
0100
0000
0000
0010
0000
0000
0000
,
0001
0000
0000
1000
0000
0000
0001
0000
0000
1000
0000
0000
0001
0000
0000
0000
,
0100
0100
0010
0010
1000
0000
0000
0000
,
1001
0000
0001
0010
0100
0000
1000
0000
,
0002
0000
0000
0103
0010
1000
0001
1000
,
0100
0010
0001
1000
,
0020
0000
0000
0130
0001
0000
1000
0000
,
0001
0010
0100
1000
,
0001
0100
0010
1000
,
0001
0010
0001
0010
0200
0000
1300
0000
,
0001
0100
0001
0100
0020
0000
1030
0000
,
1001
0000
0001
0010
0100
0000
1000
0000
,
0020
0000
0000
0000
0000
0000
0130
0001
2000
0000
0000
0000
0100
0000
0000
3000
,
1000
0000
0001
1000
0010
0000
0100
0000
,
0002
0000
0000
0000
0000
0000
1003
0100
0020
0000
0000
0000
0001
0000
0000
0030
,
0010
0000
0100
0000
1100
0000
0001
1000
,
0010
0000
0100
0010
1010
0000
0001
0000
,
1000
0000
0000
0000
0010
0000
0000
0000
0110
0000
0000
0100
0001
0000
1000
0000
,
0100
0000
0010
0001
0011
0000
1000
0000
,
1010
0000
0001
0100
0001
0000
0010
0000
,
0100
1000
0001
0000
0100
0000
0010
0000
,
1000
0000
0001
0010
0001
0000
0100
0000
,
0010
1000
0001
0000
0010
0000
0100
0000
,
1000
0000
0001
0000
0100
0000
0010
1000
,
0001
1000
0100
0010
,
0001
0000
0000
0010
0000
0000
0001
0000
0100
0000
0000
0000
0000
0000
0000
0000
,
0001
0000
0000
0100
0000
0000
0001
0000
0010
0000
0000
0000
0000
0000
0000
0000
,
0100
0010
0001
0010
0001
1000
0010
0000
,
0100
0001
1000
0001
1000
0100
0010
0000
,
0001
0000
0000
1000
0000
0000
0001
0000
0000
1000
0000
0000
0001
0000
0000
0000
,
0100
0000
0000
0010
0000
0000
0100
0000
0000
0010
0000
0000
0100
0000
0000
0000
,
0001
0000
0000
1000
0000
0000
0001
0000
0000
1000
0000
0000
0001
0000
0000
0000
,
0010
0010
0100
0100
1000
0000
0000
0000
,
1001
0000
0001
0100
0010
0000
1000
0000
,
0002
0000
0000
0013
0100
1000
0001
1000
,
0010
0100
0001
1000
,
0200
0000
0000
0310
0001
0000
1000
0000
,
0001
0010
0100
1000
,
0001
0100
0010
1000
,
0001
0100
0001
0100
0020
0000
1030
0000
,
0001
0010
0001
0010
0200
0000
1300
0000
,
0001
0100
0010
1000
,
0020
0000
0030
0000
;

//---------------dance-single - Feraligatr----------------
#NOTES:
     dance-single:
     Feraligatr SE:
     Easy:
     4:
     0.201585,0.224385,0.020352,0.122114,0.000000,208.000000,205.000000,3.000000,18.000000,0.000000,0.000000,0.201585,0.224385,0.020352,0.122114,0.000000,208.000000,205.000000,3.000000,18.000000,0.000000,0.000000:
0000
0000
0000
0000
,
0000
0000
0000
0000
,
0000
0000
0000
0000
,
0000
0000
0000
0000
,
1000
0000
0000
0001
,
0000
0000
0000
1000
,
0100
0000
0000
0010
,
0000
0000
0000
0001
,
2000
0000
0000
0000
,
3020
0000
0000
0000
,
0230
0000
0000
0000
,
0302
0000
0000
0000
,
0013
0100
1000
0000
,
0001
0100
0001
0000
,
1000
0100
0010
0000
,
0100
1000
0001
0000
,
0100
0010
1000
0001
,
0010
0100
1000
0001
,
0200
0000
0310
0000
,
2000
0000
3100
0000
,
0110
0000
0001
1000
,
0001
0000
0100
0010
,
0100
0000
0001
1000
,
0001
0010
0100
1000
,
0010
0000
0100
0001
,
1000
0000
0100
1000
,
0001
0000
0010
0100
,
1000
0000
0020
0000
,
0130
0001
0100
0001
,
0010
0100
0010
0100
,
1000
1000
1000
1000
,
0001
0001
0001
0001
,
0100
0100
0010
0010
,
1000
0001
1000
0000
,
1100
0000
0100
0010
,
0002
0000
1003
0010
,
0100
0000
0001
1000
,
0200
0000
0310
0000
,
0001
0010
0100
1000
,
0001
0100
0010
1000
,
0001
0100
0001
0010
,
0100
1000
0001
0100
,
0010
0000
1000
0100
,
0020
0000
0032
0000
,
1003
0000
0010
0100
,
0002
0000
2003
0000
,
3100
0000
0010
0001
,
0000
0000
1000
0010
,
0100
0000
0001
1000
,
0000
0000
0100
0010
,
0001
1000
0010
0000
,
0100
0001
1000
0100
,
0010
0001
1000
0000
,
0001
0100
0010
1000
,
0001
0001
0001
0000
,
0010
0010
0010
0000
,
0200
0000
1300
0000
,
0002
0000
0103
0000
,
0010
1000
0010
1000
,
0100
0010
0100
0010
,
0001
0001
0001
0001
,
1000
1000
1000
1000
,
0010
0010
0100
0100
,
0001
1000
0001
0000
,
0011
0000
0010
0100
,
2000
0000
3001
0100
,
0010
0000
1000
0001
,
0020
0000
0130
0000
,
1000
0010
0100
0001
,
1000
0100
0010
0001
,
1000
0100
1000
0010
,
0100
0001
1000
0100
,
0010
0000
0001
0000
,
2000
0000
3000
0000
;

//---------------dance-single - Feraligatr----------------
#NOTES:
     dance-single:
     Feraligatr SN:
     Beginner:
     1:
     0.098854,0.199453,0.040705,0.040705,0.000000,102.000000,96.000000,6.000000,6.000000,0.000000,0.000000,0.098854,0.199453,0.040705,0.040705,0.000000,102.000000,96.000000,6.000000,6.000000,0.000000,0.000000:
0000
0000
0000
0000
,
0000
0000
0000
0000
,
0000
0000
0000
0000
,
0000
0000
0000
0000
,
0000
0000
0000
0000
,
0000
0000
0000
0000
,
0000
0000
0000
0000
,
0000
0000
0000
0000
,
2000
0000
0000
0000
,
3200
0000
0000
0000
,
0320
0000
0000
0000
,
0032
0000
0000
0000
,
1003
0000
0001
0000
,
0100
0000
0010
0000
,
1000
0000
0001
0000
,
0010
0000
0100
0000
,
1000
0000
0001
0000
,
0100
0000
0010
0000
,
1001
0000
0000
0000
,
0110
0000
0000
0000
,
1000
0000
0000
0000
,
0001
0000
0000
0000
,
0010
0000
0000
0000
,
0100
0000
0000
0000
,
1000
0000
0000
0000
,
0001
0000
0000
0000
,
0100
0000
0000
0000
,
0010
0000
2000
0000
,
3000
0000
0000
0000
,
0001
0000
0000
0000
,
0010
0000
0000
0000
,
0100
0000
0000
0000
,
1000
0000
0001
0000
,
1000
0001
1000
0000
,
0110
0000
0100
0001
,
1000
0000
0000
0000
,
0001
0000
1000
0100
,
0010
0000
0000
0000
,
0001
0000
0100
0000
,
0010
0000
1000
0000
,
0100
0000
0010
0000
,
0100
0000
0010
0000
,
0001
0000
0000
0000
,
1000
0000
0000
0000
,
0010
0000
0000
0000
,
0100
0000
0000
0000
,
0001
0000
1000
0000
,
0000
0000
0001
0000
,
0010
0000
0100
0000
,
0000
0000
1000
0000
,
0010
0000
0000
0000
,
0100
0000
0000
0000
,
0001
0000
0000
0000
,
1000
0000
0000
0000
,
0100
0000
0000
0000
,
0010
0000
0000
0000
,
1001
0000
0000
0000
,
0110
0000
0000
0000
,
0000
0000
0000
0000
,
1000
0000
0000
0000
,
0010
0000
0000
0000
,
0100
0000
0000
0000
,
0001
0000
1000
0000
,
0001
1000
0001
0000
,
0110
0000
0100
1000
,
0001
0000
0000
0000
,
1000
0000
0001
0100
,
0010
0000
0000
0000
,
1000
0000
0100
0000
,
0010
0000
0001
0000
,
0100
0000
0010
0000
,
0100
0000
0010
0000
,
1000
0000
0001
0000
,
0020
0000
0030
0000
;
