#VERSION:0.83;
#TITLE:THE DROP;
#SUBTITLE:;
#ARTIST:Gammer;
#TITLETRANSLIT:;
#SUBTITLETRANSLIT:;
#ARTISTTRANSLIT:;
#GENRE:;
#ORIGIN:;
#CREDIT:;
#BANNER:THE DROP-bn.png;
#BACKGROUND:THE DROP-bg-wide.png;
#PREVIEWVID:;
#JACKET:THE DROP-jacket.png;
#CDIMAGE:;
#DISCIMAGE:;
#LYRICSPATH:;
#CDTITLE:maxx-cdtitle.png;
#MUSIC:THE DROP.ogg;
#OFFSET:-0.008000;
#SAMPLESTART:37.591000;
#SAMPLELENGTH:12.800000;
#SELECTABLE:YES;
#BPMS:0.000=150.000;
#STOPS:;
#DELAYS:;
#WARPS:;
#TIMESIGNATURES:0.000=4=4;
#TICKCOUNTS:0.000=4;
#COMBOS:0.000=1;
#SPEEDS:0.000=1.000=0.000=0;
#SCROLLS:0.000=1.000;
#FAKES:;
#LABELS:0.000=Song Start;
#BGCHANGES:;
#KEYSOUNDS:;
#ATTACKS:
;

//---------------dance-single - Maxx----------------
#NOTEDATA:;
#CHARTNAME:Maxx;
#STEPSTYPE:dance-single;
#DESCRIPTION:Maxx;
#CHARTSTYLE:;
#DIFFICULTY:Challenge;
#METER:13;
#RADARVALUES:0.769019,0.998140,0.213278,0.742207,0.810456,631.000000,606.000000,25.000000,87.000000,10.000000,0.000000,2.000000,0.000000,0.000000,0.769019,0.998140,0.213278,0.742207,0.810456,631.000000,606.000000,25.000000,87.000000,10.000000,0.000000,2.000000,0.000000,0.000000;
#CREDIT:Maxx;
#NOTES:
0000
0000
0000
0000
,
0000
0000
0000
0000
,
0000
0000
0000
0000
,
0000
0000
0000
0000
0000
0000
0000
0000
0000
0000
0000
0001
1000
0000
0001
0000
,
0200
0000
0300
0100
0020
0000
0230
0000
,
0000
0000
0300
0000
0200
0000
0000
0000
0301
0000
1000
0000
0100
0000
0010
0001
,
2000
0000
3000
1000
0002
0000
2003
0000
,
0000
0000
3000
0000
2000
0000
0000
0000
3002
0000
0000
0000
1003
0000
0001
1000
,
0400
0000
0000
0000
,
0000
0000
0000
0000
,
0320
0032
0000
0000
,
0000
0000
0000
0000
,
0403
0000
0000
0000
,
0000
0000
0000
0000
,
0320
2030
0000
0000
,
0000
0000
0000
0000
0000
3001
1000
0100
,
0110
0000
0000
0010
0001
0000
1000
0000
0010
0000
0000
0010
0100
0000
0001
0000
,
0101
0000
0000
0001
1000
0000
0100
0000
0010
0000
0000
0010
0100
0000
1000
0000
,
1010
0000
0000
0010
0100
0000
0001
0000
1000
0000
0000
1000
0100
0000
0010
0000
,
0011
0000
0000
0001
1000
0000
0010
0000
0100
0000
0000
0100
0010
0000
1000
0000
,
0001
0001
0010
0010
0100
0100
1000
1000
,
0001
0100
0001
0100
0010
1000
0001
1000
0100
0010
0100
1000
0010
0100
0001
0010
,
0200
0000
0310
0001
0010
0001
2000
0000
,
3010
0100
0010
0100
0002
0000
1003
0100
,
0220
0000
0000
0330
0001
1000
0100
0100
0001
0100
0100
0100
0100
0100
0100
0100
,
0010
0100
0100
0100
0100
0100
0100
0100
0001
0100
0100
0100
0020
0000
0000
0030
,
0220
0000
0000
0330
1000
0001
0100
0100
1000
0100
0100
0100
0100
0100
0100
0100
,
0020
0000
0031
1000
0100
0100
0100
0100
0010
0000
1000
0000
0001
0100
0010
1000
,
0200
0000
0000
0000
1300
0001
0100
0100
1000
0100
0100
0100
0100
0100
0100
0100
,
0010
0100
0100
0100
0100
0100
0100
0100
1000
0100
0100
0100
0020
0000
0000
0030
,
0220
0000
0000
0330
0001
1000
0100
0100
0001
0100
0001
0100
0100
0100
0100
0100
,
0020
0000
0000
1030
0001
0000
1000
0000
0100
0000
0010
0000
0220
0000
0000
0330
,
2200
0000
0000
3300
1000
0001
0010
0010
1000
0010
0010
0010
0010
0010
0010
0010
,
0100
0010
0010
0010
0010
0010
0010
0010
1000
0001
0010
0001
0200
0000
0000
0300
,
0202
0000
0000
0303
0001
1000
0010
0010
0001
0010
0010
0010
0010
0010
0010
0010
,
0200
0000
0310
0001
0100
0100
0100
0100
1000
0000
0010
0000
0100
0000
0010
0000
,
2020
0000
0000
3030
1000
0001
0010
0010
1000
0010
0010
0010
0010
0010
0010
0010
,
0100
0010
0010
0010
0010
0010
0010
0010
1000
0001
0010
0001
0200
0000
0000
0300
,
0202
0000
0000
0303
0001
0000
1000
0000
0001
0000
1000
0000
0200
0000
0000
0000
,
0310
0000
0001
0000
0010
0000
0001
0000
0200
0000
0000
0000
0320
0000
0000
0030
,
0110
0100
0001
1000
0200
0310
0100
1000
,
0020
0130
0010
1000
0200
0310
0001
1000
,
0020
0230
0310
1000
0200
0310
0100
1000
,
0020
0130
0010
1000
0002
0013
0100
1000
,
0002
0103
0010
1000
0002
0013
0001
0100
,
0020
1030
0100
1000
0020
0130
0001
1000
,
0200
0310
0100
1000
0020
0130
0010
1000
,
0002
0000
0013
0000
0100
0010
0001
1000
0020
0000
0000
0000
0230
0000
0000
0300
,
1001
0000
0000
1000
0001
0000
1000
0000
0010
0000
0000
0010
0100
0000
0001
0000
,
0101
0000
0000
0001
1000
0000
0100
0000
0010
0000
0000
0010
0100
0000
1000
0000
,
1010
0000
0000
1000
0001
0000
0010
0000
0100
0000
0000
0100
1000
0000
0010
0000
,
0110
0000
0000
0100
0001
0000
1000
0000
0100
0000
0000
0100
0010
0000
0001
0000
,
1000
1000
0010
0010
0100
0100
0001
0001
,
1000
0001
1000
0001
0010
0100
1000
0001
0100
0010
1000
0001
1000
0100
0010
0001
,
0200
0000
0310
1000
0010
1000
0002
0000
,
1003
0000
0100
0000
1000
0000
0100
0000
0020
0000
0000
0000
0032
0000
0000
0003
,
2001
0000
0000
0000
3100
0100
0100
1000
0000
0100
0100
0001
0000
0100
0100
1000
,
0000
0100
0100
0001
0000
0100
0100
1000
0000
0100
0100
0100
2000
0000
0000
3000
,
1020
0000
0000
0000
0130
0100
0100
0001
0000
0100
0100
1000
0000
0100
0100
0001
,
2000
0000
3100
0100
0000
0100
0100
0001
0020
0000
0230
0000
0320
0000
0032
0003
,
0102
0000
0000
0000
1003
0010
0010
0001
1000
0100
0100
0100
0010
0100
0100
0100
,
1000
0100
0100
0100
0010
0100
0100
0100
1000
0100
0100
0100
0020
0000
0000
0030
,
2020
0000
0000
3030
0001
0100
0100
0100
0010
1000
0100
0100
0001
0100
0100
1000
,
0020
0000
0000
1030
0001
0000
0010
0000
0100
0000
0010
0000
0022
0000
0000
0033
,
2002
0000
0003
3001
0100
0010
1000
0001
0010
0100
0100
0100
1000
0100
0100
0100
,
0010
0100
0100
0100
1000
0100
0100
0100
0010
0001
1000
0010
0100
0000
0100
0000
,
0202
0000
0300
1003
0100
0010
0001
1000
0010
0100
0100
0100
0001
0100
0100
0100
,
0020
0000
0130
0100
1000
0001
1000
0100
0010
0000
0001
0000
0100
0000
0010
0000
,
2020
0000
3000
1030
0001
0010
0100
1000
0001
0100
0100
0100
0010
0100
0100
0100
,
0001
0100
0100
0100
0010
0100
0100
0100
0001
0100
0100
0100
0010
0100
0100
0100
,
0001
1000
0100
1000
0010
0100
0010
1000
,
0001
0010
0001
0100
0010
1000
0001
0010
,
M200
M000
000M
000M
00M0
00M0
M000
M000
,
030M
000M
0000
0000
0000
0000
0000
0000
;

//---------------dance-single - Feraligatr----------------
#NOTEDATA:;
#CHARTNAME:Feraligatr SH;
#STEPSTYPE:dance-single;
#DESCRIPTION:Feraligatr;
#CHARTSTYLE:Pad;
#DIFFICULTY:Hard;
#METER:11;
#RADARVALUES:0.759269,0.996434,0.332713,0.315651,0.797659,623.000000,584.000000,39.000000,37.000000,0.000000,0.000000,0.000000,0.000000,0.000000,0.759269,0.996434,0.332713,0.315651,0.797659,623.000000,584.000000,39.000000,37.000000,0.000000,0.000000,0.000000,0.000000,0.000000;
#CREDIT:Feraligatr;
#NOTES:
0000
0000
0000
0000
,
0000
0000
0000
0000
,
0000
0000
0000
0000
,
0000
0000
0000
0000
0000
0000
0000
0000
0000
0000
0000
0001
1000
0000
0010
0000
,
0110
0000
0000
0100
0001
0000
1000
0000
,
0000
0000
0000
0000
0100
0000
0000
0000
0100
0000
0010
0000
0001
0000
1000
0010
,
0100
0000
0000
0100
0001
0000
1000
0000
,
0000
0000
0000
0000
0100
0000
0000
0000
0100
0000
0000
0000
0010
0000
0001
1000
,
0020
0000
0000
0000
,
0000
0000
0000
0000
,
0100
0100
0000
0000
,
0000
0000
0000
0000
0000
0000
0000
0000
0000
0000
0000
0000
0000
0000
0000
0030
,
2010
0000
0000
0000
,
0000
0000
0000
0000
,
0001
0001
0000
0000
,
0000
0000
0000
0000
0000
3001
0010
0100
,
1100
0000
0000
1000
0001
0000
0100
0000
0010
0000
0000
1000
0001
0000
0010
0000
,
0100
0000
0000
0010
0001
0000
1000
0000
0010
0000
0000
0100
0001
0000
1000
0000
,
0100
0000
0000
0010
0100
0000
1000
0000
0001
0000
0000
0100
0010
0000
1000
0000
,
0001
0000
0000
0010
0100
0000
1000
0000
0001
0000
0000
0100
0010
0000
1000
0000
,
0001
0001
0010
0010
0100
0100
1000
1000
,
0001
0010
0001
1000
0010
0100
0001
1000
0100
1000
0001
0100
0001
1000
0100
1000
,
0020
0030
0000
0000
,
0000
0000
0000
0000
0000
0000
1000
0100
,
0021
0000
0000
0030
0001
1000
0010
0100
0011
1000
0100
1000
0001
0100
0010
1000
,
0100
1000
0001
0100
0010
1000
0001
0010
0101
1000
0001
0100
0020
0000
0000
0030
,
2010
0000
0000
3000
0001
1000
0100
0010
0101
1000
0001
0100
0010
1000
0001
0010
,
2000
0000
3010
0100
1000
0001
0100
0010
1100
0000
0001
0000
0010
0000
0100
0000
,
1200
0000
0000
0300
1000
0001
0100
0010
1100
0001
0010
0100
1000
0001
0100
0001
,
0010
0100
1000
0001
0100
0001
1000
0100
1010
0100
1000
0001
0200
0000
0000
0300
,
0120
0000
0000
0030
1000
0001
0010
0100
1010
0000
0001
1000
0010
0100
0010
1000
,
0200
0000
0000
0310
0001
0000
0100
0000
0010
0000
1000
0000
0200
0000
0000
0300
,
0021
0000
0000
0030
0001
0100
0010
1000
0101
0010
0100
1000
0001
0100
0010
1000
,
0100
1000
0010
0100
0001
1000
0100
0010
0101
1000
0001
0100
0020
0000
0000
0030
,
2010
0000
0000
3000
0001
0100
0010
1000
0101
0010
0100
1000
0001
0100
0001
0010
,
2000
0000
3010
0100
1000
0001
0100
0001
0010
0000
0100
0000
1000
0000
0001
0000
,
0201
0000
0000
0300
0001
1000
0010
1000
0101
0010
0100
1000
0001
0100
0010
1000
,
0100
1000
0010
0100
0001
1000
0100
0010
0101
1000
0001
0100
0020
0000
0000
0030
,
2010
3000
0000
0000
,
0000
0000
0000
0000
,
1001
0001
1000
0010
1100
0001
1000
0100
,
1000
0001
0100
0010
1100
0001
0010
0100
,
0010
0001
1000
0010
1100
0001
1000
0100
,
1000
0001
0100
0010
1100
0001
0010
0100
,
1000
0001
0100
0001
1010
0100
0010
0100
,
1000
0001
0100
0010
1100
0001
0010
0100
,
1000
0001
0100
0010
1100
0001
0010
0100
,
1000
0000
0001
0000
0100
0010
1000
0100
1010
0000
0001
0000
1000
0000
0010
0000
,
0100
0000
0000
0001
1000
0000
0100
0000
0010
0000
0000
0001
1000
0000
0010
0000
,
0100
0000
0000
0001
1000
0000
0100
0000
0010
0000
0000
0100
1000
0000
0001
0000
,
0100
0000
0000
0010
1000
0000
0001
0000
0010
0000
0000
0100
1000
0000
0001
0000
,
0100
0000
0000
0010
1000
0000
0001
0000
0010
0000
0000
0100
1000
0000
0001
0000
,
0100
0100
0010
0010
1000
1000
0001
0001
,
0010
0100
1000
0001
0100
0001
1000
0100
0010
0001
1000
0010
1000
0001
0010
0001
,
0200
0300
0000
0000
,
0000
0000
0000
0000
0000
0000
0000
0000
0020
0000
0000
0000
2030
0000
0001
3000
,
0012
0000
0000
0003
1000
0010
0100
0001
1000
0100
1000
0001
0100
0010
0100
0001
,
1000
0100
0010
0100
1000
0001
0100
0001
1000
0100
0010
0001
2000
0000
0000
3000
,
1020
0000
0000
0030
0100
0001
1000
0100
1000
0001
0100
0010
0100
0001
1000
0100
,
0002
0000
0103
0010
0001
1000
0001
0100
0010
0000
1000
0000
0100
0000
0010
0000
,
0021
0000
0000
0030
0001
0100
0010
1000
0100
1000
0001
0100
0010
0100
0001
1000
,
0100
1000
0001
0100
0010
1000
0001
0010
0100
0010
0001
1000
0020
0000
0000
0030
,
0210
0000
0000
0300
0001
1000
0100
1000
0001
0000
0100
0010
1000
0001
0100
0001
,
0020
0000
0000
0130
1000
0000
0010
0000
0100
0000
0001
0000
0020
0000
0000
0030
,
0210
0000
0000
1300
0001
0100
0001
0010
0100
1000
0010
0100
0010
1000
0100
0010
,
0001
1000
0010
0100
0001
0010
0100
0010
0001
0100
0010
1000
0200
0000
0310
0000
,
0012
0000
0000
1003
0010
0100
0001
0010
0100
0010
0001
1000
0010
0100
0001
0010
,
2000
0000
3010
0100
1000
0001
0100
0010
1000
0000
0100
0010
0001
0000
1000
0000
,
1020
0000
0000
0130
0001
0010
0100
1000
0010
0100
0001
1000
0100
0010
0100
1000
,
0010
0100
0001
0010
0001
0100
0010
1000
0100
0010
0100
1000
0010
0100
0001
0010
,
0100
1000
0001
0100
0010
0100
0001
1000
,
0100
0010
0001
1000
0010
0100
0001
1000
,
0200
0000
0000
0000
,
0300
0000
0000
0000
;

//---------------dance-single - Feraligatr----------------
#NOTEDATA:;
#CHARTNAME:Feraligatr SM;
#STEPSTYPE:dance-single;
#DESCRIPTION:Feraligatr;
#CHARTSTYLE:Pad;
#DIFFICULTY:Medium;
#METER:10;
#RADARVALUES:0.720270,0.965295,0.127967,0.298589,0.750738,591.000000,576.000000,15.000000,35.000000,0.000000,0.000000,0.000000,0.000000,0.000000,0.720270,0.965295,0.127967,0.298589,0.750738,591.000000,576.000000,15.000000,35.000000,0.000000,0.000000,0.000000,0.000000,0.000000;
#CREDIT:Feraligatr;
#NOTES:
0000
0000
0000
0000
,
0000
0000
0000
0000
,
0000
0000
0000
0000
,
0000
0000
0000
0000
0000
0000
0000
0000
0000
0000
0000
0001
1000
0000
0010
0000
,
0100
0000
0000
0100
0001
0000
0100
0000
,
0000
0000
0000
0000
0100
0000
0000
0000
0001
0000
1000
0000
0100
0000
0010
0001
,
1000
0000
0000
1000
0010
0000
1000
0000
,
0000
0000
0000
0000
1000
0000
0000
0000
1000
0000
0000
0000
0100
0000
0010
0001
,
2000
0000
0000
0000
,
0000
0000
0000
0000
,
0001
0001
0000
0000
,
0000
0000
0000
0000
,
3020
0000
0000
0000
,
0000
0000
0000
0000
,
0100
0100
0000
0000
,
0000
0000
0000
0000
,
1030
0000
0000
0001
0010
0000
0100
0000
1000
0000
0000
0001
0100
0000
0010
0000
,
1000
0000
0000
0001
0010
0000
0100
0000
0010
0000
0000
0001
1000
0000
0010
0000
,
0100
0000
0000
0010
1000
0000
0001
0000
0010
0000
0000
0100
1000
0000
0001
0000
,
0100
0000
0000
0010
1000
0000
0001
0000
0010
0000
0000
0100
1000
0000
0001
0000
,
0100
0010
1000
0001
0010
0100
1000
0001
,
1000
0100
1000
0100
0010
0001
0010
0001
1000
0010
1000
0010
0100
0001
0100
0001
,
0020
0030
0000
0000
,
0000
0000
0000
0000
0000
0000
0100
0010
,
2001
0000
0000
0000
3001
1000
0010
1000
0100
0010
0100
1000
0001
0100
0010
1000
,
0001
1000
0100
0010
0001
1000
0010
1000
0100
0010
0001
1000
0020
0000
0000
0030
,
0210
0000
0000
0000
0301
1000
0100
1000
0010
0100
0001
1000
0100
1000
0001
0100
,
0020
0000
1030
0001
1000
0100
0010
0001
0100
0000
0010
0000
1000
0000
0100
0000
,
0210
0000
0000
0000
1300
0001
0100
0001
0010
0100
1000
0001
0100
0001
1000
0100
,
0010
0100
1000
0001
0100
0010
0100
0001
0010
0100
1000
0001
0200
0000
0000
0300
,
0120
0000
0000
0000
1030
0001
0100
0001
0010
0000
0100
1000
0001
1000
0010
0100
,
0002
0000
0000
1003
0100
0000
0010
0000
0100
0000
1000
0000
0002
0000
0000
0003
,
0201
0000
0000
0000
0301
1000
0010
1000
0100
0010
0001
1000
0010
0100
0001
1000
,
0100
1000
0001
0100
0001
1000
0100
1000
0010
0100
0001
1000
0200
0000
0000
0300
,
0120
0000
0000
0000
0031
0010
0100
1000
0010
1000
0001
0100
0001
1000
0100
0010
,
0002
0000
1003
0001
1000
0010
0100
0001
0010
0000
0100
0000
1000
0000
0010
0000
,
0210
0000
0000
0000
0301
1000
0010
1000
0100
0010
0001
1000
0001
0100
0010
0100
,
0001
1000
0100
1000
0001
0100
0010
1000
0100
0010
0001
1000
0020
0000
0000
0030
,
0210
0300
0000
0000
,
0000
0000
0000
0000
,
0001
0010
0100
1000
0001
0100
0001
1000
,
0100
0010
0100
1000
0001
0100
0010
1000
,
0100
0010
0100
1000
0001
1000
0010
0100
,
0010
1000
0001
0010
0100
1000
0001
0100
,
0001
1000
0100
0010
0001
1000
0010
0100
,
0001
1000
0100
1000
0001
0100
0010
1000
,
0100
0010
0100
1000
0001
0100
0010
0100
,
0001
0000
1000
0000
0001
0010
0100
1000
0010
0000
0000
0000
0100
0000
0000
0000
,
0001
0010
0100
1000
0001
0100
0010
0100
,
0001
1000
0100
1000
0001
0100
0010
1000
,
0001
0010
0100
1000
0001
1000
0010
0100
,
0001
1000
0100
1000
0010
0100
0010
1000
,
0001
0010
0100
1000
0010
0100
0001
1000
,
0001
0010
0001
0010
0100
1000
0100
1000
0001
0100
0001
0100
0010
1000
0010
1000
,
0200
0300
0000
0000
,
0000
0000
0000
0000
0000
0000
0000
0000
0020
0000
0000
0000
0032
0000
1000
0003
,
1020
0000
0000
0000
0130
0001
0100
0001
1000
0100
1000
0100
0010
0001
0010
0001
,
1000
0010
1000
0010
0100
0001
0100
0001
1000
0100
1000
0100
0020
0000
0000
0030
,
0012
0000
0000
0000
1003
0010
1000
0010
0100
0001
0100
0001
1000
0100
1000
0100
,
0020
0000
0130
1000
0001
0100
0001
0100
0010
0000
1000
0000
0100
0000
0010
0000
,
0021
0000
0000
0000
0130
1000
0100
1000
0001
0100
0001
0100
0010
1000
0010
1000
,
0001
0010
0001
0010
0100
1000
0100
1000
0001
0100
0001
0100
0020
0000
0000
0030
,
2010
0000
0000
0000
3001
0010
0001
0010
0100
1000
0100
1000
0001
0100
0001
0100
,
0010
0000
0000
1000
0001
0000
0010
0000
0100
0000
1000
0000
0002
0000
0000
0003
,
0201
0000
0000
0000
0310
1000
0100
0010
0001
0100
0001
0100
0010
1000
0010
1000
,
0001
0010
0001
0010
0100
1000
0100
1000
0010
0100
0001
1000
0100
0000
0010
0000
,
0012
0000
0000
0000
1003
0001
0100
0010
1000
0100
1000
0100
0010
0001
0010
0001
,
0200
0000
0310
1000
0001
0010
0001
0010
0100
0000
1000
0000
0001
0000
0100
0000
,
0120
0000
0000
0000
1030
0001
0010
0100
1000
0010
1000
0010
0100
0001
0100
0001
,
1000
0100
1000
0100
0010
0001
0010
0001
1000
0010
1000
0010
0100
0001
0010
0001
,
0100
0010
1000
0001
0010
0100
1000
0001
,
0100
0010
0100
0001
0010
0100
1000
0001
,
0200
0000
0000
0000
,
0300
0000
0000
0000
;

//---------------dance-single - Feraligatr----------------
#NOTEDATA:;
#CHARTNAME:Feraligatr SE;
#STEPSTYPE:dance-single;
#DESCRIPTION:Feraligatr;
#CHARTSTYLE:Pad;
#DIFFICULTY:Easy;
#METER:5;
#RADARVALUES:0.308339,0.435940,0.162091,0.247402,0.000000,253.000000,234.000000,19.000000,29.000000,0.000000,0.000000,8.000000,0.000000,0.000000,0.308339,0.435940,0.162091,0.247402,0.000000,253.000000,234.000000,19.000000,29.000000,0.000000,0.000000,8.000000,0.000000,0.000000;
#CREDIT:Feraligatr;
#NOTES:
// measure 0
0000
0000
0000
0000
,  // measure 1
0000
0000
0000
0000
,  // measure 2
0000
0000
0000
0000
,  // measure 3
0000
0000
0000
0000
,  // measure 4
1001
0000
0000
1000
0010
0000
0100
0000
,  // measure 5
0000
0001
0001
0000
,  // measure 6
1000
0000
0000
0100
0010
0000
0001
0000
,  // measure 7
0000
1000
1000
0000
,  // measure 8
0002
0000
0000
0000
,  // measure 9
0000
0000
0000
0000
,  // measure 10
0100
0100
0000
0000
,  // measure 11
0000
0000
0000
0000
,  // measure 12
2003
0000
0000
0000
,  // measure 13
0000
0000
0000
0000
,  // measure 14
0100
0100
0000
0000
,  // measure 15
0000
0000
0000
0000
,  // measure 16
3001
0100
0010
1000
,  // measure 17
0001
0010
0100
1000
,  // measure 18
0001
0100
0001
1000
,  // measure 19
0100
1000
0001
0100
,  // measure 20
0001
1000
0001
1000
0100
0010
0100
0010
,  // measure 21
0004
4003
3040
0430
,  // measure 22
0302
0003
0000
0000
,  // measure 23
0000
0000
0000
0000
,  // measure 24
2001
3010
0101
1000
,  // measure 25
0100
0010
0011
0002
,  // measure 26
2003
3010
0101
0100
,  // measure 27
0001
1000
1100
0100
,  // measure 28
0120
0031
1100
1000
,  // measure 29
0001
0100
0110
2000
,  // measure 30
3002
0013
1100
1000
,  // measure 31
0020
0030
0000
0000
,  // measure 32
0102
1003
1100
0100
,  // measure 33
0010
0001
1001
2000
,  // measure 34
3020
0130
0101
1000
,  // measure 35
0001
0010
0100
0010
,  // measure 36
0012
1003
1010
0010
,  // measure 37
0100
0001
1001
2000
,  // measure 38
3200
0300
0000
0000
,  // measure 39
0000
0000
0000
0000
,  // measure 40
1000
0100
1000
0000
0001
0100
0001
0000
,  // measure 41
1000
0010
1000
0000
0001
0010
0001
0000
,  // measure 42
1000
0010
0100
0000
0001
1000
0100
0000
,  // measure 43
1000
0001
0100
0000
0010
1000
0001
0000
,  // measure 44
0010
0001
1000
0000
0010
0100
0001
0000
,  // measure 45
1000
0100
0010
0000
0001
1000
0010
0000
,  // measure 46
0100
0001
1000
0000
0100
0010
0001
0000
,  // measure 47
1000
0010
0100
0001
1000
0000
0100
0000
,  // measure 48
0100
0010
0001
1000
,  // measure 49
0010
0100
0001
1000
,  // measure 50
0100
1000
0001
0100
,  // measure 51
0010
1000
0100
0010
,  // measure 52
0001
1000
0001
1000
0010
0100
0010
0100
,  // measure 53
0004
4003
3400
0340
,  // measure 54
0032
0003
0000
0000
,  // measure 55
0000
0000
0000
0000
,  // measure 56
2001
3100
0100
0001
,  // measure 57
0010
0010
1000
0002
,  // measure 58
2003
3010
0010
0001
,  // measure 59
0100
0100
1000
0001
,  // measure 60
0100
0100
0010
0010
,  // measure 61
1000
0100
0100
0002
,  // measure 62
0203
0310
0010
0001
,  // measure 63
0200
0300
0000
0000
,  // measure 64
1020
0130
1000
0100
,  // measure 65
0001
1000
0100
0002
,  // measure 66
0203
1300
0010
0001
,  // measure 67
0010
1000
0100
0010
,  // measure 68
0001
1000
0010
0001
,  // measure 69
0010
1000
0100
0001
,  // measure 70
0200
0000
0000
0000
,  // measure 71
0000
0000
2300
0000
,  // measure 72
3002
0000
0000
0000
,  // measure 73
0003
0000
0000
0000
;

//---------------dance-single - Feraligatr----------------
#NOTEDATA:;
#CHARTNAME:Feraligatr SN;
#STEPSTYPE:dance-single;
#DESCRIPTION:Feraligatr;
#CHARTSTYLE:Pad;
#DIFFICULTY:Beginner;
#METER:3;
#RADARVALUES:0.163310,0.276408,0.076780,0.093842,0.000000,134.000000,125.000000,9.000000,11.000000,0.000000,0.000000,0.000000,0.000000,0.000000,0.163310,0.276408,0.076780,0.093842,0.000000,134.000000,125.000000,9.000000,11.000000,0.000000,0.000000,0.000000,0.000000,0.000000;
#CREDIT:Feraligatr;
#NOTES:
// measure 0
0000
0000
0000
0000
,  // measure 1
0000
0000
0000
0000
,  // measure 2
0000
0000
0000
0000
,  // measure 3
0000
0000
0000
0000
,  // measure 4
1000
0000
0010
0000
,  // measure 5
0000
0000
0010
0000
,  // measure 6
1000
0000
0100
0000
,  // measure 7
0000
0000
0100
0000
,  // measure 8
2002
0000
0000
0000
,  // measure 9
0000
0000
0000
0000
,  // measure 10
0000
0000
0000
0000
,  // measure 11
0000
0000
0000
3003
,  // measure 12
0220
0000
0000
0000
,  // measure 13
0000
0000
0000
0000
,  // measure 14
0000
0000
0000
0000
,  // measure 15
0000
0000
0000
0330
,  // measure 16
1000
0100
0010
0000
,  // measure 17
0001
0100
0010
0000
,  // measure 18
1000
0100
0010
0000
,  // measure 19
0001
0100
0010
0000
,  // measure 20
1000
0001
1000
0001
,  // measure 21
0100
0100
0100
0100
,  // measure 22
0020
0030
0000
0000
,  // measure 23
0000
0000
0000
0000
,  // measure 24
1001
0000
1000
0000
,  // measure 25
0010
0000
0100
0000
,  // measure 26
1001
0000
0001
0000
,  // measure 27
0010
0000
0100
0000
,  // measure 28
0110
0000
1000
0000
,  // measure 29
0001
0000
0100
0000
,  // measure 30
1001
0000
0001
0000
,  // measure 31
0020
0030
0000
0000
,  // measure 32
0110
0000
1000
0000
,  // measure 33
0001
0000
0100
0000
,  // measure 34
1001
0000
1000
0000
,  // measure 35
0100
0000
0010
0000
,  // measure 36
1001
0000
0001
0000
,  // measure 37
0100
0000
0010
0000
,  // measure 38
2000
3000
0000
0000
,  // measure 39
0000
0000
0000
0000
,  // measure 40
0001
0000
0010
0000
,  // measure 41
0100
0000
0010
0000
,  // measure 42
0001
0000
1000
0000
,  // measure 43
0010
0000
0100
0000
,  // measure 44
0001
0000
1000
0000
,  // measure 45
0100
0000
0010
0000
,  // measure 46
0001
0000
1000
0000
,  // measure 47
0010
0000
0100
0000
,  // measure 48
0002
0000
0000
0000
,  // measure 49
0000
0000
0000
0000
,  // measure 50
0000
0000
0000
0000
,  // measure 51
0000
0000
0000
0000
,  // measure 52
1003
0001
1000
0001
,  // measure 53
0100
0010
0100
0010
,  // measure 54
2000
3000
0000
0000
,  // measure 55
0000
0000
0000
0000
,  // measure 56
1000
1000
1000
0000
,  // measure 57
0001
0001
0001
0000
,  // measure 58
0100
0100
0100
0000
,  // measure 59
0010
0010
0010
0000
,  // measure 60
1000
1000
1000
0000
,  // measure 61
0001
0001
0001
0000
,  // measure 62
0010
0010
0010
0000
,  // measure 63
0200
0300
0000
0000
,  // measure 64
1000
0001
1000
0000
,  // measure 65
0010
0100
0010
0000
,  // measure 66
1000
0001
1000
0000
,  // measure 67
0100
0010
0100
0000
,  // measure 68
1000
0001
0100
0000
,  // measure 69
0010
1000
0001
0000
,  // measure 70
0020
0000
0000
0000
,  // measure 71
0000
0000
0000
0000
,  // measure 72
0130
0000
0000
0000
;
