#TITLE:Surf;
#SUBTITLE:;
#ARTIST:Mewmore;
#TITLETRANSLIT:;
#SUBTITLETRANSLIT:;
#ARTISTTRANSLIT:;
#GENRE:Electro House;
#CREDIT:Feraligatr;
#BANNER:surf-bn.png;
#BACKGROUND:surf-bg.png;
#LYRICSPATH:;
#CDTITLE:FeraligatrV4-cd.png;
#MUSIC:Mewmore - Surf.ogg;
#OFFSET:0.009000;
#SAMPLESTART:35.896999;
#SAMPLELENGTH:15.118000;
#SELECTABLE:YES;
#DISPLAYBPM:127.000000;
#BPMS:0.000000=126.999992
,75.000000=190.500000
,75.500000=95.250000
,76.000000=126.999992
;
#STOPS:
;
#BGCHANGES:;
#KEYSOUNDS:;
#ATTACKS:;

//---------------dance-single - Feraligatr----------------
#NOTES:
     dance-single:
     Feraligatr:
     Challenge:
     9:
     0.565217,0.685326,0.405797,0.978261,0.471014,546.000000,490.000000,56.000000,135.000000,4.000000,0.000000,0.565217,0.685326,0.405797,0.978261,0.471014,546.000000,490.000000,56.000000,135.000000,4.000000,0.000000:
// measure 0
0000
0000
0000
0000
,  // measure 1
0000
0000
0000
0000
,  // measure 2
0000
0000
0000
0000
,  // measure 3
0000
0000
0000
0000
,  // measure 4
0000
0000
0000
0000
,  // measure 5
0000
0000
0000
0000
,  // measure 6
0000
0000
0000
0000
,  // measure 7
0000
0000
0000
0000
0000
0000
00M0
0M00
,  // measure 8
1002
0000
0000
0000
0000
0000
0000
0000
0000
0003
0021
0000
0230
0000
1300
0000
,  // measure 9
1002
0000
0000
0000
0000
0003
0201
0000
0000
0000
0000
0000
0320
0000
0000
0030
,  // measure 10
2010
0000
0000
0000
0000
0000
3200
0000
0000
0300
0120
0000
0000
0000
0031
0000
,  // measure 11
2001
0000
0000
0000
3010
0000
0210
0000
0000
0000
0000
0000
0000
0000
0000
0300
,  // measure 12
0102
0023
0230
2300
3001
0201
0320
1030
,  // measure 13
1200
0000
0320
0000
0130
0000
2100
0000
0000
0000
3002
0000
0000
0000
0000
0003
,  // measure 14
0201
0000
0000
0000
2300
0000
0000
0000
3100
0000
0110
0000
2000
0000
0000
3000
,  // measure 15
1002
0000
0013
0210
1000
0000
1000
0000
,  // measure 16
4000
0000
0000
0000
0000
0000
0000
3000
,  // measure 17
1300
0001
1000
0010
0100
0001
1000
0001
0010
0100
0010
0001
1000
0001
0100
0010
,  // measure 18
4000
0000
0000
0000
0000
0000
0004
0000
0000
0000
0000
0000
0000
0000
0000
0000
0000
0000
0000
0000
0000
0000
0000
0000
0000
0000
0000
0000
0000
0000
0000
0000
0000
0000
0000
0000
0000
0000
0000
0000
0000
0000
0000
0000
0000
0000
0000
0000
0000
0000
0000
0000
0000
0000
0000
0000
0000
0000
0000
0000
0000
0000
0000
0000
0000
0000
0000
0000
0000
0000
0000
0000
0000
0000
0000
0000
0000
0000
0000
0000
0000
0000
0000
0000
3000
0000
0000
0000
0000
0000
0000
0000
0000
0000
0000
0000
0103
0000
0000
0000
0000
0000
0000
0000
0000
0000
0000
0000
0000
0000
0000
0000
0010
0000
0000
0000
0000
0000
0000
0000
0000
0000
0000
0000
0000
0000
0000
0000
0100
0000
0000
0000
0000
0000
0000
0000
0000
0000
0000
0000
0000
0000
0000
0000
1001
0000
0000
0000
0000
0000
0000
0000
0000
0000
0000
0000
0000
0000
0000
0000
0000
0000
0000
0000
0000
0000
0000
0000
0000
0000
0000
0000
0000
0000
0000
0000
0000
0000
0000
0000
0000
0000
0000
0000
0000
0000
0000
0000
0000
0000
0000
0000
,  // measure 19
1200
0000
0000
0000
0310
0100
1000
0000
1200
0000
0000
0000
0310
0100
1000
0000
,  // measure 20
1200
0000
0000
0000
0310
0001
0010
0000
1000
0000
0010
0000
0001
0000
1000
0001
,  // measure 21
0200
0000
0000
0000
0310
0100
0001
0000
0201
0000
0000
0000
0310
0100
0001
0000
,  // measure 22
0201
0000
0000
0000
0310
1000
0010
0000
0001
0000
0010
0000
1000
0000
0001
1000
,  // measure 23
0200
0000
0000
0000
0310
0100
1000
0000
1200
0000
0000
0000
0310
0100
1000
0000
,  // measure 24
1200
0000
0000
0000
0310
0001
0010
0000
1000
0000
0010
0000
0001
0000
1000
0001
,  // measure 25
0200
0000
0000
0000
0310
0100
0001
0000
0201
0000
0000
0000
0310
0100
0001
0000
,  // measure 26
0201
0000
0000
0000
0310
1000
0010
0000
0001
0000
0010
0000
1000
0000
0000
0000
,  // measure 27
2001
3200
0320
0230
,  // measure 28
2300
0000
0000
0000
0001
0000
0000
0000
3001
0010
0001
0010
0100
0000
1000
0000
,  // measure 29
0002
0203
0010
0302
,  // measure 30
0023
0000
0100
0000
0032
2003
3020
0230
,  // measure 31
0302
0000
0000
0000
1000
0000
1003
0100
1000
0100
0020
0000
0032
0000
0000
0000
,  // measure 32
2003
0000
3020
0000
0230
0000
0001
0320
,  // measure 33
2030
0000
0000
0000
0001
0000
0000
0000
3200
0000
0000
0000
0310
0001
0010
0001
,  // measure 34
2000
0000
0000
0000
0001
0000
0000
0000
3200
0000
0000
1300
0100
1000
0100
1000
,  // measure 35
2001
0000
0000
0000
0000
0000
0000
0000
3002
0000
0000
0000
0000
0000
0000
0000
0203
0000
0000
0000
0000
0000
0000
0000
0320
0000
0000
0000
0000
0000
0000
1030
0002
0000
0000
0000
0000
0000
0000
0000
0023
0000
0000
0000
0000
0000
0000
0000
0032
0000
0000
0000
0000
0000
0000
0000
0203
0000
0000
0000
0000
0000
0000
0000
,  // measure 36
0310
1000
0001
0010
0001
1000
0010
0100
0002
0000
0000
0013
0200
0000
0000
0000
,  // measure 37
0301
0100
0010
0001
1000
0010
0100
0001
1000
0100
0020
0000
0130
0010
0002
0000
,  // measure 38
1003
0000
0010
0000
0200
0000
0310
1000
0001
0000
0010
0000
0200
0000
0000
0000
,  // measure 39
0302
0000
0000
0003
0002
0000
0103
0010
0200
0000
0000
0000
0320
0000
0032
0000
,  // measure 40
2003
3020
2030
3002
0023
0030
0200
0300
,  // measure 41
0200
0000
1000
0000
0320
0032
0023
0230
,  // measure 42
1300
0000
0001
0000
1000
0000
0001
0000
0100
0001
1000
0001
0010
0000
0000
0000
,  // measure 43
0110
0000
0010
0000
0001
0000
0000
1000
0000
0100
0000
M100
0001
0000
1000
0001
,  // measure 44
0010
0000
0100
0000
1000
0000
0000
0001
0000
0100
0010
0000
0100
0001
1000
0100
,  // measure 45
0010
0000
0001
0000
1000
0000
0000
0001
0000
0100
0001
0000
0010
0000
0100
1000
,  // measure 46
1002
0000
0000
0003
1002
0000
0000
0003
0201
0000
0000
0300
0201
0000
0000
0000
,  // measure 47
0310
0000
0100
0000
0001
0000
0000
1000
0000
0100
0000
M100
0001
0000
1000
0100
,  // measure 48
0010
0000
0001
0000
1000
0000
0000
0010
0000
1000
0001
0000
0010
0001
1000
0010
,  // measure 49
0100
0000
0001
0000
1000
0000
0000
0100
0000
0010
0001
0000
0100
0000
0010
1000
,  // measure 50
1002
0000
0000
0003
0021
0000
0000
0030
0210
0000
0000
0300
0210
0000
0000
0000
,  // measure 51
1300
0001
0000
0200
0000
0000
0310
1000
0001
0010
0000
0200
0000
0000
0310
0001
,  // measure 52
1000
0000
0000
0010
0000
0000
0000
0000
0000
0200
0000
0000
0000
0000
0000
0000
0000
0000
0310
0000
1000
0000
0010
0000
0100
0000
0000
0001
0000
0000
0000
0000
0000
0020
0000
0000
0100
0000
0000
0000
0000
0000
0000
0000
0000
0030
0000
0000
,  // measure 53
1100
1000
0000
0001
0000
0200
0000
0310
2000
0000
3100
0000
0010
0100
1000
0001
,  // measure 54
0200
0000
0000
0310
0100
0000
0001
1000
0100
0000
0010
0000
0001
0000
1000
0010
,  // measure 55
0002
0000
0000
0000
0000
0000
0000
0000
0013
0000
0000
0000
0100
0000
0000
0000
0000
0000
0000
0000
0001
0000
0000
0000
0000
0000
0000
1000
0001
0000
0000
0000
0000
0000
0000
0000
0020
0000
0000
0000
0000
0000
0000
0000
0031
0000
0000
0000
2000
0000
0000
0000
0000
0000
0000
0000
3010
0000
0000
0000
0000
0000
0000
0000
,  // measure 56
0210
0000
0000
0301
0100
0000
2000
0000
0000
0000
0000
0000
3100
0000
0010
0000
,  // measure 57
1020
0000
0000
0130
0001
0000
1000
0001
2000
0000
0000
3200
0000
0000
1300
0001
,  // measure 58
0020
0000
0000
0130
1000
0000
0001
0100
0020
0000
2030
0000
3001
0010
0100
0000
,  // measure 59
2100
0000
0000
0000
3001
0100
0010
0100
0002
0000
0000
0000
1003
0100
0010
0100
,  // measure 60
2000
0000
0000
0000
0001
0000
3020
0000
0000
0000
0000
1030
0001
0000
0000
0000
,  // measure 61
0021
0000
0000
0000
0130
0010
0001
0000
0021
0000
0000
0000
0130
0010
0001
0000
,  // measure 62
0021
0000
0000
0000
0130
1000
0100
0000
0001
0000
0100
0000
1000
0000
0001
1000
,  // measure 63
0020
0000
0000
0000
0130
0010
1000
0000
1020
0000
0000
0000
0130
0010
1000
0000
,  // measure 64
1020
0000
0000
0000
0130
0001
0100
0000
1000
0000
0100
0000
0001
0000
1000
0001
,  // measure 65
0020
0000
0000
0000
0130
0010
0001
0000
0021
0000
0000
0000
0130
0010
0001
0000
,  // measure 66
0021
0000
0000
0000
0130
1000
0100
0000
0001
0000
0100
0000
1000
0000
0001
1000
,  // measure 67
0020
0000
0000
0000
0130
0010
1000
0000
1020
0000
0000
0000
0130
0010
1000
0000
,  // measure 68
1020
0000
0000
0000
0130
0001
0100
0000
1000
0000
0100
0000
0001
0000
0000
0000
,  // measure 69
1001
1100
0110
0001
,  // measure 70
1000
0000
1000
0000
0010
0000
0010
0000
0100
0000
0001
0100
2000
0000
0000
3000
,  // measure 71
0110
1010
1001
0001
,  // measure 72
0010
0000
0010
0000
0100
0000
0100
0000
1000
0000
0000
0001
1000
0000
0000
0000
;

//---------------dance-single - Feraligatr SH----------------
#NOTES:
     dance-single:
     Feraligatr SH:
     Hard:
     8:
     0.440994,0.579891,0.057971,1.050725,0.362319,426.000000,418.000000,8.000000,145.000000,8.000000,0.000000,0.440994,0.579891,0.057971,1.050725,0.362319,426.000000,418.000000,8.000000,145.000000,8.000000,0.000000:
0000
0000
0000
0000
,
0000
0000
0000
0000
,
0000
0000
0000
0000
,
0000
0000
0000
0000
,
0000
0000
0000
0000
,
0000
0000
0000
0000
,
0000
0000
0000
0000
,
0000
0000
0000
0000
,
2001
0000
0000
0000
0000
3200
0320
0032
,
2003
0000
0000
3020
0000
0000
0230
0000
,
0302
0000
0000
0023
0000
0230
0000
2300
,
3002
0000
0203
0320
0000
0000
0000
0000
,
2030
3200
0320
0230
2300
3002
0203
0320
,
0230
0302
2003
3200
0000
0320
0000
0000
,
0230
0302
0203
2300
,
3002
0000
0000
0203
0000
0000
0000
0000
,
0010
0010
0010
0010
,
0040
0000
0000
0000
,
000M
0000
0000
000M
0000
0000
000M
0000
0000
000M
0000
0000
000M
0000
0000
000M
0000
0000
000M
0000
0000
030M
0000
0000
0130
0000
0000
0000
0001
0000
0000
0000
0100
0000
0000
0000
0010
0000
0000
0000
0000
0000
0000
0000
0000
0000
0000
0000
,
1002
0000
0000
0000
1003
0100
0010
0000
0002
0000
0000
0000
1003
0100
0010
0000
,
0002
0000
0000
0000
1003
0100
0010
0000
1000
0000
0010
0000
0001
0000
0100
0010
,
2000
0000
0000
0000
3001
0100
0010
0000
2000
0000
0000
0000
3001
0100
0010
0000
,
2000
0000
0000
0000
3001
0100
0010
0000
0001
0000
0010
0000
1000
0000
0100
0010
,
0002
0000
0000
0000
1003
0100
0010
0000
0002
0000
0000
0000
1003
0100
0010
0000
,
0002
0000
0000
0000
1003
0100
0010
0000
1000
0000
0010
0000
0001
0000
0100
0010
,
2000
0000
0000
0000
3001
0100
0010
0000
2000
0000
0000
0000
3001
0100
0010
0000
,
2000
0000
0000
0000
3001
0100
0010
0000
0001
0000
0010
0000
1000
0000
0000
0000
,
2001
3200
0320
0032
,
2003
0000
0000
0000
0000
0000
0000
0000
0004
0000
0000
3000
0103
0000
0010
0000
,
2000
3002
0000
0023
,
0230
0000
0000
0000
2300
3020
0230
0302
,
2003
0000
0000
3400
0000
0320
0032
0000
,
2003
0000
3020
0000
0230
0000
0000
0320
,
2030
0000
3200
0340
,
0032
0000
0000
0000
0000
0000
0000
0000
0203
0000
0000
0340
0000
0000
0000
0000
,
2030
3002
0023
0230
0320
0032
2003
3020
,
0130
0001
0100
0000
0001
1000
0001
0000
0020
0000
0000
0130
2000
0000
0000
0000
,
3001
0100
0001
0000
1000
0001
1000
0000
0001
0010
0002
0000
1003
0100
2000
0000
,
3001
0000
0100
0000
0020
0000
1030
0001
1000
0000
0100
0000
0020
0000
0000
0000
,
0032
0000
0000
0003
0002
0000
0000
0000
2003
0000
0000
0000
3020
0000
0230
0000
,
0320
2030
3002
0023
0032
0003
2000
3000
,
2000
0000
0000
0000
3020
0230
0302
2003
,
3200
0000
0000
0000
0000
0000
0000
0000
0310
0001
0010
0001
1000
0000
0000
0000
,
1001
0000
0001
0000
0100
0000
0000
0010
0000
1000
0000
0001
0000
0000
0010
0100
,
0000
0000
0010
0000
0001
0000
0000
1000
0000
0010
1000
0000
0001
0100
0001
0100
,
0001
0000
1000
0000
0100
0000
0000
0010
0000
0001
1000
0000
0010
0000
0100
0001
,
2000
0000
0000
3000
2000
0000
0000
0000
3200
0000
0000
0300
0200
0000
0000
0000
,
0310
0000
0001
0000
1000
0000
0000
0010
0000
0100
0000
0001
0000
0000
1000
0100
,
0000
0000
0010
0000
0001
0000
0000
1000
0000
0010
0100
0000
0001
1000
0001
1000
,
0001
0000
0010
0000
0100
0000
0000
0010
0000
0001
1000
0000
0010
0000
0100
0001
,
2000
0000
0000
0000
3200
0000
0000
0000
0320
0000
0000
0030
0020
0000
0000
0000
,
0031
1000
0000
0020
0000
0000
0030
0000
0100
0001
0000
2000
0000
0000
3000
0000
,
0100
0010
0000
0002
0000
0000
0003
0000
1000
0010
0000
0200
0000
0000
0000
0300
,
0210
0000
0000
0000
0001
0000
0300
0000
0200
0000
0310
0000
1000
0001
1000
0001
,
0020
0000
0000
0130
1000
0000
0001
1000
0010
0000
0100
0000
0001
0000
1000
0001
,
0020
0000
0130
0010
0000
0002
0000
1003
0000
0002
0000
0203
0000
0000
0310
0000
,
2000
0000
0000
3001
0000
0000
0020
0000
0000
0000
0000
0000
0130
0000
0010
0000
,
0002
0000
0000
1003
0000
0000
0010
0100
0020
0000
0000
2030
0000
0000
3001
0010
,
0200
0000
0000
0310
0000
0000
0001
1000
0002
0000
0203
0000
0310
1000
0020
0000
,
0230
0000
0000
0000
0301
1000
0001
1000
0200
0000
0000
0000
0310
0001
0010
0001
,
2000
0000
0000
3020
0000
0000
0130
0000
,
0102
0000
0000
0000
1003
0010
0100
0000
0002
0000
0000
0000
1003
0010
0100
0000
,
0002
0000
0000
0000
1003
0010
0100
0000
1000
0000
0100
0000
0001
0000
0010
0100
,
2000
0000
0000
0000
3001
0010
0100
0000
2000
0000
0000
0000
3001
0010
0100
0000
,
2000
0000
0000
0000
3001
0010
0100
0000
0001
0000
0100
0000
1000
0000
0010
0100
,
0002
0000
0000
0000
1003
0010
0100
0000
0002
0000
0000
0000
1003
0010
0100
0000
,
0002
0000
0000
0000
1003
0010
0100
0000
1000
0000
0100
0000
0001
0000
0010
0100
,
2000
0000
0000
0000
3001
0010
0100
0000
2000
0000
0000
0000
3001
0010
0100
0000
,
2000
0000
0000
0000
3001
0010
0100
0000
0001
0000
0100
0000
1000
0000
0000
0000
,
1001
0001
0100
0010
,
1000
0000
1000
0000
1000
0000
1000
0000
1000
0000
0001
0010
0002
0000
0000
0000
,
1003
0100
0010
0001
,
1000
1000
1000
1000
1000
0000
1001
0000
;

//---------------dance-single - Feraligatr SM----------------
#NOTES:
     dance-single:
     Feraligatr SM:
     Medium:
     6:
     0.315735,0.395380,0.108696,0.811594,0.000000,305.000000,290.000000,15.000000,112.000000,0.000000,0.000000,0.315735,0.395380,0.108696,0.811594,0.000000,305.000000,290.000000,15.000000,112.000000,0.000000,0.000000:
0000
0000
0000
0000
,
0000
0000
0000
0000
,
0000
0000
0000
0000
,
0000
0000
0000
0000
,
0000
0000
0000
0000
,
0000
0000
0000
0000
,
0000
0000
0000
0000
,
0000
0000
0000
0000
,
2001
0000
0000
0000
0000
3020
0000
0000
,
0230
0000
0000
0302
0000
0000
0000
0000
,
2003
0000
0000
0000
0000
3200
0000
0000
,
0320
0000
0000
0032
0000
0000
0000
0000
,
1003
0000
1000
0000
0010
0100
0010
0000
,
1000
0000
1000
0001
0010
0000
0010
0000
,
0100
0000
0100
0000
1000
0001
1000
0000
,
0010
0000
0010
0200
0000
0000
0000
0000
,
0000
0000
0000
0000
,
0000
0000
0000
0000
,
0000
0000
0300
1001
,
2000
0000
3100
0010
0002
0000
1003
0100
,
0020
0000
0031
1000
0010
0100
0001
1000
,
0200
0000
0310
0001
2000
0000
3100
0010
,
0002
0000
1003
0001
0100
0010
0100
0001
,
2000
0000
3100
0010
0002
0000
1003
0100
,
0020
0000
0031
1000
0010
0100
0001
1000
,
0200
0000
0310
0001
2000
0000
3100
0010
,
0002
0000
1003
0001
0100
0010
1000
0000
,
1002
0023
0230
0320
,
0032
0000
0000
0000
0000
0000
0000
0000
0000
0000
0000
0003
1000
0000
0010
0000
,
0200
0302
0000
0023
,
0230
0000
0000
0000
2300
3002
0203
0320
,
0230
0000
0000
0000
0000
0302
2003
0000
,
3200
0000
0320
0000
0032
0000
0000
2003
,
3020
0000
0230
0000
,
0302
0000
0023
0000
,
0230
2300
3002
0203
0320
0230
0302
2003
,
3100
0100
0010
0010
0002
0000
2003
0000
,
3010
0010
0100
0100
0001
0001
1000
1000
,
0100
0010
0200
0000
1300
0001
2000
0000
,
3020
0000
0000
0030
0020
0000
0000
0000
0230
0000
0000
0000
0302
0000
2003
0000
,
3200
0320
0230
2300
3002
0003
0200
0300
,
0200
0000
0000
0000
0320
2030
3020
0230
,
0302
0000
0000
1003
,
1001
0001
0100
0010
,
0100
0001
1000
0100
,
0010
0100
1000
0001
,
0201
0000
0000
0300
0201
0000
0000
0300
0120
0000
0000
0030
0120
0000
0000
0000
,
1030
0001
0010
0100
,
0010
0001
1000
0010
,
0100
0001
1000
0100
,
2100
0000
0000
3000
1002
0000
0000
0003
0201
0000
0000
0300
0201
0000
0000
0000
,
0310
0010
1000
1000
,
0001
0001
0010
0100
,
1200
0000
1000
0300
0100
0020
0000
0000
,
0032
0000
0000
0203
0000
0000
0320
0000
,
2030
0000
0001
3000
0001
0020
0000
0000
,
0230
0000
0000
2300
0000
0000
0001
3001
,
0002
0000
1000
0003
0001
0200
0000
0000
,
0320
0000
0000
0230
0000
0000
0302
0000
,
2003
0000
0001
3000
0001
0020
0000
0000
,
0230
0000
0000
2300
0000
0000
3001
0000
,
1002
0000
0103
0010
2000
0000
3001
0100
,
0020
0000
1030
0001
0010
0100
1000
0001
,
0200
0000
0310
1000
0002
0000
0103
0010
,
2000
0000
3001
1000
0100
0010
0100
1000
,
0002
0000
0103
0010
2000
0000
3001
0100
,
0020
0000
1030
0001
0010
0100
1000
0001
,
0200
0000
0310
1000
0002
0000
0103
0010
,
2000
0000
3001
1000
0100
0010
0001
0000
,
1001
1000
1000
0001
,
0100
0010
0100
0010
0100
0000
0001
0000
,
1000
1000
1000
0001
,
0010
0100
0010
0100
0010
0000
0001
0000
;

//---------------dance-single - Feraligatr SE----------------
#NOTES:
     dance-single:
     Feraligatr SE:
     Easy:
     4:
     0.204969,0.342663,0.115942,0.420290,0.000000,198.000000,182.000000,16.000000,58.000000,0.000000,0.000000,0.204969,0.342663,0.115942,0.420290,0.000000,198.000000,182.000000,16.000000,58.000000,0.000000,0.000000:
0000
0000
0000
0000
,
0000
0000
0000
0000
,
0000
0000
0000
0000
,
0000
0000
0000
0000
,
0000
0000
0000
0000
,
0000
0000
0000
0000
,
0000
0000
0000
0000
,
0000
0000
0000
0000
,
2000
0000
0000
0000
,
3002
0000
0000
0000
,
0203
0000
0000
0000
,
0320
0000
0000
0000
,
1030
1000
0001
0001
,
0010
0010
0100
0100
,
1000
1000
0001
0001
,
0100
0000
0100
0020
0000
0000
0000
0000
,
0000
0000
0000
0000
,
0000
0000
0000
0000
,
0000
0000
0030
1001
,
1200
0000
0000
0300
0000
0020
0000
0000
,
0032
0000
0000
0203
0000
0000
0320
0000
,
2030
0000
0000
3000
0000
0200
0000
0000
,
0320
0000
0000
0032
0000
0000
0000
0000
,
0203
0000
0000
0300
0000
0020
0000
0000
,
2030
0000
0000
3200
0000
0000
0320
0000
,
0032
0000
0000
0003
0000
0200
0000
0000
,
0320
0000
0000
2030
0000
0000
3001
0000
,
1001
1000
0100
0010
,
0200
0000
0000
1300
,
0001
0200
0000
0310
,
2000
0000
3001
0010
,
0200
0000
0000
1300
,
0001
0100
0020
0000
,
2030
0000
3002
0000
,
0023
0000
0230
0000
,
1300
1000
0001
0001
,
0100
0010
1000
0001
,
0010
0100
0010
0001
,
1000
0010
0100
0010
,
1000
0001
0010
0100
,
0010
0001
1000
0001
,
0002
0000
0103
0010
,
2000
0000
0000
3001
,
1001
1000
0100
0010
,
0100
1000
0001
0100
,
0010
0100
0001
1000
,
1100
1100
1001
1001
,
0001
0100
0010
0100
,
0001
1000
0100
0010
,
0001
1000
0010
0100
,
0101
0101
1001
2002
,
0000
0000
0000
0000
,
0000
0000
0000
0000
0000
3003
0110
0000
,
1001
1000
0100
0000
,
1000
0001
0100
0010
,
0100
0001
1000
0000
,
0100
0010
0100
1000
,
0001
0100
0010
0000
,
0100
0001
1000
0100
,
2000
3001
0200
0310
,
2000
0000
3000
0002
0000
0000
1003
0000
,
0021
0000
0000
0030
0000
0200
0000
0000
,
2300
0000
0000
3020
0000
0000
0230
0000
,
0302
0000
0000
0003
0000
0020
0000
0000
,
0230
0000
0000
2300
0000
0000
0000
0000
,
3020
0000
0000
0030
0000
0200
0000
0000
,
0302
0000
0000
0023
0000
0000
0230
0000
,
2300
0000
0000
3000
0000
0020
0000
0000
,
0230
0000
0000
0302
0000
0000
1003
0000
,
1001
0001
0001
0000
,
0010
0010
0010
0000
,
0100
0100
0100
0000
,
1000
1000
1000
0001
;

//---------------dance-single - Feraligatr SB----------------
#NOTES:
     dance-single:
     Feraligatr SB:
     Beginner:
     1:
     0.115942,0.184511,0.043478,0.079710,0.000000,112.000000,106.000000,6.000000,11.000000,0.000000,0.000000,0.115942,0.184511,0.043478,0.079710,0.000000,112.000000,106.000000,6.000000,11.000000,0.000000,0.000000:
0000
0000
0000
0000
,
0000
0000
0000
0000
,
0000
0000
0000
0000
,
0000
0000
0000
0000
,
0000
0000
0000
0000
,
0000
0000
0000
0000
,
0000
0000
0000
0000
,
0000
0000
0000
0000
,
2000
0000
0000
0000
,
3200
0000
0000
0000
,
0320
0000
0000
0000
,
0032
0000
0000
0000
,
2003
0000
0000
0000
,
3020
0000
0000
0000
,
0230
0000
0000
0000
,
0302
0000
0000
0003
0000
0000
0000
0000
,
0000
0000
0000
0000
,
0000
0000
0000
0000
,
0000
0000
0000
0110
,
1001
0000
1000
0000
,
0010
0000
1000
0000
,
0001
0000
0010
0000
,
0001
0000
0010
0000
,
0100
0000
1000
0000
,
0100
0000
1000
0000
,
0001
0000
0100
0000
,
0001
0000
0100
0000
,
1001
0000
0000
0000
,
1000
0000
0000
0000
,
0100
0000
0000
0000
,
0010
0000
0000
0000
,
0100
0000
0000
0000
,
1000
0000
0000
0000
,
0001
0000
0000
0000
,
0100
0000
0000
0000
,
0010
0000
0010
0000
,
0100
0000
0100
0000
,
0001
0000
0001
0000
,
1000
0000
1000
0000
,
0100
0000
0100
0000
,
0010
0000
0010
0000
,
0001
0000
0001
0000
,
1000
0000
0000
0010
,
0110
0000
0000
0000
,
0100
0000
0000
0000
,
0001
0000
0000
0000
,
1000
1000
0100
0100
,
0010
0000
0000
0000
,
0001
0000
0000
0000
,
0100
0000
0000
0000
,
0010
0010
1000
1000
,
0002
0000
0000
0000
,
0000
0000
0000
0003
,
1001
0000
1000
0000
,
0100
0000
0010
0000
,
0100
0000
1000
0000
,
0001
0000
0100
0000
,
0010
0000
0100
0000
,
0001
0000
1000
0000
,
0100
0000
0010
0000
,
0001
0000
1000
0001
,
1001
0000
0001
0000
,
0100
0000
0001
0000
,
1000
0000
0100
0000
,
1000
0000
0100
0000
,
0010
0000
0001
0000
,
0010
0000
0001
0000
,
1000
0000
0010
0000
,
1000
0000
0010
0000
,
0100
0100
0100
0000
,
0002
0000
0003
0000
,
1000
1000
1000
0000
,
0200
0000
0300
0010
;
