#VERSION:0.83;
#TITLE:Smog;
#SUBTITLE:;
#ARTIST:Droptek & Vorso;
#TITLETRANSLIT:;
#SUBTITLETRANSLIT:;
#ARTISTTRANSLIT:;
#GENRE:;
#ORIGIN:;
#CREDIT:;
#BANNER:Smog-bn.png;
#BACKGROUND:Smog-bg-wide.png;
#PREVIEWVID:;
#JACKET:Smog-jacket.png;
#CDIMAGE:;
#DISCIMAGE:Smog-bg-wide.png;
#LYRICSPATH:;
#CDTITLE:maxx-cdtitle.png;
#MUSIC:Smog.ogg;
#OFFSET:0.009000;
#SAMPLESTART:33.479000;
#SAMPLELENGTH:22.326000;
#SELECTABLE:YES;
#DISPLAYBPM:86.000000:129.000000;
#BPMS:0.000=86.000,
19.000=129.000,
19.375=43.000,
19.500=86.000,
51.750=172.000,
52.000=86.000,
59.750=172.000,
60.000=129.000,
66.000=86.000,
69.750=172.000,
70.000=86.000,
74.250=172.000,
74.500=86.000,
77.750=172.000,
78.000=86.000,
85.750=172.000,
86.000=86.000,
93.750=172.000,
94.000=129.000,
100.000=86.000,
112.000=129.000,
118.000=86.000,
150.250=172.000,
150.500=86.000,
151.000=172.000,
151.250=86.000,
153.000=129.000,
154.500=86.000,
154.750=172.000,
155.000=86.000,
155.500=172.000,
155.750=86.000,
158.750=172.000,
159.000=86.000,
159.500=172.000,
159.750=86.000,
161.500=129.000,
169.000=86.000,
170.000=172.000,
170.250=86.000,
171.500=172.000,
171.750=86.000,
173.250=172.000,
173.500=86.000,
174.000=172.000,
174.250=86.000,
175.500=172.000,
175.750=86.000,
179.500=172.000,
179.750=86.000,
188.750=172.000,
189.000=86.000,
197.000=129.000,
203.000=86.000,
215.000=129.000,
221.000=86.000;
#STOPS:51.750=0.087,
59.750=0.087,
69.750=0.087,
74.250=0.087,
77.750=0.087,
85.750=0.087,
93.750=0.087,
150.250=0.087,
151.000=0.087,
154.750=0.087,
155.500=0.087,
158.750=0.087,
159.500=0.087,
170.000=0.087,
171.500=0.087,
173.250=0.087,
174.000=0.087,
175.500=0.087,
179.500=0.087,
188.750=0.087;
#DELAYS:;
#WARPS:;
#TIMESIGNATURES:0.000=4=4;
#TICKCOUNTS:0.000=4;
#COMBOS:0.000=1;
#SPEEDS:0.000=1.000=0.000=0;
#SCROLLS:0.000=1.000;
#FAKES:;
#LABELS:0.000=Song Start;
#BGCHANGES:;
#KEYSOUNDS:;
#ATTACKS:
;

//---------------dance-single - Maxx----------------
#NOTEDATA:;
#CHARTNAME:Maxx;
#STEPSTYPE:dance-single;
#DESCRIPTION:Maxx;
#CHARTSTYLE:;
#DIFFICULTY:Challenge;
#METER:12;
#RADARVALUES:0.639501,0.808054,0.308725,0.597315,1.362416,667.000000,621.000000,46.000000,89.000000,47.000000,0.000000,8.000000,0.000000,0.000000,0.639501,0.808054,0.308725,0.597315,1.362416,667.000000,621.000000,46.000000,89.000000,47.000000,0.000000,8.000000,0.000000,0.000000;
#CREDIT:Maxx;
#DISPLAYBPM:86.000000:129.000000;
#NOTES:
// measure 0
0000
0000
0000
0000
,  // measure 1
0000
0000
0000
0000
,  // measure 2
0000
0000
0000
0000
,  // measure 3
0000
0000
0000
0000
,  // measure 4
0202
0000
0000
0303
0000
0000
0100
0000
0000
0000
0000
0000
0010
0000
0000
0000
0000
0000
1000
0000
0000
0000
0000
0000
0001
0000
0000
0000
0000
0000
0010
0000
0000
0000
0100
0000
2000
0000
0000
0000
0000
0000
3000
0000
0000
0000
0000
0000
,  // measure 5
0001
1000
0010
0100
0001
1000
0200
0300
,  // measure 6
0022
0033
0022
0033
1000
0000
0010
0000
0100
0000
0001
0000
0020
0000
0030
0000
,  // measure 7
0200
0000
0000
0000
0000
0000
0000
0000
0000
0000
0000
0300
0220
0000
0000
0330
,  // measure 8
2002
0M00
0000
00M0
0000
0M00
0000
00M0
0000
0M00
0000
00M0
0000
0M00
0000
00M0
,  // measure 9
0000
0M00
0000
00M0
0000
0M00
0000
00M0
0000
0M00
0000
00M0
0000
0M00
0000
30M3
,  // measure 10
0001
0200
0000
0320
0000
2030
0000
3002
0000
0023
0000
0230
0000
2300
0000
3020
,  // measure 11
0000
0000
0230
0000
0000
0000
0302
0000
0000
0000
0023
0000
0000
0000
0230
0000
0000
0000
2300
0000
0000
300M
0000
000M
0000
000M
0000
000M
0000
000M
0000
0000
,  // measure 12
1001
0000
0000
1000
0000
0000
0010
0000
0000
0010
0000
0000
0100
0000
0000
0001
0000
0000
1000
0000
0000
1000
0000
0000
0001
0000
0000
0000
0010
0000
0000
0100
0000
0000
1000
0000
0001
0000
1000
0000
0001
0000
0200
0000
0000
0300
0000
0000
,  // measure 13
1001
0000
0000
0001
0000
0000
0010
0000
0000
0010
0000
0000
0100
0000
0000
1000
0000
0000
0010
0000
0000
0010
0000
0000
0100
0000
0000
0000
0001
0000
0000
1000
0000
0000
0100
0000
0010
0000
0000
0000
001M
0000
2000
0000
0000
0000
0000
0000
,  // measure 14
3001
0000
0000
0000
0000
0000
1001
0000
0000
1000
0000
0000
0100
0000
0000
0100
0000
0000
0010
0000
0000
0001
0000
0000
0100
0000
0000
0100
0000
0000
0000
0010
0000
0000
1000
0000
0001
0000
1000
0000
0001
0000
0020
0000
0000
0030
0000
0000
,  // measure 15
M001
0000
0000
0000
0010
0000
0000
0000
0001
0000
0000
0100
0000
0000
0010
0000
0000
0000
1000
0000
0000
0001
0000
0000
1000
0000
0000
0100
0000
0000
0000
0010
0000
0000
0000
0100
0000
0000
1000
0000
0000
0000
0001
0000
0000
0100
0000
0000
,  // measure 16
0000
0010
0000
0000
0000
0100
0000
0001
0000
0010
0000
0001
0000
0100
0000
0010
0000
1000
0000
0001
0000
0010
0000
0000
M100
0000
0000
0000
0100
0000
1000
0000
0000
0000
0010
0000
0100
0000
0000
0001
0000
0000
0010
0000
0000
0100
0000
0000
,  // measure 17
1000
0000
0000
0000
1000
0000
0010
0000
0010
M000
0001
0000
1000
0000
0100
0000
0010
0000
0002
0000
0000
0003
0000
0000
0101
0000
0000
0100
0000
0000
0100
0000
0010
0000
1000
0000
0100
0000
0000
0010
0000
0000
0001
0000
0000
0001
0000
0000
,  // measure 18
0100
0000
0000
0000
0100
0000
0010
0000
0000
0000
1000
0000
0001
0000
1000
0000
0001
0000
0010
0000
0000
0000
0001
0000
0200
0000
0000
0300
0000
0000
1010
0000
0000
1000
0000
0000
0001
0000
0000
0001
0000
0000
0010
0000
0000
0100
0000
0000
,  // measure 19
1000
0000
0000
0000
0000
0000
0000
0000
0000
0000
0000
0000
0000
0000
0000
0000
1000
0000
0000
0000
0000
0000
0000
0000
0010
0000
0000
0000
0000
0000
0000
0000
0000
0000
0000
0000
0000
0000
0000
0000
0100
0000
0000
0000
0000
0000
0000
0000
0001
0000
0000
0000
0000
0000
0000
0000
0100
0000
0000
0000
0000
0000
0000
0000
0001
0000
0000
0000
0000
0000
0000
0000
2000
0000
0000
0000
0000
0000
0000
0000
0000
0000
0000
0000
3000
0000
0000
0000
0000
0000
0000
0000
0000
0000
0000
0000
0001
0000
0000
0000
0000
0000
0000
0000
0000
0000
0000
0000
1000
0000
0000
0000
0000
0000
0000
0000
0000
0000
0000
0000
0100
0000
0000
0000
0000
0000
0000
0000
0000
0000
0000
1000
0000
0000
0000
0000
0000
0000
0000
0000
0000
0000
0000
0001
0000
0000
0000
0000
0000
0000
0000
0000
0000
0000
0000
1000
0000
0000
0000
0000
0000
0000
0000
0000
0000
0000
0000
0000
0010
0000
0000
0000
0000
0000
0000
0000
0000
0000
0000
0000
0100
0000
0000
0000
0000
0000
0000
0000
0000
0000
0000
0001
,  // measure 20
0000
0000
0000
0000
0000
0000
0000
0000
0000
0000
1000
0000
0000
0000
0000
0000
0000
0000
0000
0000
0000
0100
0000
0000
0000
0000
0000
0000
0000
0000
0000
0000
0010
0000
0000
0000
0000
0000
0000
0000
0000
0000
0001
0000
0000
0000
0000
0000
1000
0000
0000
0000
0000
0000
0000
0000
0001
0000
0000
0000
0000
0000
0000
0000
1000
0000
0000
0000
0000
0000
0000
0000
0100
0000
0000
0000
0000
0000
0000
0000
0000
0000
0000
0000
0010
0000
0000
0000
0000
0000
0000
0000
0000
0000
0000
0000
0001
0000
0000
0000
0000
0000
0000
0000
0000
0000
0000
0000
1000
0000
0000
0000
0000
0000
0000
0000
0000
0000
0000
0000
0001
0000
0000
0000
0000
0000
0000
0000
0000
0000
0000
0000
1000
0000
0000
0000
0000
0000
0000
0000
0000
0000
0000
0000
0010
0000
0000
0000
0000
0000
0000
0000
0000
0000
0000
0000
1000
0000
0000
0000
0000
0000
0000
0000
0000
0000
0000
0000
0010
0000
0000
0000
0000
0000
0000
0000
0000
0000
0000
0000
0100
0000
0000
0000
0000
0000
0000
0000
0000
0000
0000
0000
,  // measure 21
0001
0000
0000
0000
0000
0000
0000
0000
0000
0000
0000
0000
0000
1000
0000
0000
0000
0000
0000
0000
0000
0000
0000
0000
0000
0000
0000
0001
0000
0000
0000
0000
0000
0000
0000
0000
0000
0000
0000
0000
1000
0000
0000
0000
0000
0000
0000
0000
0010
0000
0000
0000
0000
0000
0000
0000
0000
0000
0000
0000
0000
0000
0000
0010
0000
0000
0000
0000
0000
0000
0000
0000
MM02
0000
0000
0000
0000
0000
0000
0000
0000
0000
0000
0000
0003
0000
0000
0000
0000
0000
0000
0000
0000
0000
0000
0000
0100
0000
0000
0000
0000
0000
0000
0000
0000
0000
0000
0000
0001
0000
0000
0000
0000
0000
0000
0000
0000
0000
0000
0000
0001
0000
0000
0000
0000
0000
0000
0000
0000
0000
0000
0000
0001
0000
0000
0000
0000
0000
0000
0000
0000
0000
0000
0000
1010
0000
0000
0000
0000
0000
0000
0000
0000
0000
0000
0000
0100
0000
0000
0000
0000
0000
0000
0000
0000
0000
0000
0000
1000
0000
0000
0000
0000
0000
0000
0000
0000
0000
0000
0000
0011
0000
0000
0000
0000
0000
0000
0000
0000
0000
0000
0000
,  // measure 22
0100
0000
0000
0001
0000
0000
1000
0000
0000
1000
0000
0000
4100
0000
0000
0000
0000
0000
3002
0000
0000
0000
0000
0000
1003
0000
0010
0000
1000
0000
0001
0000
0000
0001
0000
0000
1010
0000
0000
0100
0000
0000
1000
0000
0000
0011
0000
0000
,  // measure 23
0100
0000
0000
0001
0000
0000
1000
0000
0000
1000
0000
0000
0001
0000
1000
0000
0001
0000
0020
0000
0000
0030
0000
0000
M001
0000
0000
0000
0100
0000
0000
0000
0001
0000
0000
0010
0000
0000
0100
0000
0000
0000
1000
0000
0000
0001
0000
0000
,  // measure 24
1000
0000
0000
0010
0000
0000
0000
0100
0000
0000
0000
0010
0000
0000
1000
0000
0000
0000
0001
0000
0000
0010
0000
0000
0000
0100
0000
0000
0000
0010
0000
0001
0000
0100
0000
0001
0000
0010
0000
0100
0000
1000
0000
0001
0000
0100
0000
0000
,  // measure 25
M010
0000
1000
0000
1000
0000
1000
0000
0101
0000
0010
0000
0001
0000
1100
0000
0010
0000
1000
0000
0001
0000
0001
0000
1000
0001
0010
0001
1000
0100
0010
0001
,  // measure 26
0100
0001
0001
0001
1100
0010
1000
0101
0010
0001
1000
1000
4010
0000
3200
0000
,  // measure 27
0301
0000
0000
0100
0000
0000
0010
0000
0000
0001
0000
0000
1100
0000
0000
0010
0000
0000
1000
0000
0000
0101
0000
0000
0010
0000
0000
0001
0000
0000
1000
0000
0000
1000
0000
0000
0001
0000
1000
0000
0001
0000
0020
0000
0000
0030
0000
0000
,  // measure 28
M001
0000
0000
0000
0010
0000
0000
0000
0001
0000
0000
0100
0000
0000
0010
0000
0000
0000
1000
0000
0000
0001
0000
0000
1000
0000
0000
0100
0000
0000
0000
0010
0000
0000
0000
0100
0000
0000
1000
0000
0000
0000
0001
0000
0000
0100
0000
0000
,  // measure 29
0000
0010
0000
0000
0000
0100
0000
0001
0000
0010
0000
0001
0000
0100
0000
0010
0000
1000
0000
0001
0000
0010
0000
0000
M200
0000
0000
0000
0000
0000
0000
0000
0000
0000
0000
0000
0000
0000
0000
0000
0000
0000
0000
0000
0000
0000
0000
0000
,  // measure 30
0300
0000
0000
0000
,  // measure 31
0000
0000
0000
0000
0000
0000
0000
0000
0001
0200
0000
0320
0000
2030
0000
3002
,  // measure 32
0000
0023
0000
0230
0000
2300
0000
3002
0000
2003
0000
3020
0000
0230
0000
0302
,  // measure 33
0000
0023
0000
0230
0000
2300
0000
3001
1000
0020
0000
0230
0000
0302
0000
0023
,  // measure 34
0000
0230
0000
2300
0000
3002
0000
2003
0000
3020
0000
0230
0000
0302
0000
2003
,  // measure 35
0000
3200
0000
0320
0000
0032
0000
1003
0010
0200
0000
0302
0000
2003
0000
3200
,  // measure 36
0000
0320
0000
0032
0000
2003
0000
3020
0000
0230
0000
0302
0000
0023
0000
0130
,  // measure 37
1000
0000
0002
0000
0000
0M03
0000
0M00
0000
0M00
0000
0M00
0000
0M00
0000
0000
1010
0000
1000
0000
0000
0000
0011
0000
0001
0000
0000
0000
1100
0000
1000
0000
,  // measure 38
0001
0000
0000
0001
0000
0000
0100
0000
0000
0100
0000
0000
00M1
0000
1000
0000
0100
0000
0010
0000
0001
0000
1000
0000
0010
0000
0100
0000
0001
0000
10M0
0000
0000
0100
0000
0000
0000
0000
0000
1000
0000
0000
0010
0000
0000
0000
0000
0000
,  // measure 39
0100
0001
0010
0100
1000
1000
0004
0000
0000
0003
1001
1000
0000
0011
0001
0000
,  // measure 40
1100
0000
0000
1000
0000
0000
0001
0000
0000
0001
0000
0000
0100
0000
0000
0100
0000
0000
00M1
0000
1000
0000
0100
0000
0010
0000
0001
0000
1000
0000
0010
0000
0100
0000
0001
0000
1000
0000
0000
0000
0100
0000
0000
0000
1000
0000
0000
0010
,  // measure 41
0000
0000
0100
0000
0000
0000
0001
0000
0000
1000
0000
0000
0001
0000
0000
0010
0000
0000
0000
0100
0000
0000
0000
0010
0000
0000
0001
0000
0000
0000
1000
0000
0000
0010
0000
0000
0000
0100
0000
0000
0000
0010
0000
1000
0000
0100
0000
1000
,  // measure 42
0000
0010
0000
0100
0000
0001
0000
1000
0000
0100
0000
0000
M010
0000
0000
0000
0100
0000
1000
0000
0000
0000
0001
0000
0100
0000
0000
0000
0000
0000
0001
0000
0000
0000
1000
0000
0100
0000
0000
0000
M100
0000
0001
0000
0000
0000
0000
0000
,  // measure 43
4000
0000
0000
0000
0000
0000
0000
0000
0000
3000
0000
0000
1010
0000
0000
1000
0000
0000
0000
0000
0000
0011
0000
0000
0001
0000
0000
0000
0000
0000
1100
0000
0000
0000
1000
0000
0001
0000
0000
0000
0100
0000
0010
0000
0000
0000
0000
0000
,  // measure 44
0140
0000
0000
0000
0000
0000
0000
0000
0000
0000
0000
0000
0000
0000
0000
0000
0000
0000
0000
0000
0000
0030
0000
0000
2010
0000
0000
0000
0000
0000
3001
0000
0000
0000
1000
0000
0100
0000
0000
0000
M100
0000
0001
0000
0000
0000
0000
0000
,  // measure 45
1004
0203
0000
0000
,  // measure 46
0301
0000
0000
0000
0000
0000
0000
0000
1000
0000
0000
0000
0000
0000
0000
0000
0001
0000
0000
0000
0000
0000
0000
0000
0010
0000
0000
0000
0000
0000
0000
0000
0000
0000
0000
0000
0100
0000
0000
0000
0000
0000
0000
0000
0000
0000
0000
0000
1000
0000
0000
0000
0000
0000
0000
0000
0000
0000
0000
0000
0010
0000
0000
0000
0000
0000
0000
0000
0000
0000
0000
0000
1000
0000
0000
0000
0000
0000
0000
0000
0000
0000
0000
0000
0010
0000
0000
0000
0000
0000
0000
0000
0000
0000
0000
0000
0100
0000
0000
0000
0000
0000
0000
0000
0000
0000
0000
0000
0001
0000
0000
0000
0000
0000
0000
0000
0000
0000
0000
0000
1000
0000
0000
0000
0000
0000
0000
0000
0000
0000
0000
0000
0100
0000
0000
0000
0000
0000
0000
0000
0000
0000
0000
0000
0010
0000
0000
0000
0000
0000
0000
0000
0000
0000
0000
0000
0000
0001
0000
0000
0000
0000
0000
0000
0000
0000
0000
0000
0000
0000
0000
1000
0000
0000
0000
0000
0000
0000
0000
0000
0000
0000
0000
0000
0001
0000
0000
0000
0000
0000
0000
0000
,  // measure 47
0100
0000
0000
0000
0000
0100
0000
0000
200M
0000
0000
0000
3000
0000
0000
0000
0001
0000
0000
0000
1000
0000
0000
0000
1000
0000
0000
0000
1000
0000
0000
0000
0101
0000
0000
0000
0010
0000
0000
0000
0001
0000
0000
0000
1100
0000
0000
0000
0010
0000
0000
0000
1000
0000
0000
0000
0001
0000
0000
0000
0001
0000
0000
0000
,  // measure 48
0014
0000
0000
0000
0000
0000
2003
0000
0000
0000
0000
0000
3001
0000
0100
0000
0001
0000
1000
0000
0000
1000
0000
0000
0101
0000
0000
0010
0000
0000
0001
0000
0000
1100
0000
0000
0010
0000
0000
1000
0000
0000
0001
0000
0000
0001
0000
0000
,  // measure 49
1000
0000
0001
0000
1000
0000
0200
0000
0000
0300
0000
0000
100M
0000
0000
0000
0010
0000
0000
0000
1000
0000
0000
0100
0000
0000
0010
0000
0000
0000
0001
0000
0000
1000
0000
0000
0001
0000
0000
0100
0000
0000
0000
0010
0000
0000
0000
0100
,  // measure 50
0000
0000
0001
0000
0000
0000
1000
0000
0000
0100
0000
0000
0000
0010
0000
0000
0000
0100
0000
1000
0000
0010
0000
1000
0000
0100
0000
0010
0000
0001
0000
1000
0000
0010
0000
0000
010M
0000
0000
0001
0000
0000
0001
0000
0000
0001
0000
0000
,  // measure 51
1010
0000
0000
0000
0000
0000
0000
0000
0000
0000
0000
0000
0100
0000
0000
0000
0000
0000
0000
0000
0000
0000
0000
0000
1000
0000
0000
0000
0000
0000
0000
0000
0000
0000
0000
0000
0011
0000
0000
0000
0000
0000
0000
0000
0000
0000
0000
0000
0100
0000
0000
0000
0000
0000
0000
0000
0000
0000
0000
0000
0001
0000
0000
0000
0000
0000
0000
0000
0000
0000
0000
0000
1000
0000
0000
0000
0000
0000
0000
0000
0000
0000
0000
0000
1000
0000
0000
0000
0000
0000
0000
0000
0000
0000
0000
0000
0001
0000
0000
0000
0000
0000
1000
0000
0000
0000
0000
0000
0100
0000
0000
0000
0000
0000
1000
0000
0000
0000
0000
0000
0001
0000
0000
0000
0000
0000
0000
0000
0100
0000
0000
0000
0000
0000
0000
0000
0010
0000
0000
0000
0000
0000
0000
0000
1000
0000
0000
0000
0000
0000
0000
0000
0000
0000
0000
0000
0001
0000
0000
0000
0000
0000
0000
0000
0000
0000
0000
0000
0001
0000
0000
0000
0000
0000
0000
0000
0000
0000
0000
0000
0001
0000
0000
0000
0000
0000
0000
0000
0000
0000
0000
0000
,  // measure 52
1100
0010
1000
0101
0010
0001
1000
1000
4010
0000
3200
0000
0301
0100
0010
0001
,  // measure 53
1100
0000
0000
0010
0000
0000
1000
0000
0000
0101
0000
0000
0010
0000
0000
0001
0000
0000
1000
0000
0000
1000
0000
0000
0001
0000
1000
0000
0001
0000
0020
0000
0000
0030
0000
0000
M001
0000
0000
0000
0010
0000
0000
0000
0001
0000
0000
0100
,  // measure 54
0000
0000
0010
0000
0000
0000
1000
0000
0000
0001
0000
0000
1000
0000
0000
0100
0000
0000
0000
0010
0000
0000
0000
0100
0000
0000
1000
0000
0000
0000
0001
0000
0000
0100
0000
0000
0000
0010
0000
0000
0000
0100
0000
0001
0000
0010
0000
0001
,  // measure 55
0000
1000
0000
0100
0000
0010
0000
0000
0001
0000
0000
0000
2000
0000
0000
0000
0000
0000
0000
0000
0000
0000
0000
0000
0000
0000
0000
0000
0000
0000
3000
0000
0000
0000
0000
0000
0000
0000
0000
0000
0000
0000
0000
0000
0000
0000
0000
0000
,  // measure 56
00M0
0000
0000
0000
;

//---------------dance-single - Feraligatr----------------
#NOTEDATA:;
#CHARTNAME:Feraligatr SH;
#STEPSTYPE:dance-single;
#DESCRIPTION:Feraligatr;
#CHARTSTYLE:;
#DIFFICULTY:Hard;
#METER:10;
#RADARVALUES:0.494727,0.648909,0.194631,0.100671,0.721476,516.000000,487.000000,29.000000,15.000000,0.000000,12.000000,35.000000,0.000000,0.000000,0.494727,0.648909,0.194631,0.100671,0.721476,516.000000,487.000000,29.000000,15.000000,0.000000,12.000000,35.000000,0.000000,0.000000;
#CREDIT:Feraligatr;
#DISPLAYBPM:86.000000:129.000000;
#NOTES:
0000
0000
0000
0000
,
0000
0000
0000
0000
,
0000
0000
0000
0000
,
0000
0000
0000
0000
,
2001
0000
0000
0000
0000
0000
0010
0000
0000
0000
0000
0000
0100
0000
0000
0000
0000
3001
0010
0000
0000
0000
0000
0000
,
0100
1000
0010
1000
0100
1000
0010
0000
,
1001
1002
0100
0000
1000
0000
0103
0000
,
0001
0000
0000
0100
,
1001
0000
0000
0000
,
0000
0000
0000
0000
,
1000
0010
0100
0001
1000
0001
0010
0100
0010
0001
1000
0010
1000
0001
0010
0100
,
1000
0001
0100
0001
1000
0100
0010
0100
1000
0002
0000
0003
0000
0000
0000
0000
,
1000
0000
0000
0010
0000
0000
0100
0000
0000
0001
0000
0000
0010
0000
0000
0100
0000
0000
0010
0000
0000
0001
0000
0000
1000
0000
0000
0010
0000
0000
0100
0000
0000
0001
0000
0000
0010
0000
0100
0000
1000
0000
0001
0000
0000
0000
0000
0000
,
0100
0010
0100
0001
0010
0100
1000
0001
0100
0001
1000
0100
0004
0000
0403
0000
,
1300
0000
0000
0000
0000
0000
0100
0000
0000
1000
0000
0000
0010
0000
0000
0100
0000
0000
0001
0000
0000
1000
0000
0000
0001
0000
0000
0100
0000
0000
0010
0000
0000
1000
0000
0000
0100
0000
0010
0000
0001
0000
1000
0000
0000
0000
0000
0000
,
0004
0000
0000
0000
0000
0000
1100
0000
0003
4000
0000
0000
0000
0000
0000
0000
,
0000
0000
3102
0000
0000
0000
0000
0000
2003
0000
0001
0000
3100
0010
0001
1000
,
0001
0000
0000
0000
0100
0000
0000
0000
0010
0000
0000
0000
1000
0000
0001
0000
1000
0000
0100
0000
0000
0000
0000
0000
1000
0000
0000
0001
0000
0000
0100
0000
0000
0001
0000
0000
0010
0000
0000
0100
0000
0000
1000
0000
0000
0001
0000
0000
,
0100
0000
0000
0010
0000
0000
1000
0000
0000
0001
0000
0000
0010
0000
0100
0000
1000
0000
0001
0000
0000
0000
0000
0000
0110
0000
0000
0000
0000
0000
1000
0000
0000
0001
0000
0000
0100
0000
0000
0010
0000
0000
1000
0000
0000
0001
0000
0000
,
0010
0000
0100
0000
1000
0000
0001
1000
0010
0100
0000
0000
0004
0000
0000
0000
0000
0000
0000
0000
0000
0000
0000
0000
,
0043
0000
0000
0000
0000
0000
0000
0000
0000
0000
0000
0000
0130
0000
1000
0000
0001
0000
0400
0000
0000
0340
0000
0000
1030
0000
0000
0000
0000
0000
0000
0000
0000
0000
0000
0000
0000
0000
0000
0000
0000
0000
0000
0000
0000
0000
0000
0000
,
0000
0000
0000
0000
1001
0000
0000
0000
1000
0100
0010
0001
0100
0010
1000
0100
,
0010
0001
1000
0010
0004
0000
0043
0000
2030
0000
3100
1000
0010
0100
0001
0010
,
0100
0000
0000
1000
0000
0000
0001
0000
0000
0100
0000
0000
0001
0000
1000
0000
0100
0000
0010
0000
0000
0000
0000
0000
0004
0000
0000
0000
0000
0000
0000
0000
0000
0000
0000
0000
0000
0000
0000
0000
0000
0000
1100
0000
0000
0000
0000
0000
,
0003
4000
0000
0000
0000
0000
0000
0000
0000
0000
3012
0000
0000
0000
0000
0000
,
1003
0000
0100
0000
0010
0000
0001
0000
0100
0000
0010
0000
1000
0000
0100
0000
1000
0000
0001
0000
0100
0000
0001
0000
0010
0100
1000
0001
1000
0010
0100
0001
,
1000
0100
0010
0001
0100
0010
1000
0100
0010
0001
1000
0010
0004
0000
0043
0000
,
2030
0000
0000
0000
0000
0000
3100
0000
0000
1000
0000
0000
0010
0000
0000
0100
0000
0000
0001
0000
0000
0010
0000
0000
0100
0000
0000
0010
0000
0000
0001
0000
0000
1000
0000
0000
0001
0000
0100
0000
0001
0000
1000
0000
0000
0000
0000
0000
,
0004
0000
0000
0000
0000
0000
1010
0000
0003
4000
0000
0000
0000
0000
0000
0000
,
0000
0000
3102
0000
0000
1000
0103
0010
0001
0000
0000
0000
0000
0000
0000
0000
,
0000
0000
0000
0000
,
0000
0000
0000
0000
0000
0000
0000
0000
1000
0100
1000
0001
0100
0010
1000
0001
,
0010
0100
1000
0001
0100
0001
1000
0100
0010
0001
1000
0010
0100
0010
1000
0001
,
0010
0100
1000
0001
1000
0010
0100
0001
0010
0100
1000
0001
0100
0010
1000
0001
,
1000
0100
0010
0100
1000
0001
0100
0010
1000
0001
0010
0100
1000
0001
0100
0001
,
1000
0100
0010
0001
1000
0010
0100
0001
0010
0100
0010
0001
1000
0001
0100
0010
,
1000
0001
0010
0100
1000
0001
0100
0001
1000
0100
0010
0001
1000
0010
0100
0001
,
1000
0100
0000
0000
0000
0000
0000
0000
0011
1000
0000
1000
1010
0000
0001
0100
,
0010
1000
0100
0100
4000
0000
0000
0000
0000
3000
1100
0001
0000
0001
0101
0000
,
0100
0010
1000
0001
0010
0100
4000
0000
0000
3000
1100
1100
0000
0001
0101
0000
,
0001
1000
0100
1000
0001
0100
0040
0000
0000
0000
0000
0000
4030
0000
0000
0000
,
0000
0000
0011
0000
3000
0004
0000
0000
0000
0000
0000
0000
0000
0000
2103
0000
,
0000
0000
0000
0000
3002
0000
0010
0000
1003
0000
0001
0100
0010
1000
0100
0000
,
0040
0000
0000
0030
0011
1000
0000
1000
1010
0000
0001
0100
0010
1000
0100
0000
,
0040
0000
0000
0000
0000
0000
0000
0000
0031
0000
1000
0010
0100
0001
0010
0000
,
0400
0000
0000
0300
4100
0000
0000
0000
0000
0000
0000
0000
0000
0000
0000
0000
,
3001
0000
0100
0000
0001
0000
4000
0000
0000
3400
0000
0000
0310
0000
0000
0000
0000
0000
0000
0000
0000
0000
0000
0000
0000
0000
0000
0000
0000
0000
0000
0000
0000
0000
0000
0000
0000
0000
0000
0000
0000
0000
0000
0000
0000
0000
0000
0000
,
1001
0000
0000
0000
1000
0010
0100
0001
0010
0100
1000
0010
0100
0001
1000
0100
,
0004
0000
0403
0000
2300
0000
3010
1000
0100
0010
0001
0100
0010
1000
0001
1000
,
0100
0000
0010
0000
0001
0000
1000
0000
0000
0000
0000
0000
0004
0000
0000
0000
0000
0000
0000
0000
0000
0000
0000
0000
0000
0000
0000
0000
0000
0000
1100
0000
0000
0000
0000
0000
0003
0000
0000
4000
0000
0000
0000
0000
0000
0000
0000
0000
,
0000
0000
0000
0000
0000
0000
3102
0000
0000
0000
0000
0000
1003
0001
0100
0001
,
0010
0000
0000
0000
0000
0000
0000
0000
0000
0000
0000
0000
0100
0000
0000
0000
0000
0000
0000
0000
0000
0000
0000
0000
1000
0000
0000
0000
0000
0000
0000
0000
0000
0000
0000
0000
0010
0000
0000
0000
0000
0000
0000
0000
0000
0000
0000
0000
0100
0000
0000
0000
0000
0000
0000
0000
0000
0000
0000
0000
0001
0000
0000
0000
0000
0000
0000
0000
0000
0000
0000
0000
1000
0000
0000
0000
0000
0000
0000
0000
0000
0000
0000
0000
0100
0000
0000
0000
0000
0000
0000
0000
0000
0000
0000
0000
0010
0000
0000
0000
0000
0000
0001
0000
0000
0000
0000
0000
1000
0000
0000
0000
0000
0000
0001
0000
0000
0000
0000
0000
0100
0000
0000
0000
0000
0000
0000
0000
0010
0000
0000
0000
0000
0000
0000
0000
1000
0000
0000
0000
0000
0000
0000
0000
0001
0000
0000
0000
0000
0000
0000
0000
0000
0000
0000
0000
0010
0000
0000
0000
0000
0000
0000
0000
0000
0000
0000
0000
0100
0000
0000
0000
0000
0000
0000
0000
0000
0000
0000
0000
1000
0000
0000
0000
0000
0000
0000
0000
0000
0000
0000
0000
,
0010
0100
0001
0010
0100
1000
0001
0100
4000
0000
3400
0000
0302
0000
0013
0001
,
0100
0000
0000
0010
0000
0000
1000
0000
0000
0100
0000
0000
0010
0000
0000
0001
0000
0000
1000
0000
0000
0001
0000
0000
0100
0000
0010
0000
1000
0000
0001
0000
0000
0000
0000
0000
4000
0000
0000
0000
0000
0000
0000
0000
0000
0000
0000
0000
,
0000
0000
0011
0000
3000
0004
0000
0000
0000
0000
0000
0000
0000
0000
2013
0000
,
0000
3001
0010
0100
1000
0000
0000
0000
0000
0000
0000
0000
0000
0000
0000
0000
;

//---------------dance-single - Feraligatr----------------
#NOTEDATA:;
#CHARTNAME:Feraligatr SM;
#STEPSTYPE:dance-single;
#DESCRIPTION:Feraligatr;
#CHARTSTYLE:;
#DIFFICULTY:Medium;
#METER:7;
#RADARVALUES:0.332694,0.463507,0.335570,0.268456,0.194631,347.000000,297.000000,50.000000,40.000000,0.000000,0.000000,4.000000,0.000000,0.000000,0.332694,0.463507,0.335570,0.268456,0.194631,347.000000,297.000000,50.000000,40.000000,0.000000,0.000000,4.000000,0.000000,0.000000;
#CREDIT:Feraligatr;
#DISPLAYBPM:86.000000:129.000000;
#NOTES:
0000
0000
0000
0000
,
0000
0000
0000
0000
,
0000
0000
0000
0000
,
0000
0000
0000
0000
,
1000
0010
0100
0010
1000
0010
0100
0000
,
0001
0010
0100
0010
0001
0010
0100
0000
,
1000
1000
0001
1000
0010
1000
0001
0000
,
0100
0000
0000
0001
,
0110
0000
0000
0000
,
0000
0000
0000
0000
,
1000
0100
1000
0000
0001
0100
0001
0000
1000
0100
1000
0000
0001
0100
0001
0000
,
1000
0010
1000
0000
0001
0010
0001
0000
1000
0010
0000
0000
0000
0000
0000
0000
,
1000
0010
0101
1000
0100
0010
0012
0003
,
1000
0001
0101
0100
0010
1000
0002
0000
,
0013
0100
1100
0001
0100
0010
2010
3000
,
0002
0000
0000
0000
0000
0000
1000
0000
0003
2000
0000
0000
0000
0000
0000
0000
,
0000
3200
0000
0000
0310
0001
1001
1000
,
0010
0100
0102
0003
1000
0100
0011
1000
,
0001
0100
0120
0030
1000
0001
0011
1000
,
0010
0100
0102
0003
4000
0000
0000
0000
,
0000
3002
1003
0000
,
0000
0000
0000
0000
0110
0000
0000
0000
1000
0000
0100
0000
0011
0000
0000
0011
,
0000
0000
1000
0000
1002
0000
0000
0000
0103
0000
0010
0000
1010
0000
0000
1010
,
0000
1000
1002
0003
2000
0000
0000
0010
,
3000
0020
0000
0000
0000
0000
0000
0000
0000
0000
0230
0000
0000
0000
0000
0000
,
0301
0000
1000
0000
1100
0000
0000
1100
0000
0000
0100
0000
0140
0000
0000
0000
,
0031
0000
1000
0000
1010
0000
0000
1010
0000
0000
0001
0000
2001
0000
0000
0000
,
3100
0000
0010
0000
0011
0000
0000
0011
0000
0000
1000
0000
1020
0000
0030
0000
,
0020
0000
0000
0000
0000
0000
0100
0000
0030
0200
0000
0000
0000
0000
0000
0000
,
0000
0302
0000
0000
1003
0000
0000
0000
,
0000
0000
0000
0000
,
0000
0000
0000
0000
0000
0000
0000
0000
1000
0100
1000
0000
0001
0100
0001
0000
,
1000
0100
1000
0000
0001
0100
0001
0000
1000
0010
1000
0000
0001
0010
0001
0000
,
1000
0010
1000
0000
0001
0010
0001
0000
1000
0010
0100
0000
0001
1000
0100
0000
,
0010
0001
1000
0000
0010
0100
0001
0000
1000
0100
0010
0000
0100
1000
0001
0000
,
0100
0010
1000
0000
0001
0010
0100
0000
1000
0001
0100
0000
0001
1000
0100
0000
,
0010
0001
1000
0000
0010
0100
0001
0000
1000
0100
0010
0000
0001
1000
0010
0000
,
0100
0001
0000
0000
0000
0000
0000
0000
1000
0010
0000
0010
0100
0000
0001
1000
,
0001
0010
0100
0000
2100
0000
0000
0000
0000
0000
3001
0100
0000
0100
0010
0000
,
1000
0001
1000
0100
0010
0000
0002
0000
0000
0000
1003
0010
0000
0010
0100
0000
,
0001
1000
0100
1000
0001
0000
0200
0000
0000
0000
0000
0000
0320
0000
0000
0000
,
0000
0000
1000
0000
0030
2000
0000
0000
0000
0000
0000
0000
0000
0000
3002
0000
,
0000
0000
0013
0100
1100
1000
0001
0100
,
0201
0000
0310
1000
1001
0001
0010
0100
,
2100
0000
0000
0000
3001
1000
0010
0100
,
0102
4003
0000
0000
,
3200
0310
0000
0000
,
0110
0000
0000
0000
0001
0000
0100
0000
1010
0000
0000
1010
0000
0000
0001
0000
,
2001
0000
0000
0000
3100
0000
0010
0000
0011
0000
0000
0011
0000
0000
0001
0000
,
2001
0000
3000
0000
0002
0000
0000
0000
0000
0000
0010
0000
0003
0020
0000
0000
,
0000
0000
0000
0230
0000
0000
1300
0001
,
0101
0000
0000
0101
0000
0000
0100
0000
0140
0000
0000
0000
1030
0000
0001
0000
,
0011
0000
0000
0011
0000
0000
1000
0000
1002
0000
0000
0000
0103
0000
0010
0000
,
1010
0000
0000
1010
0000
0000
0001
0000
0021
0000
0030
0000
0020
0000
0000
0000
,
0000
0000
0100
0000
0030
0200
0000
0000
0000
0000
0000
0000
0000
0000
2300
0000
,
0000
3001
0000
0000
;

//---------------dance-single - Feraligatr----------------
#NOTEDATA:;
#CHARTNAME:Feraligatr SE;
#STEPSTYPE:dance-single;
#DESCRIPTION:Feraligatr;
#CHARTSTYLE:;
#DIFFICULTY:Easy;
#METER:5;
#RADARVALUES:0.204219,0.315185,0.067114,0.107383,0.053691,213.000000,203.000000,10.000000,16.000000,0.000000,0.000000,0.000000,0.000000,0.000000,0.204219,0.315185,0.067114,0.107383,0.053691,213.000000,203.000000,10.000000,16.000000,0.000000,0.000000,0.000000,0.000000,0.000000;
#CREDIT:Feraligatr;
#DISPLAYBPM:86.000000:129.000000;
#NOTES:
0000
0000
0000
0000
,
0000
0000
0000
0000
,
0000
0000
0000
0000
,
0000
0000
0000
0000
,
1000
0010
1000
0000
0001
0010
0100
0000
,
1000
0001
0100
0000
0010
1000
0001
0000
,
0010
0100
1000
0000
0001
0100
0010
0000
,
1000
0000
0000
0001
,
1001
0000
0000
0000
,
0000
0000
0000
0000
,
1000
0010
1000
0010
0100
0001
0100
0001
,
1000
0100
1000
0100
0010
0000
0000
0000
,
1001
0000
1000
0000
0010
0100
0001
0000
,
1000
0000
0100
0000
0010
0100
1000
0000
,
0001
0000
0100
0000
0010
1000
0001
0000
,
0020
0000
0000
0000
0000
0000
0000
0000
0030
0200
0000
0000
0000
0000
0000
0000
,
0000
0300
0000
0000
1000
0001
0000
0100
,
0000
0010
0000
1000
0001
0010
0000
0100
,
0000
1000
0000
0000
0001
0100
0000
0010
,
0000
1000
0000
0001
0020
0000
0000
0000
,
0000
0130
0000
0000
,
0000
0000
0000
0000
0000
0000
0000
0000
1000
0000
0001
0000
0100
0000
0000
0100
,
0000
0000
0010
0000
1000
0000
0000
0000
0001
0000
0010
0000
0100
0000
0000
0100
,
0000
1000
0001
0000
0200
0000
0000
0000
,
0300
0020
0000
0000
0000
0000
0000
0000
0000
0000
0030
0000
0000
0000
0000
0000
,
1000
0000
0001
0000
0010
0000
0000
0010
0000
0000
0100
0000
1000
0000
0000
0000
,
0001
0000
0100
0000
0010
0000
0000
0010
0000
0000
1000
0000
0001
0000
0000
0000
,
0010
0000
0000
0000
0100
0000
0000
0100
0000
0000
1000
0000
0001
0000
0000
0000
,
0200
0000
0000
0000
0000
0000
0000
0000
0300
0020
0000
0000
0000
0000
0000
0000
,
0000
0030
0000
0000
1001
0000
0000
0000
,
0000
0000
0000
0000
,
0000
0000
1000
0100
,
0010
0001
1000
0010
,
0100
0000
0001
0000
1000
0100
1000
0100
,
0010
0001
0010
0001
1000
0010
1000
0010
,
0100
0001
0100
0001
1000
0100
0010
0001
,
1000
0010
0100
0001
0010
0100
1000
0010
,
0100
0000
1001
0110
,
1000
0001
0010
0000
0000
0110
0000
1001
,
0000
0001
0100
0010
0000
1001
0000
0110
,
0000
1000
0100
0020
0000
0000
0032
0000
,
0000
0000
0000
0000
0003
0200
0000
0000
0000
0000
0000
0000
0000
0000
0300
0000
,
0000
0000
0001
1000
0000
0100
0000
0010
,
0000
0000
0001
1000
0000
0010
0000
0100
,
0002
0000
0000
0000
1003
0100
0000
0010
,
0000
0002
0000
0000
,
1003
0000
0000
0000
,
0000
0000
0000
0000
0001
0000
1000
0000
0010
0000
0000
0010
0000
0000
0100
0000
,
0001
0000
0000
0000
1000
0000
0100
0000
0010
0000
0000
0010
0000
0000
0001
0000
,
1000
0000
0000
0000
0020
0000
0000
0000
0000
0000
0000
0000
0030
0200
0000
0000
,
0000
0000
0000
0300
0000
0000
0001
1000
,
0100
0000
0000
0100
0000
0000
0010
0000
0001
0000
0000
0000
1000
0000
0010
0000
,
0100
0000
0000
0100
0000
0000
0001
0000
1000
0000
0000
0000
0100
0000
0000
0000
,
0010
0000
0000
0010
0000
0000
0001
0000
1000
0000
0000
0000
0020
0000
0000
0000
,
0000
0000
0000
0000
0030
0200
0000
0000
0000
0000
0000
0000
0000
0000
0300
0000
,
0000
1001
0000
0000
;

//---------------dance-single - Feraligatr----------------
#NOTEDATA:;
#CHARTNAME:Feraligatr SN;
#STEPSTYPE:dance-single;
#DESCRIPTION:Feraligatr;
#CHARTSTYLE:;
#DIFFICULTY:Beginner;
#METER:1;
#RADARVALUES:0.091083,0.148322,0.006711,0.046980,0.000000,95.000000,94.000000,1.000000,7.000000,0.000000,0.000000,0.000000,0.000000,0.000000,0.091083,0.148322,0.006711,0.046980,0.000000,95.000000,94.000000,1.000000,7.000000,0.000000,0.000000,0.000000,0.000000,0.000000;
#CREDIT:Feraligatr;
#DISPLAYBPM:86.000000:129.000000;
#NOTES:
0000
0000
0000
0000
,
0000
0000
0000
0000
,
0000
0000
0000
0000
,
0000
0000
0000
0000
,
1000
0000
0010
0000
,
0100
0000
0001
0000
,
1000
0000
0100
0000
,
0010
0000
0000
0000
,
0001
0000
0000
0000
,
0000
0000
0000
0000
,
1000
0010
1000
0000
,
0001
0010
0001
0000
,
1001
0000
1000
0000
,
0010
0000
0100
0000
,
0001
0000
1000
0000
,
0200
0000
0000
0000
,
0000
0000
1300
0000
,
0001
0000
0100
0000
,
0010
0000
1000
0000
,
0001
0000
0010
0000
,
0000
0000
0000
0000
,
0000
0000
1000
0100
,
1000
0000
0001
0100
,
0001
0000
0020
0000
,
0000
0000
0000
0000
,
0130
1000
0100
0000
,
1000
0001
1000
0000
,
0010
0100
0010
0000
,
2000
0000
0000
0000
,
0000
0000
3000
0000
,
0000
0000
0000
0000
,
0000
0000
0001
0000
,
0100
0000
0010
0000
,
1000
0000
0001
0010
,
0001
0000
1000
0010
,
1000
0000
0001
0010
,
0001
0010
0001
0010
,
0100
0000
1000
0000
,
0010
0000
0000
0000
0000
0100
0000
0000
,
0000
0001
0000
0000
0000
1000
0000
0000
,
0000
0100
0000
0000
0000
0000
0020
0000
,
0000
0000
0000
0000
,
0000
0130
0000
1000
,
0000
0001
0000
0100
,
0000
0010
0000
1000
,
0000
0002
0000
0000
,
0003
0000
0000
0000
,
0000
1000
0010
1000
,
0000
0001
0010
0001
,
0000
2000
0000
0000
,
0000
0000
0000
3010
,
0100
0001
0000
1000
,
0100
1000
0000
0001
,
0100
0010
0000
2000
,
0000
0000
0000
0000
,
0000
3001
0000
0000
;
