#TITLE:Shit;
#SUBTITLE:;
#ARTIST:Neil Cicierega;
#TITLETRANSLIT:;
#SUBTITLETRANSLIT:;
#ARTISTTRANSLIT:;
#GENRE:;
#CREDIT:T. Li;
#BANNER:Shit-bn.png;
#BACKGROUND:Shit-bg.png;
#LYRICSPATH:;
#CDTITLE:loodeecdtitle.png;
#MUSIC:Shit.ogg;
#OFFSET:-0.426000;
#SAMPLESTART:67.762001;
#SAMPLELENGTH:25.281000;
#SELECTABLE:YES;
#BPMS:0.000000=114.000000
,204.000000=57.000000
,206.000000=114.000000
;
#STOPS:
;
#BGCHANGES:;
#KEYSOUNDS:;
#ATTACKS:;

//---------------dance-single - Loodee----------------
#NOTES:
     dance-single:
     Loodee:
     Challenge:
     11:
     0.699550,0.767229,0.506150,0.579328,0.676899,803.000000,716.000000,83.000000,95.000000,22.000000,12.000000,0.699550,0.767229,0.506150,0.579328,0.676899,803.000000,716.000000,83.000000,95.000000,22.000000,12.000000:
0000
0000
0000
0000
,
0000
0000
0000
0000
,
0000
0000
0000
0000
,
0000
0000
0000
0000
,
1100
0000
0010
0000
0001
0000
1100
0000
1000
0000
1001
0000
0001
0100
0000
0000
,
0101
0000
0010
0000
1000
0000
0101
0000
0001
0000
1001
0000
1000
0100
0000
0000
,
1100
0000
0010
0000
0001
0000
1100
0000
1000
0000
1001
0000
0001
0100
0000
0000
,
0210
0000
0302
2003
3000
0002
0023
0000
,
1030
0010
0100
1000
0001
0000
0100
0010
1000
0001
1000
0001
0010
0000
0001
0000
,
0100
1000
0100
0010
1000
0000
0001
1000
0100
0010
0100
0010
0002
0000
0003
0100
,
0010
0001
0010
1000
0010
0000
0100
0001
1000
0100
1000
0100
0010
0000
0100
0000
,
0010
1000
0010
0001
1000
0000
0001
0100
0010
1000
0010
1000
0001
0010
0100
1000
,
0040
0000
0000
0000
0130
0001
0010
0100
0040
0000
0000
0000
0130
0001
0100
1000
,
0001
0100
0001
0010
0001
0100
0010
1000
0100
1000
0010
0100
0010
0001
0010
0100
,
0040
1000
0000
1030
0001
0010
0001
0010
0400
0000
0000
0000
0310
1000
0010
0100
,
1000
0001
0100
0000
0100
0010
1000
0001
1000
0010
1000
0100
1000
0100
0010
0100
,
0001
M000
0001
0000
0010
0000
0100
0000
0001
M000
0001
0000
0010
0000
0100
0000
0001
M000
0001
0000
0010
0000
0100
0000
0010
0000
0001
0000
0100
0000
1000
0000
,
0100
0010
0100
1000
0100
0010
1000
0001
1000
0010
1000
0100
0010
1000
0010
0100
,
0010
0001
1000
0001
1000
1000
0010
0010
1000
1000
0001
0001
0010
0100
1000
0001
,
0100
0100
0001
0001
1000
0100
0010
0100
1000
1000
0010
0100
1000
0100
0001
1000
,
0100
00M0
0100
0000
0100
0000
0100
0000
0001
0000
0010
0000
0100
0000
1000
0000
0010
0M00
0010
0000
0001
0000
0000
0000
0102
0000
0000
0000
0000
0000
0000
0000
,
0103
00M0
0100
0000
0100
0000
0100
0000
1000
0000
0010
0000
0100
0000
0001
0000
0010
0M00
0010
0000
1000
0000
0000
0000
1200
0000
0000
0000
0000
0000
0000
0000
,
0310
000M
0010
0000
0010
0000
0010
0000
1000
0000
0100
0000
0010
0000
0001
0000
0100
00M0
0100
0000
1000
0000
0000
0000
1020
0000
0000
0000
0032
0000
0000
0000
,
2003
3020
0230
0302
2003
3200
0302
0013
,
0110
0000
0000
0100
0000
1000
0001
0000
1000
0010
0000
0000
0100
0000
0000
1000
0000
0000
0100
0000
0000
0001
0000
0000
,
0011
0000
0000
0010
0000
0100
1000
0000
0001
1000
0000
0000
0010
0000
0000
0100
0000
0000
0001
0000
0000
0010
0000
0000
,
0110
0000
0000
0100
0000
0010
0001
0000
1000
0001
0000
0000
1000
0000
0000
1000
0000
0000
0010
0000
0000
0001
0000
0000
,
0110
0000
0000
0000
0000
0000
0100
0000
0000
0000
0001
0000
1000
0000
0000
0000
0001
0000
0010
0000
0000
0000
0000
0000
0110
0000
0000
0000
0000
0000
0001
0000
0000
0000
0000
0000
1001
0000
0000
1000
0000
0000
0010
0000
0000
0000
0000
0000
,
0101
0000
0000
0001
0000
1000
0100
0000
0010
0100
0000
0000
0010
0000
0000
1000
0000
0000
0010
0000
0000
0001
0000
0000
,
0101
0000
0000
0100
0000
0001
1000
0000
0001
0010
0000
0000
0100
0000
0000
0010
0000
0000
0100
0000
0000
1000
0000
0000
,
1010
0000
0000
0010
0000
0100
0001
0000
1000
0001
0000
0000
0010
0000
0000
0010
0000
0000
0100
0000
0000
0001
0000
0000
,
0110
1000
1001
0010
1001
0010
1001
0010
,
1111
0000
1000
0000
0200
0000
0310
0001
1000
0010
0100
0000
0101
0000
0110
0000
,
1010
0000
1000
0000
0002
0000
0013
0100
1000
0000
1010
0000
0210
0000
0001
0000
,
0310
0000
1000
0100
0020
0000
0130
0000
0002
0000
0103
0000
0010
0001
0100
0000
,
2000
0000
3100
0000
0002
0000
0013
0000
0011
0000
0010
0100
0002
0000
0103
0000
,
1100
0000
1000
0000
0020
0000
0130
0001
1000
0001
0010
0000
0110
0000
1100
0000
,
1001
0000
0001
0000
0200
0000
0310
1000
0001
0000
0011
0000
0120
0000
0001
0000
,
0130
0000
1000
0001
0100
0000
0010
0000
0002
0000
0013
0000
1000
0001
0010
0000
,
2000
3010
0110
0002
0100
0103
2000
3200
,
0310
0000
1000
0001
1000
0000
0100
0000
0010
0000
0020
0000
0000
0000
0031
0000
,
1000
0001
0100
0010
1000
1010
0110
1001
,
0011
0000
0001
1000
0001
0000
0010
0000
1000
0000
0010
0000
0200
0000
1000
0000
,
1300
0000
0001
0100
0010
0000
0100
0000
0002
0000
1000
0000
0100
0000
1003
0000
,
1100
0010
0100
0010
0001
0200
0000
0310
,
1000
0100
0010
0010
0001
1001
1010
0110
,
1001
0000
0001
0000
1000
0000
0100
0020
0000
0000
0130
0000
1000
0000
0001
0000
,
0100
0000
0000
0010
0000
0000
2000
0000
0010
0000
0000
0000
3020
0000
0000
0000
,
0031
0010
0100
0001
1000
0000
0100
0010
0001
0100
0001
0010
0100
0000
0010
0000
,
0100
0001
0100
1000
0001
0000
1000
0010
0100
0001
0010
0001
1000
0010
0100
0010
,
0001
M000
0001
0000
0100
0000
0010
0000
0001
M000
0001
0000
0100
0000
0010
0000
0001
M000
0001
0000
0100
0000
0010
0000
1000
0000
0001
0000
1000
0000
0001
0000
,
0M20
0000
0000
0230
0000
0000
0320
0000
0000
0032
0000
0000
1003
0000
0010
0000
M100
0000
0001
0000
0100
0000
0001
0000
0010
0000
0100
0000
0010
0000
2000
0000
,
0000
3020
0000
0032
0000
0103
0010
0000
1010
0000
1000
0001
1000
0001
0100
0010
,
0100
2000
0100
3000
0110
0000
0001
0000
1000
0100
1000
0100
0010
0100
0010
2000
,
0000
3020
0000
0130
0010
0001
0100
0010
1000
0001
0010
0100
2000
0000
3010
0200
,
0000
0000
0301
0000
1000
0000
0001
0000
0010
0M00
0010
0000
0010
0000
0010
0000
2100
0000
0000
0000
3001
0000
0000
0000
0020
0000
0000
0000
0130
0000
0010
0000
,
0001
1000
0010
0000
0110
0000
0101
0000
1001
0000
0001
0000
0200
0000
0310
1000
,
0100
00M0
0100
0000
0001
0000
0000
0000
0021
0000
0000
0000
0100
0000
0000
0000
0130
0000
0000
0000
1000
0000
0001
0000
0010
0000
0M00
0000
0010
0000
0000
0000
,
2000
3001
1000
0010
0002
0013
0200
0301
,
0011
0000
0010
0100
0002
0000
0103
0000
1100
0000
1000
0000
0002
0000
0103
0010
,
1000
0001
1000
0000
1100
0000
0110
0000
0011
0000
0001
0000
0200
0000
0310
0100
,
1000
0100
0010
1000
0001
0010
0001
0010
0200
0000
1300
0001
0100
00M0
0100
0000
,
2000
0000
3100
0000
0010
0001
0010
0000
2000
0000
3010
0000
0011
0000
0002
0000
,
0203
0000
0310
0100
2000
0000
3100
0000
0111
0000
0001
0000
1001
0000
1000
0000
,
0010
0010
0100
0111
0000
0002
1103
0002
,
1103
0000
0010
0100
2000
0000
3200
0000
0301
0000
0020
0000
0131
0000
0020
0000
,
0131
1000
0001
0100
0010
0000
0010
1000
0001
0010
0001
0010
0100
0000
1000
0000
,
1010
0000
0010
0100
2000
0000
3100
0000
0101
0000
0020
0000
1130
0000
0020
0000
,
1130
0002
1013
0010
0100
0020
0131
0020
,
0131
0000
0000
0000
0010
0000
0100
0000
0002
0000
0000
0000
0103
0000
0000
0000
1100
0000
0000
0000
2002
0000
0000
3003
2020
0000
0000
3030
2002
0000
0000
3003
,
2020
0000
0000
3030
2002
0000
0000
3003
0011
0000
0010
0000
0100
0000
0000
0000
1000
0000
0000
0000
0020
0000
0000
0000
1030
0000
0000
0000
0002
0000
0000
0000
,
1003
0000
0100
0010
0002
0000
0020
0000
0000
0000
0000
0000
0000
0000
0000
0000
,
0000
0000
0000
0000
0000
0000
0000
0033
0000
0000
0000
0000
0000
0000
0000
0000
,
0000
0000
0000
0000
,
0000
0000
0000
0000
,
0000
0000
0000
MM00
0000
0000
0000
0000
0000
0000
0000
0000
0000
0000
0000
0000
0000
0000
0000
0000
0000
0000
0000
0000
0000
0000
0000
0000
0000
0000
0000
0000
,
0000
MM00
0000
0000
;

//---------------dance-single - Loodee----------------
#NOTES:
     dance-single:
     Loodee:
     Hard:
     9:
     0.543610,0.597890,0.323204,0.335401,0.298811,624.000000,571.000000,53.000000,55.000000,0.000000,0.000000,0.543610,0.597890,0.323204,0.335401,0.298811,624.000000,571.000000,53.000000,55.000000,0.000000,0.000000:
0000
0000
0000
0000
,
0000
0000
0000
0000
,
0000
0000
0000
0000
,
0000
0000
0000
0000
,
1001
0000
0000
0000
0001
0000
1001
0000
1000
0000
0100
0000
0000
0110
0000
0000
,
1001
0000
0000
0000
0001
0000
1001
0000
1000
0000
0100
0000
0000
0110
0000
0000
,
1001
0000
0000
0000
0001
0000
1001
0000
1000
0000
0010
0000
0000
0110
0000
0000
,
2001
0000
0100
0200
0300
0001
0002
3000
,
0013
0100
1000
0001
1000
0000
0010
0000
0100
0001
0100
0001
1000
0000
0100
0000
,
0010
0100
1000
0001
1000
0000
0010
0000
0100
0001
1000
0100
0010
0000
0000
0100
,
0010
0001
1000
0001
0100
0000
0010
0000
1000
0001
0010
0100
0010
0000
0001
0000
,
0100
0010
1000
0010
0100
0000
0001
0000
1000
0100
0010
0100
0010
0001
1000
0001
,
2000
0000
0000
0000
3010
0100
0010
0100
0002
0000
0000
0000
1003
0100
0010
0100
,
4000
0000
0000
0000
0000
0000
0000
0000
3001
0100
0001
0000
0001
0000
0000
0000
,
0100
0010
1000
0000
0001
1000
0001
1000
0200
0000
0000
0000
0310
0001
0010
0001
,
2000
0000
0000
0000
3001
0100
0001
0100
0010
1000
0001
1000
0100
0000
0000
0000
,
0110
0010
0011
0001
1001
0000
0010
1001
,
0110
1001
1010
0000
0100
0001
1001
1100
,
0110
0000
0100
0000
1000
0000
1000
0000
0001
0000
0001
0000
0100
0010
1000
0001
,
0010
0000
0010
0000
0001
0000
0001
0000
1000
0010
1000
0010
0100
0000
0001
0000
,
0001
0010
0100
0000
0001
0000
0100
0000
1000
0100
1000
0000
2002
0000
0000
3003
,
0001
0100
0010
0000
0001
0000
0010
0000
1000
0010
1000
0000
2002
0000
0000
3003
,
1000
0100
0010
0000
1000
0000
0010
0000
0001
1000
0001
0000
2001
0000
3020
0000
,
0230
2300
3200
0302
2003
3200
0320
0031
,
0101
0000
0000
0001
0000
1000
0001
0000
1000
0001
0000
0000
0010
0000
0000
1000
0000
0000
0010
0000
0000
0100
0000
0000
,
1000
0000
0000
0001
0000
0100
0001
0000
0100
0001
0000
0000
1000
0000
0000
0100
0000
0000
1000
0000
0000
0010
0000
0000
,
0100
0000
0000
0001
0000
1000
0100
0000
1000
0100
0000
0000
1000
0000
0000
0010
0000
0000
0100
0000
0000
0001
0000
0000
,
0010
0000
0000
0100
0000
1000
0100
0000
1000
0100
0000
0000
0010
0000
0000
0001
0000
0000
0100
0000
0000
0001
0000
0000
,
1000
0000
0000
0010
0000
0100
0001
0000
0100
0001
0000
0000
0100
0000
0000
1000
0000
0000
0100
0000
0000
0001
0000
0000
,
1000
0000
0000
0100
0000
0010
0001
0000
0010
0001
0000
0000
1000
0000
0000
0010
0000
0000
0100
0000
0000
0001
0000
0000
,
1000
0001
1000
0001
1000
0001
1000
0001
,
0110
0001
0110
0001
1001
0100
1001
0100
,
1001
0000
1000
0000
0020
0000
0130
0001
0100
0000
0010
0000
0100
0000
0001
0000
,
1000
0000
0100
0000
0020
0000
0130
1000
0100
0000
1000
0000
0020
0000
0000
0000
,
1030
0100
0010
0100
0001
0100
1000
0010
,
0001
0000
0010
0000
1000
0000
0100
0000
0010
0000
0001
0010
0100
0000
1000
0000
,
0010
0000
0100
0000
0002
0000
1003
0100
1000
0000
0100
0000
0010
0000
0100
0000
,
1000
0000
0010
0000
0200
0000
0301
1000
0001
0000
0010
0000
0200
0000
0000
0000
,
0310
0100
1000
0010
0001
0010
1000
0100
,
0001
0100
0110
0000
0001
0001
0000
0000
,
1001
0000
0000
1000
1010
0000
0000
0010
,
0010
1000
0001
0010
0100
0010
0001
1000
,
1010
0100
0010
0010
0001
0010
0020
0000
,
1030
0000
0000
0100
0110
0000
0110
0000
,
0011
0000
0000
0001
1001
0000
0000
1000
,
1000
0010
0100
0010
0010
1000
0100
0010
,
0001
0100
0001
1000
0100
0010
0100
1000
,
0020
0000
0000
0130
,
0001
1000
0001
1000
0100
0000
0010
0000
0100
1000
0100
0010
0001
0000
1000
0000
,
0010
0100
0001
0100
0010
0000
1000
0000
0001
1000
0001
0010
0100
0000
0000
0000
,
0010
0000
0001
1000
0010
0000
0100
0001
1000
0000
0100
0010
0100
0000
0100
0000
,
2000
0000
0000
3002
0000
0000
0203
0000
0000
0000
0000
0000
0302
0000
0000
0000
0013
0000
0100
0000
0010
0000
0100
0000
1000
0000
0000
0000
1000
0000
0000
0000
,
0001
0000
0001
0000
0100
0010
0100
0000
0100
0000
0001
1000
0001
0000
0010
0100
,
2000
0000
3100
0000
0010
0000
0001
0000
0100
0010
1000
0010
1000
0000
0100
0010
,
0000
0100
0000
1000
0001
1000
0001
0000
0200
0000
0310
0000
0200
0000
0310
0000
,
2001
0000
0001
0000
3001
0010
0100
0000
1001
0000
0001
0000
0201
0000
0000
0000
,
0310
0001
0010
1000
0001
0010
0210
0000
,
1300
0001
1000
0000
0010
0000
0002
0000
0013
0000
1000
0000
0100
0000
0100
0000
,
0002
0103
1000
0010
0002
0013
1000
0100
,
0010
0000
0010
0001
0200
0000
0301
0000
0010
0000
0100
0000
2100
0000
0000
0000
,
3010
0100
0001
0010
0100
0010
0012
0000
,
1003
0010
1000
0010
0100
0000
0100
0000
0001
0000
0010
0000
0100
0000
0100
0000
,
0002
0103
1000
0010
0002
0013
0100
0001
,
0001
0000
0010
0100
2000
0000
3100
0000
1100
0000
0000
0000
0010
0000
0100
0000
,
1000
0001
0100
0110
0000
0010
0001
0010
,
0001
0010
1000
1010
0000
0010
0200
0000
,
0301
1000
0100
0010
0001
0000
0001
0000
0001
0010
0100
1000
0001
0000
1000
0000
,
0010
0000
0010
1000
0002
0000
0023
0000
0100
0000
0000
0000
0130
0000
0001
0000
,
1000
0010
0001
0002
0003
0001
0100
1000
,
0001
0010
1000
0100
0000
0110
0011
0110
,
0011
0110
1100
0110
0000
0001
2000
3001
,
2000
3010
0002
0023
0000
0000
0000
0000
,
0000
0000
0000
0000
0000
0030
0000
0000
;

//---------------dance-single - Loodee----------------
#NOTES:
     dance-single:
     Loodee:
     Medium:
     7:
     0.403352,0.463425,0.268321,0.420775,0.009147,463.000000,419.000000,44.000000,69.000000,0.000000,0.000000,0.403352,0.463425,0.268321,0.420775,0.009147,463.000000,419.000000,44.000000,69.000000,0.000000,0.000000:
0000
0000
0000
0000
,
0000
0000
0000
0000
,
0000
0000
0000
0000
,
0000
0000
0000
0000
,
0011
0000
0000
0000
0000
0000
0011
0000
0000
0000
1000
0000
0000
0010
0000
0000
,
1001
0000
0000
0000
0000
0000
1001
0000
0000
0000
0001
0000
0000
0010
0000
0000
,
0110
0000
0000
0000
0000
0000
0110
0000
0000
0000
1000
0000
0000
0001
0000
0000
,
0101
0000
0000
0000
0200
0000
0320
0000
0000
0030
0200
0000
2300
0000
0000
3000
,
0100
0001
0100
0001
0010
0010
0100
0000
,
1000
0001
1000
0001
0100
0100
0001
0000
,
0010
0100
1000
0100
1000
1000
0010
0000
,
0100
1000
0100
0010
0100
0100
0001
0000
,
1000
1000
0002
0000
0013
0010
1000
0010
,
0001
0001
1000
1000
0010
0010
0200
0000
,
0301
0001
2000
0000
3100
0100
0001
0100
,
0010
0010
0001
0001
1000
0001
0100
0000
,
0110
1010
1001
0001
,
1001
1001
1001
0000
1000
0000
1100
1100
,
1100
0100
0010
0010
0001
0001
1000
1000
,
0010
0010
0100
0100
0010
1000
1001
0000
,
0001
0010
1000
0010
0001
0100
2000
0000
,
3100
0010
0001
0010
1000
0100
0002
0000
,
0103
0010
0001
0100
0010
0100
2000
3200
,
0320
2030
3200
0320
0032
0023
0230
2300
,
3010
0000
0100
0001
0100
0001
0010
0100
,
1100
2000
3002
2003
3002
0103
1000
0000
,
0110
0000
0010
1000
0010
0100
0001
1000
,
1001
0002
0023
0032
0023
0230
2300
3100
,
1100
0000
1000
0001
1000
0001
0100
0010
,
1010
2000
3002
2003
3200
0320
0032
2003
,
3002
0023
0230
2300
3002
0023
0230
2300
,
3100
0001
0100
0001
0100
0001
0100
1000
,
1100
0000
2001
0000
3001
0100
0010
1000
,
0001
0000
0021
0000
0130
0010
0001
1000
,
0010
0000
0210
0000
0301
0000
0010
0001
,
1000
0000
1020
0000
0130
1000
0100
0001
,
1000
0000
1200
0000
0310
0001
0010
0100
,
1000
0000
1002
0000
0103
0010
0100
0001
,
0010
0000
0210
0000
1300
0000
0100
0010
,
0001
0000
2002
0000
0000
0000
0000
3003
,
1010
0000
1001
0000
,
1000
0000
0000
0001
0010
0001
0010
0100
,
1000
0000
1010
0000
,
0010
0000
0000
0100
0010
1000
0010
0100
,
0001
0000
0011
0000
,
0010
0000
0000
0100
1000
0100
0010
0001
,
0100
0000
1010
0000
,
2000
0000
0000
0000
0002
3000
0023
0000
,
0130
1000
0001
1000
0010
0010
0100
0000
,
0010
1000
0010
0100
0001
0001
1000
0000
,
1100
0000
1001
0000
0101
0000
0110
0010
,
0020
0000
2030
3002
0013
0100
0010
0100
,
1000
1000
0001
0001
0001
0000
0010
0010
,
0001
1000
0010
0100
0001
0001
1000
1000
,
0100
0100
0010
0001
0100
0010
0100
0010
,
0100
1000
0100
0010
1000
0000
1200
0000
,
0310
0001
1000
0010
0100
0000
0102
0000
,
1003
1000
0020
0200
0330
0000
0001
0010
,
1000
0010
0001
1000
0010
1000
0100
1000
,
0010
0100
1000
0100
0010
0000
2010
0000
,
3001
0010
0001
1000
0010
0000
0210
0000
,
0301
0001
0010
0010
0100
0000
1000
0010
,
0001
0010
1000
0001
1000
0100
0010
0001
,
0020
0000
0032
0000
1003
0000
0010
0100
,
0010
1000
0001
0010
0000
0100
0001
0100
,
0001
0100
1000
0010
0000
0100
1000
0100
,
1000
0100
0010
1000
0000
0001
0010
0100
,
1000
0100
0010
0001
0200
0000
0310
1000
,
0100
1000
0010
0010
0000
1000
0100
0010
,
0100
0010
0001
0001
0000
0100
1000
0100
,
0001
0010
1000
0010
0000
0100
1000
0100
,
1000
0001
1000
0002
0000
0000
0000
0000
,
0000
0000
0000
0003
0000
0000
0000
0000
;

//---------------dance-single - Loodee----------------
#NOTES:
     dance-single:
     Loodee:
     Easy:
     5:
     0.284873,0.331589,0.085375,0.140258,0.012196,327.000000,313.000000,14.000000,23.000000,0.000000,0.000000,0.284873,0.331589,0.085375,0.140258,0.012196,327.000000,313.000000,14.000000,23.000000,0.000000,0.000000:
0000
0000
0000
0000
,
0000
0000
0000
0000
,
0000
0000
0000
0000
,
0000
0000
0000
0000
,
0001
0000
0000
0000
0000
0000
0001
0000
0000
0000
1000
0000
0000
0010
0000
0000
,
1000
0000
0000
0000
0000
0000
1000
0000
0000
0000
0100
0000
0000
0010
0000
0000
,
0100
0000
0000
0000
0000
0000
0100
0000
0000
0000
1000
0000
0000
0001
0000
0000
,
2000
0000
3010
0010
0000
0010
0020
0000
,
0130
0000
0001
0000
1000
0100
1000
0000
,
0010
0000
0100
0000
0001
1000
0001
0000
,
0010
0000
0100
0000
0010
0001
0010
0000
,
0100
0000
1000
0000
0010
0100
0010
0000
,
1000
1000
1000
0000
0001
0000
0000
0000
,
0001
0001
0001
0000
0100
0000
0000
0000
,
0100
0100
0100
0000
0010
0000
0000
0000
,
0010
0010
0010
0000
1000
0000
0000
0000
,
1100
1100
1100
0000
,
0001
0001
0001
0000
1000
0000
0001
0001
,
0001
0100
0100
0100
,
0010
0010
0010
0010
,
1000
1000
0001
0000
0010
0000
0010
0000
,
0001
0001
1000
0000
0010
0000
0010
0000
,
1000
1000
0001
0000
0010
0000
0010
0000
,
0200
0320
0032
0203
,
0310
0000
0010
1000
0010
0000
0010
0000
,
1000
0000
0001
0000
0001
0000
0001
1000
,
0010
0000
0010
0100
0010
0000
0010
0000
,
1000
0000
0000
0000
1000
0010
1000
0000
,
0001
0000
0001
1000
0001
0000
0001
0000
,
0010
0000
0010
0000
0010
0000
0100
1000
,
0001
0100
0010
0000
,
1001
1001
0110
0110
,
1001
0000
0002
0000
0013
0000
0001
1000
,
0001
0000
0200
0000
0310
0000
1000
0010
,
1000
0000
0002
0000
0013
0000
0100
1000
,
0100
0000
0100
0100
,
1000
0000
0020
0000
0130
0000
0001
0100
,
0001
0000
2000
0000
3001
0000
0010
0100
,
0010
0000
0002
0000
1003
0000
0100
0010
,
0100
1001
0000
0000
,
1000
0000
0010
0000
,
1000
0000
0000
0000
0001
1000
0001
1000
,
0001
0000
0010
0000
,
0001
0000
0000
0000
1000
0010
1000
0010
,
1000
0000
0100
0000
,
1000
0000
0000
0000
0001
0100
0001
0100
,
0001
0000
1000
0000
,
0100
0000
0000
0100
0020
0000
0032
0000
,
0103
0000
0010
0000
1000
0001
1000
0000
,
0100
0000
0010
0000
0001
1000
0001
0000
,
0101
0101
0101
0001
,
2000
0000
0000
3200
0000
0000
0300
0000
1000
0000
1000
0000
1000
0000
0000
0000
,
0001
1000
0001
0000
0100
0000
0010
0000
,
0100
0000
0001
0010
0001
0000
1000
0000
,
0010
0000
0100
0001
1000
0001
1000
0001
,
1000
1100
1001
0002
,
0103
0000
0010
1000
0010
0000
0200
0000
,
0301
0000
1000
0100
1000
0000
0010
0010
,
0100
0000
0001
1000
0100
0000
0020
0000
,
0130
0100
1000
0100
1000
0000
0020
0000
,
0130
0000
0001
1000
0001
0000
0020
0000
,
0130
0100
0100
0000
1000
0000
0010
0010
,
0100
0000
0001
1000
0100
0000
0020
0000
,
0031
0001
1000
0001
1000
0000
0010
0100
,
0010
0000
0010
1000
0000
0000
0001
1000
,
0001
0000
0001
0010
0000
0000
0001
0100
,
0001
0000
0001
1000
0000
0000
0010
0000
,
1000
0001
1000
0001
1000
0000
0100
0010
,
0100
0000
0100
0100
0000
0000
1000
0010
,
1000
0000
1000
0001
0000
0001
0001
1000
,
1000
0000
1000
0001
0000
0000
0100
0001
,
0100
0001
0100
0020
0000
0000
0000
0000
,
0000
0000
0030
0000
;

//---------------dance-single - Loodee----------------
#NOTES:
     dance-single:
     Loodee:
     Beginner:
     1:
     0.063595,0.128977,0.036589,0.012196,0.000000,73.000000,67.000000,6.000000,2.000000,0.000000,0.000000,0.063595,0.128977,0.036589,0.012196,0.000000,73.000000,67.000000,6.000000,2.000000,0.000000,0.000000:
// measure 0
0000
0000
0000
0000
,  // measure 1
0000
0000
0000
0000
,  // measure 2
0000
0000
0000
0000
,  // measure 3
0000
0000
0000
0000
,  // measure 4
1000
0000
0000
0000
,  // measure 5
1000
0000
0000
0000
,  // measure 6
0001
0000
0000
0000
,  // measure 7
0001
0000
0000
0000
,  // measure 8
1000
0000
0000
0000
,  // measure 9
1000
0000
0000
0000
,  // measure 10
0010
0000
0000
0000
,  // measure 11
0010
0000
0000
0000
,  // measure 12
1000
0000
0000
0000
,  // measure 13
1000
0000
0000
0000
,  // measure 14
0001
0000
0000
0000
,  // measure 15
0001
0000
0000
0000
,  // measure 16
0200
0000
0000
0000
,  // measure 17
0000
0000
0000
0000
,  // measure 18
0300
0000
0000
0000
,  // measure 19
0001
0000
0000
0000
,  // measure 20
1001
0000
0000
0000
,  // measure 21
1001
0000
0000
0000
,  // measure 22
0110
0000
0000
0000
,  // measure 23
1001
0000
0000
0000
,  // measure 24
0001
0000
0000
0000
,  // measure 25
0001
0000
0000
0000
,  // measure 26
0010
0000
0000
0000
,  // measure 27
0010
0000
0000
0000
,  // measure 28
0100
0000
0000
0000
,  // measure 29
0100
0000
0000
0000
,  // measure 30
1000
0000
0000
0000
,  // measure 31
1000
0000
1000
0000
,  // measure 32
1000
0000
0000
0000
,  // measure 33
0001
0000
0000
0000
,  // measure 34
1000
0000
0000
0000
,  // measure 35
0100
0000
0100
0000
,  // measure 36
0100
0000
0000
0000
,  // measure 37
1000
0000
0000
0000
,  // measure 38
0001
0000
0000
0000
,  // measure 39
1000
0000
0000
0000
,  // measure 40
0010
0000
0000
0000
,  // measure 41
0000
0000
0000
0000
,  // measure 42
1001
0000
0000
0000
,  // measure 43
0000
0000
0000
0000
,  // measure 44
1000
0000
0000
0000
,  // measure 45
0000
0000
0000
0000
,  // measure 46
1001
0000
0000
0000
,  // measure 47
0000
0000
0000
0000
,  // measure 48
0001
0000
0000
0000
,  // measure 49
0001
0000
0000
0000
,  // measure 50
0100
0000
0000
0000
,  // measure 51
0200
0000
0000
0300
0000
0000
0000
0000
,  // measure 52
0000
0000
0100
0000
,  // measure 53
0000
0000
0010
0000
,  // measure 54
0000
0000
0100
0000
,  // measure 55
0100
0000
0100
0000
,  // measure 56
0000
0000
0001
0000
,  // measure 57
0000
0000
1000
0000
,  // measure 58
0000
0000
0010
0000
,  // measure 59
0010
0000
0010
0000
,  // measure 60
0000
0000
1000
0000
,  // measure 61
0000
0000
0001
0000
,  // measure 62
0000
0000
0100
0000
,  // measure 63
0100
0000
0100
0000
,  // measure 64
0000
0000
0010
0000
,  // measure 65
0000
0000
0100
0000
,  // measure 66
0000
0000
0001
0000
,  // measure 67
0001
0000
0001
0000
,  // measure 68
0000
0000
1000
0000
,  // measure 69
0000
0000
0100
0000
,  // measure 70
0000
0000
1000
0000
;
