#TITLE:STEELFUCK;
#SUBTITLE:(Dubstep VIP);
#ARTIST:Camellia;
#TITLETRANSLIT:;
#SUBTITLETRANSLIT:;
#ARTISTTRANSLIT:;
#GENRE:;
#CREDIT:;
#BANNER:STEELFUCK (Dubstep VIP)-bn.png;
#BACKGROUND:STEELFUCK (Dubstep VIP)-bg.png;
#LYRICSPATH:;
#CDTITLE:loodee-maxx-cdtitle.png;
#MUSIC:STEELFUCK (Dubstep VIP).ogg;
#OFFSET:-0.002000;
#SAMPLESTART:76.810997;
#SAMPLELENGTH:22.440001;
#SELECTABLE:YES;
#DISPLAYBPM:150.000000;
#BPMS:0.000000=150.000000
;
#STOPS:
;
#BGCHANGES:;
#KEYSOUNDS:;
#ATTACKS:;

//---------------dance-single - Loodee & Maxx----------------
#NOTES:
     dance-single:
     Loodee & Maxx:
     Challenge:
     12:
     0.820358,1.252632,0.346749,0.752700,0.993733,679.000000,638.000000,41.000000,89.000000,16.000000,0.000000,0.820358,1.252632,0.346749,0.752700,0.993733,679.000000,638.000000,41.000000,89.000000,16.000000,0.000000:
0000
0000
0000
0000
,
0000
0000
0000
0000
,
0000
0000
0000
0000
,
0000
0000
0000
0000
,
1001
0000
1000
0000
0000
0001
0000
0100
0010
0000
0010
2000
0000
0000
0000
3000
,
0100
0000
0100
1000
0010
1000
0000
1000
0001
0000
0001
0200
0000
0000
0301
0000
,
0010
0000
0010
0000
0001
1000
0000
0010
2000
0000
3000
0001
0000
0001
0010
0000
,
0100
0000
0100
1000
0010
1000
0000
1000
0002
0000
0003
0010
0200
0000
0000
0300
,
1001
0001
0000
0001
0101
0001
0000
0001
,
1000
0100
0000
0100
0110
0100
0000
0100
,
1000
0010
0000
1000
1010
1000
0000
0010
,
0100
0001
0000
0001
2001
3200
0320
0130
,
1001
1000
0000
1000
1100
1000
0000
1000
,
0010
0100
0000
0001
0101
0100
0000
0100
,
0001
0000
0010
0000
0011
0000
0001
1000
0000
0000
1000
0000
1010
0000
0010
0000
,
0100
0000
0001
0000
1001
0000
1000
0100
0000
0000
0100
0000
2200
0000
0000
3300
,
1001
0001
0100
0001
0010
0100
0010
0100
,
2000
3000
0001
0000
0100
0000
0001
0000
1000
0000
0020
0000
1030
0000
0001
0000
,
0010
0000
0001
0010
0100
0000
1000
0010
1000
0100
0010
0000
0001
0000
0100
0000
,
0020
0000
1030
0000
0001
0000
0010
0100
0010
0100
1000
0000
0010
0000
0100
0000
,
0001
1000
0001
1000
0010
0100
0010
1000
0001
0010
0001
0010
0100
1000
0010
1000
,
0001
0100
0001
0100
0010
1000
0001
0010
0100
1000
0100
1000
0010
0100
0001
1000
,
0001
1000
0100
0010
0001
1000
0001
0100
0010
1000
0001
0010
0001
1000
0010
1000
0001
0010
0100
1000
0001
0100
0010
1000
,
0001
0000
0010
0000
0200
0000
0000
0000
2300
0000
0000
0000
3001
0100
0001
0010
,
0200
0000
0000
0000
0310
000M
0010
1000
0100
0100
0001
0000
0020
0000
0000
0000
,
0032
0000
0000
0000
0103
000M
0100
1000
0010
0010
0001
0000
0200
0000
1000
0300
,
0200
0000
0000
0000
0310
0M00
0010
0001
0100
0100
1000
0000
0020
0000
0000
0030
,
1000
0000
0001
0000
0010
0000
0100
0000
1000
0000
0001
0000
1000
0000
0000
0010
0000
0000
0000
0000
0000
1000
0000
0000
0101
0000
0000
0000
0000
0000
1000
0000
0000
0010
0000
0000
0000
0000
0000
1000
0000
0000
0100
0000
0000
0000
0000
0000
,
0012
0000
0000
0003
0100
000M
0100
1000
0010
0010
0001
0000
0200
0000
0000
0000
,
0302
0000
0000
0000
0000
0000
0000
0000
0000
0003
0000
0000
0010
0000
0000
000M
0000
0000
0010
0000
0000
1000
0000
0000
0100
0000
0000
0100
0000
0000
0001
0000
0000
0000
0000
0000
1000
0000
0100
0000
0010
0000
0001
0000
1000
0000
0010
0000
,
0200
0000
0302
1003
0400
M000
0302
0013
,
0400
0000
0000
0000
M000
0000
0000
0000
0301
0000
0000
0000
0010
0000
0000
0000
0001
0000
1000
0010
1000
0000
0001
0000
1000
0000
0010
0000
0100
0000
0001
0000
,
2000
0000
0000
0000
3010
M000
0010
0001
0100
0100
1000
0000
0020
0000
0000
0000
,
2030
0000
0000
0000
3100
M000
0100
0001
0010
0010
1000
0000
0200
0000
0001
0300
,
0200
0000
0000
0000
0310
0M00
0010
1000
0100
0100
0001
0000
0020
0000
0000
0030
,
0001
0000
0100
0000
0001
0000
1000
0000
0100
0000
0010
0000
0001
0000
0000
1000
0000
0000
0000
0000
0000
0010
0000
0000
1100
0000
0000
0000
0000
0000
0001
0000
0000
0010
0000
0000
0000
0000
0000
0001
0000
0000
0100
0000
0000
0000
0000
0000
,
1020
0000
0000
0000
0130
0000
0001
0010
0001
1000
0100
0000
0020
0000
0000
0000
,
0230
0000
0000
0000
1300
0000
0001
0100
0001
1000
0100
0000
0020
0000
0000
0000
,
0031
0000
0000
0001
0000
0000
0001
0000
0000
0000
1000
0000
0000
1000
0000
0000
,
0001
0000
0000
0001
0000
0000
0001
0000
0000
0000
0100
0000
0000
0100
0000
0000
,
1020
0000
0000
0000
0000
0000
0000
0000
0000
0000
0000
0000
0130
0000
0000
0000
0000
0000
0001
0000
0000
1000
0000
0000
0001
0000
1000
0000
0100
0000
1000
0000
0001
0000
0100
0000
0010
0000
1000
0000
0001
0000
1000
0000
0100
0000
0010
0000
,
0100
0000
1000
0000
0001
0000
0100
0000
0010
0000
1000
0000
0001
0000
0010
0000
0100
0000
1000
0000
0000
0001
0000
0000
0100
0000
0000
0000
0000
0000
0100
0000
0000
0000
0000
0000
0010
0000
0000
1000
0000
0000
0001
0000
0000
0000
0000
0000
,
0021
0000
0000
0000
0000
0000
0000
0000
0230
0000
0000
0000
1300
0001
1000
0000
0001
0000
0100
0000
0010
1000
0010
0000
0200
0000
0000
0000
0301
1000
0001
0000
,
1000
0000
0001
0000
0010
0000
0001
0000
1000
0000
0100
0000
1000
0000
0000
0010
0000
0000
0000
0000
0000
1000
0000
0000
0101
0000
0000
0000
0000
0000
1000
0000
0000
0010
0000
0000
0000
0000
0000
0100
0000
0000
0001
0000
0000
0000
0000
0000
,
0012
0000
0000
0000
0000
0000
0000
0000
0203
0000
0000
0000
0301
1000
0001
0000
1000
0000
0010
0000
0100
0001
0100
0000
0020
0000
0000
0000
1030
0001
1000
0000
,
0100
0000
0000
0000
0000
0000
0000
0000
0000
0000
0000
0000
0010
0000
0000
0000
0000
0000
0000
0000
0000
0000
0000
0000
0001
0000
0000
0000
0000
0000
1000
0000
0000
0000
0000
0000
0001
0000
0000
0000
0000
0000
0000
0000
0000
0000
0000
0000
0200
0000
0000
0000
0000
0000
0000
0000
0000
0000
0000
0000
0000
0000
0000
0000
0000
0000
0000
0000
0000
0000
0000
0000
0310
0000
0000
0000
0000
0000
1000
0000
0000
0000
0000
0000
0010
0000
0000
0000
0000
0000
0000
0000
0000
0000
0000
0000
0100
0000
0000
0000
0000
0000
0000
0000
0000
0000
0000
0000
0001
0000
0000
0000
0000
0000
0000
0000
0000
0000
0000
0000
0000
0000
0000
0000
0000
0000
0000
0000
0000
0000
0000
0000
1000
0000
0000
0000
0000
0000
0000
0000
0000
0000
0000
0000
0001
0000
0000
0000
0000
0000
0000
0000
0010
0000
0000
0000
0000
0000
0000
0000
0100
0000
0000
0000
0000
0000
0000
0000
1000
0000
0000
0000
0000
0000
0000
0000
0001
0000
0000
0000
0000
0000
0000
0000
1000
0000
0000
0000
0000
0000
0000
0000
,
0020
0000
0000
0030
0100
0000
0001
0000
4001
0000
0000
0000
3020
0000
0000
0000
,
0230
0000
0000
0000
0302
0000
0000
0000
0043
0000
0000
0000
0230
0000
0000
0300
,
2001
0000
0000
0000
0000
0000
0000
0000
0000
0000
0000
0000
3010
0000
0000
0100
0000
0000
0010
0000
1000
0000
0001
0000
1000
0000
0100
0000
0010
0000
0001
0000
1000
0000
0000
0000
0010
0000
0000
0100
0000
0000
0001
0000
0000
0000
0000
0000
,
1002
0000
0000
0000
0000
0000
0000
0000
0023
0000
0000
0000
0031
1000
0001
0000
1000
0000
0010
0000
0100
0001
0100
0000
0020
0000
0000
0000
4030
0000
0000
0000
,
3200
0000
0000
0000
0000
0000
0000
0000
2300
0000
0000
0000
3001
0010
0001
0000
1000
0000
0001
0000
1000
0001
1000
0000
0002
0000
0000
0000
1003
0100
1000
0000
,
0001
0000
0010
0000
0100
0000
1000
0000
0001
0000
0100
0000
0010
0000
0000
1000
0000
0000
0000
0000
0000
0001
0000
0000
1100
0000
0000
0000
0000
0000
0001
0000
0000
0010
0000
0000
0000
0000
0000
0001
0000
0000
0100
0000
0000
0000
0000
0000
,
2001
0000
0000
0000
3001
0000
0001
0100
0001
0010
0100
0000
2000
0000
0000
0000
,
3020
0000
0000
0000
1030
0000
1000
0100
1000
0010
0100
0000
0002
0000
0000
0000
,
1003
0000
0000
1000
0000
0000
1000
0000
0000
0000
0001
0000
0000
0001
0000
0000
,
0010
0000
0000
0010
0000
0000
0010
0000
0000
0000
0100
0000
0000
0100
0000
0000
,
1002
0000
0000
0000
0103
0000
0010
0000
2010
0000
0000
0001
0000
0000
3010
0000
,
0120
0000
0000
0001
0000
0000
0130
0000
1002
0000
0000
0010
0000
0000
1003
0000
,
1020
0000
0000
0000
0130
0000
0001
0000
1000
0100
0000
M100
0001
0000
1000
0000
,
0001
0000
0000
0010
0000
0000
0000
0000
0000
001M
0000
0000
1000
0000
0000
0000
0000
0000
0001
0000
0000
0000
0000
0000
1001
0000
0000
0000
0000
0000
0001
0000
0000
0000
0000
0000
1000
0000
0100
0000
0010
0000
0001
0000
1000
0000
0010
0000
,
0200
0000
0000
0000
0000
0000
0000
0000
0000
0000
0000
0000
0304
0000
0000
0000
0000
0000
0000
0000
0003
0000
0000
0000
0021
0000
0000
0000
0000
0000
0000
0000
0000
0100
0000
0000
0000
0000
0000
0000
0000
0000
0031
0000
0000
0000
0000
0000
,
0201
0000
0000
1000
0000
0000
0310
0000
2001
0000
0000
3200
0000
0000
0310
0000
,
0012
0000
2003
3010
0400
00M0
2300
3001
,
0400
0000
0000
0000
000M
0000
0000
0000
0310
0000
0000
0000
0001
0000
0000
0000
1000
0000
0010
1000
0010
0000
0100
0000
0001
0000
1000
0000
0100
0000
0010
0000
,
0002
0000
0000
0000
0203
0000
0000
0000
2300
0000
0000
3200
0000
0000
0310
0000
,
2010
0000
0000
0000
0000
0000
0000
0000
0000
0000
0000
0000
0000
0000
0000
0000
3001
0000
0000
0000
1000
0001
1000
0000
0001
0100
0001
0000
2000
0000
0000
0000
,
3200
0000
0000
0000
0310
0000
0001
0000
1000
0010
0000
M010
0001
0000
1000
0000
,
0001
0000
0000
0100
0000
0000
0000
0000
0000
010M
0000
0000
1000
0000
0000
0000
0000
0000
0010
0000
0000
0000
0000
0000
0110
0000
0000
0000
0000
0000
0100
0000
0000
0000
0000
0000
0001
0000
1000
0000
0100
0000
1000
0000
0001
0000
1000
0000
,
0020
0000
0000
0030
1010
0000
0010
0100
0001
0000
0001
1000
0100
0000
0010
0000
,
0002
0000
0000
1003
0010
0000
1000
0100
0000
0000
0010
0001
2000
0000
0000
0000
,
3010
0100
0001
0100
0010
1000
0100
0010
,
0002
0000
0000
0000
0000
0000
0203
0000
0000
0000
0000
0000
0320
0000
0000
0030
,
2002
3003
0000
0000
;

//---------------dance-single - Loodee----------------
#NOTES:
     dance-single:
     Loodee:
     Hard:
     10:
     0.589595,1.004728,0.135317,0.642755,0.515895,488.000000,472.000000,16.000000,76.000000,14.000000,0.000000,0.589595,1.004728,0.135317,0.642755,0.515895,488.000000,472.000000,16.000000,76.000000,14.000000,0.000000:
0000
0000
0000
0000
,
0000
0000
0000
0000
,
0000
0000
0000
0000
,
0000
0000
0000
0000
,
1001
0000
0000
0000
,
0000
0000
0000
0000
0000
0000
0000
0001
,
0010
0010
2000
0000
3020
0030
0000
0000
,
0000
0000
0000
0001
,
0101
0100
0000
0000
0110
0010
0000
0010
,
1000
0100
0000
0000
1100
1000
0000
1000
,
0100
0010
0000
0000
0011
0001
0000
0001
,
1000
0010
0000
0000
0200
2300
3200
0302
,
1003
0000
0000
0000
1100
0100
0000
0100
,
0010
0001
0000
0000
1001
1000
0000
0010
,
0100
0000
0010
0000
1000
0000
0001
1000
0000
0000
1000
0000
0100
0000
0010
0000
,
0100
0000
0010
0000
0001
0000
1000
0001
0000
0000
0001
0000
0100
0000
0010
0000
,
2000
3100
0010
0100
1000
0001
0100
0010
,
0200
0300
0001
0000
0010
0000
0100
0000
0010
0000
0001
0000
1000
0000
0010
0000
,
1000
0001
0100
0010
1000
0100
0010
0001
,
1000
0001
0100
0010
0100
0001
1000
0100
,
0010
0001
0010
0001
0010
0001
0010
0001
1000
0001
1000
0001
1000
0001
1000
0001
,
1000
0010
1000
0010
1000
0010
1000
0010
0100
0001
0100
0001
0100
0001
0100
0001
,
4000
3400
0340
0034
,
0103
0000
0000
0000
0000
0000
0000
0000
0000
0000
0000
0000
0010
1000
0100
1000
,
0002
0000
0000
0000
0103
00M0
0100
1000
0001
0100
0010
0000
2000
0000
0000
0000
,
3200
0000
0000
0000
0310
000M
0010
1000
0001
0100
0010
0000
2000
0000
3100
0000
,
2000
0000
0000
0000
3010
0M00
0010
0001
1000
0001
0100
0000
0020
0000
0000
0000
,
2030
0000
0000
0000
0000
3001
0000
0010
0001
0000
0100
0001
0000
1000
0001
0000
,
1020
0000
0000
0000
0130
000M
0100
1000
0001
1000
0100
0000
0020
0000
0000
0000
,
0032
0000
0000
0000
0103
00M0
0100
1000
0001
0100
0010
0000
0400
0000
0000
0000
,
0320
0000
0031
0010
0200
0000
1300
0100
,
0020
0000
0000
0000
0031
0000
0010
0000
1000
0001
1000
0001
0010
0100
1000
0001
,
2000
0000
0000
0000
3010
0M00
0010
0001
0010
0100
1000
0000
0020
0000
0000
0000
,
2030
0000
0000
0000
3100
00M0
0100
0001
1000
0010
0100
0000
0002
0000
0013
0000
,
0200
0000
0000
0000
0310
M000
0010
1000
0001
0010
0001
0000
2000
0000
0000
0000
,
3020
0000
0000
0000
0000
0130
0000
0001
0010
0000
0001
0100
0000
0001
1000
0000
,
1020
0000
0000
0000
0130
0000
0001
1000
0100
0010
0001
0000
2000
0000
0000
0000
,
3020
0000
0000
0000
0130
0000
0001
0010
0100
1000
0100
0000
0020
0000
0000
0000
,
0031
0000
0000
0001
0000
0000
0001
0000
0000
0000
0100
0000
0000
0100
0000
0000
,
0001
0000
0000
0001
0000
0000
0001
0000
0000
0000
1000
0000
0000
1000
0000
0000
,
1200
0000
0000
0000
0310
0000
0100
1000
0004
0000
0000
0000
0000
0000
0000
0000
,
0000
0000
0000
0000
0000
0000
0000
0000
1003
0000
0010
0000
0100
0010
0100
0001
,
2000
0000
0000
0000
3200
0000
0310
0001
0010
0000
0100
0000
0002
0000
0103
1000
,
0020
0000
0000
0000
0000
0130
0000
0001
1000
0000
0001
0100
0000
0001
0010
0000
,
0200
0000
0000
0000
2300
0000
3001
0100
0010
0000
0100
0000
2000
0000
3100
0010
,
0100
0000
0010
0000
0002
0000
0013
0100
0010
1000
0000
1000
0200
0000
0000
0000
,
0320
0000
0130
0010
0004
0000
2003
0000
,
3020
0000
0000
0000
0000
0000
0000
0030
2001
0000
0000
0000
0000
0000
0000
0000
,
3200
0000
0310
0001
0400
0000
0000
0000
,
0320
0000
0000
0000
2030
0000
3001
0100
0010
0000
1000
0000
0200
0000
0310
0000
,
0200
0000
0000
0000
2300
0000
3001
0010
0100
0000
0010
0000
2000
0000
3010
0000
,
0002
0000
0000
0000
0000
1003
0000
0010
1000
0000
0100
1000
0000
0100
0010
0000
,
0002
0000
0000
0000
1003
0000
0010
0100
0001
1000
0100
0000
0020
0000
0000
0000
,
0230
0000
0000
0000
1300
0000
0010
0100
0010
1000
0100
0000
0020
0000
0000
0000
,
0031
0000
0000
0001
0000
0000
0001
0000
0000
0000
1000
0000
0000
1000
0000
0000
,
0010
0000
0000
0010
0000
0000
0010
0000
0000
0000
0100
0000
0000
0100
0000
0000
,
0002
0000
0000
0000
0013
0M00
0010
0000
1000
0000
0000
0100
0000
0000
0100
0000
,
0010
0000
0000
1000
0000
0000
0010
0000
0011
0000
0000
0001
0000
0000
0100
0000
,
0020
0000
0000
0000
1030
0000
1000
0000
0001
0100
00M0
0100
1000
0000
0020
0000
,
1030
0100
00M0
0100
0001
0000
0020
0000
0031
0000
0001
0000
1000
0100
0010
0001
,
2000
0000
0000
0000
3100
00M0
0100
0000
0001
0000
0000
1000
0000
0000
1000
0000
,
0010
0000
0000
0001
0000
0000
0010
0000
0110
0000
0000
0100
0000
0000
0001
0000
,
0020
0000
1030
0010
0200
0000
0301
0100
,
0020
0000
0000
0000
1030
0000
0010
0000
0001
0010
0001
1000
0010
0100
0001
0100
,
0020
0000
0000
0000
0230
0000
0000
0000
1300
0000
0000
0100
0000
0000
0001
0000
,
0020
0000
0000
0000
0000
0000
0000
0030
0110
0000
0100
1000
0001
0000
0200
0000
,
0320
0000
0000
0000
1030
0000
0001
0000
1000
0010
0M00
0010
0001
0000
0200
0000
,
0301
0010
0M00
0010
1000
0000
0200
0000
1300
0000
1000
0000
0001
0100
0010
1000
,
0002
0000
0000
0003
0011
0000
0010
0100
1000
0000
0000
0010
0000
0000
0010
0000
,
0100
0000
0000
1000
0000
0000
0100
0000
0010
0000
0000
0001
0000
0000
0010
0000
,
0100
0001
1000
0001
0010
0100
0010
0001
,
2000
0000
0000
0000
0000
0000
0000
0000
0000
0000
0000
0000
3020
0000
0000
0030
,
1001
0000
0000
0000
;

//---------------dance-single - Loodee----------------
#NOTES:
     dance-single:
     Loodee:
     Medium:
     8:
     0.474817,0.548033,0.126860,0.685042,0.241033,393.000000,378.000000,15.000000,81.000000,0.000000,0.000000,0.474817,0.548033,0.126860,0.685042,0.241033,393.000000,378.000000,15.000000,81.000000,0.000000,0.000000:
0000
0000
0000
0000
,
0000
0000
0000
0000
,
0000
0000
0000
0000
,
0000
0000
0000
0000
,
1001
0000
0000
0000
,
0000
0000
0000
0000
0000
0000
0000
0001
,
1000
0001
0020
0000
0030
0000
0000
0000
,
0000
0000
0000
0100
,
1100
0000
0000
1000
0001
1000
0000
1000
,
0010
0100
0000
0100
0001
0100
0000
0100
,
0010
1000
0000
1000
0001
0010
0000
0010
,
0001
1000
0000
1000
0001
0200
0000
0300
,
0101
0000
0000
0001
1000
0001
0000
0001
,
0010
0100
0000
0100
0010
0100
0000
0100
,
1000
0000
0001
0000
0010
0000
0000
0001
0000
0000
0001
0000
1000
0000
0010
0000
,
0100
0000
0001
0000
0010
0000
0000
0100
0000
0000
0100
0000
2000
0000
0000
0000
,
3020
0030
0000
0000
,
0020
0030
0000
0000
0000
0000
0000
0000
,
0010
1000
0100
0010
0100
1000
0001
0100
,
0010
1000
0001
0010
0001
1000
0010
0100
,
0004
0000
4003
0000
,
3040
0000
0430
0000
,
0304
0043
0430
0340
0034
4003
3040
0130
,
0101
0000
0000
0000
0000
0000
0000
0000
0000
0000
0000
0000
0001
1000
0100
0000
,
0020
0000
0000
0000
0130
0000
1000
0001
0100
0000
0010
0000
2000
0000
0000
0000
,
3200
0000
0000
0000
0310
0000
0100
1000
0100
0000
0010
0000
0001
0000
0200
0000
,
0320
0000
0000
0000
1030
0000
0001
0010
0001
0000
1000
0000
0020
0000
0000
0000
,
0032
0000
0000
0000
0000
0003
0000
0000
0010
0000
0000
0010
0000
0000
0010
0000
,
2000
0000
0000
0000
3001
0000
0010
0100
1000
0000
0001
0000
0200
0000
0000
0000
,
0320
0000
0000
0000
1030
0000
0001
0100
0001
0000
1000
0000
0200
0000
0000
0300
,
2002
0000
0000
3003
0010
0000
0100
0000
2002
0000
0000
3003
0100
0000
0010
0000
,
2002
0000
0000
3003
1000
0000
0001
0000
0020
0000
0000
0000
0130
1000
0100
0010
,
0002
0000
0000
0000
1003
0000
0010
0100
0010
0000
1000
0000
0002
0000
0000
0000
,
0023
0000
0000
0000
0130
0000
0010
0001
1000
0000
0010
0000
0200
0000
0301
0000
,
2000
0000
0000
0000
3100
0000
0010
0100
1000
0000
0001
0000
0200
0000
0000
0000
,
2300
0000
0000
0000
0000
3100
0000
0000
0100
0000
0000
0100
0000
0000
0001
0000
,
2000
0000
0000
0000
3100
0000
0010
0001
0010
0000
0100
0000
0020
0000
0000
0000
,
0032
0000
0000
0000
1003
0000
0010
0100
0010
0000
1000
0000
0002
0000
0000
0000
,
0013
0000
0000
0010
0000
0000
0010
0000
0000
0000
0001
0000
0000
0001
0000
0000
,
1000
0000
0000
1000
0000
0000
1000
0000
0000
0000
0010
0000
0000
0010
0000
0000
,
0200
0000
0000
0000
0310
0000
1000
0001
2000
0000
0000
0000
0000
0000
0000
0000
,
0000
0000
0000
0000
0000
0000
0000
0000
3100
0000
0010
0000
0001
0010
0001
0000
,
2000
0000
3020
0130
0100
0100
0002
0103
,
0020
0000
0000
0000
0000
1030
0000
0001
1000
0000
0000
0100
0000
0000
0010
0000
,
1002
0000
0203
0310
0010
0010
0200
0310
,
0010
0000
0010
0000
0200
0000
0310
0000
1000
0001
0000
0001
2000
0000
0000
0000
,
3200
0000
0000
0000
0310
0000
0100
0000
4000
0000
0000
0000
0000
0000
0000
3000
,
0002
0000
0000
0000
0000
0000
0000
0003
0201
0000
0000
0000
0000
0000
0000
0000
,
0320
0000
0000
0000
4030
0000
0000
0000
3002
0000
0000
0000
0000
0000
0000
0003
,
0021
0000
0230
0310
0010
0010
0002
0103
,
0020
0000
2030
3001
0001
0001
2000
3001
,
0020
0000
0000
0000
0000
0130
0000
1000
0100
0000
0000
1000
0000
0000
0001
0000
,
0201
0000
0000
0000
0310
0000
1000
0001
1000
0000
0100
0000
0020
0000
0000
0000
,
0032
0000
0000
0000
0103
0000
0010
1000
0010
0000
0100
0000
0002
0000
0000
0000
,
0013
0000
0000
0010
0000
0000
0010
0000
0000
0000
0100
0000
0000
0100
0000
0000
,
1000
0000
0000
1000
0000
0000
1000
0000
0000
0000
0010
0000
0000
0010
0000
0000
,
0210
0000
0000
0000
0301
0000
0001
0000
1000
0000
0000
0100
0000
0000
0100
0000
,
0010
0000
0000
0100
0000
0000
0100
0000
0001
0000
0000
0100
0000
0000
1000
0000
,
0002
0000
0000
0000
0203
0000
0310
0000
1000
0001
0000
0001
2000
0000
3000
0000
,
0010
0100
0000
0100
0020
0000
0030
0000
1000
0000
1000
0000
0200
0000
0000
0000
,
0320
0000
0000
0000
0031
0000
0001
0000
1000
0000
0000
0010
0000
0000
0010
0000
,
0100
0000
0000
0010
0000
0000
0010
0000
0001
0000
0000
0010
0000
0000
1000
0000
,
0002
0000
0013
0100
2100
0000
3100
0010
,
0012
0000
0013
0100
4000
0000
0000
0000
,
3020
0000
0000
0000
0230
0000
0000
0000
1300
0000
0000
0100
0000
0000
0010
0000
,
0200
0000
0000
0000
0301
0010
0010
0001
,
0200
0000
0000
0000
0310
0000
1000
0000
0001
0010
0000
0010
0002
0000
0003
0000
,
1000
0010
0000
0010
2000
0000
3000
0000
0100
0000
0100
0000
0020
0000
0000
0000
,
0032
0000
0000
0000
1003
0000
0010
0100
0010
0000
0000
1000
0000
0000
1000
0000
,
0001
0000
0000
0010
0000
0000
0010
0000
0100
0000
0000
0010
0000
0000
0010
0000
,
0001
0100
0001
1000
0001
0010
0100
1000
,
0020
0000
0000
0000
0000
0000
0230
0300
,
1001
0000
0000
0000
;

//---------------dance-single - Loodee----------------
#NOTES:
     dance-single:
     Loodee:
     Easy:
     5:
     0.343125,0.426248,0.143774,0.549725,0.008457,284.000000,267.000000,17.000000,65.000000,0.000000,0.000000,0.343125,0.426248,0.143774,0.549725,0.008457,284.000000,267.000000,17.000000,65.000000,0.000000,0.000000:
0000
0000
0000
0000
,
0000
0000
0000
0000
,
0000
0000
0000
0000
,
0000
0000
0000
0000
,
1001
0000
0000
0000
,
0000
0000
0000
0000
0000
0000
0000
0001
,
1000
0001
2000
0000
3000
0000
0000
0000
,
0000
0000
0000
0100
,
1001
0000
0000
0001
0010
0000
0000
0010
,
0001
0000
0000
0001
1000
0000
0000
1000
,
0001
0000
0000
0001
0100
0000
0000
0100
,
0010
0000
0000
0010
2000
0000
0000
0000
,
3100
0000
0000
0100
0010
0000
0000
0010
,
0001
0000
0000
0001
0100
0000
0000
0100
,
0010
0000
0000
0000
1000
0000
0000
0010
0000
0000
0000
0000
1000
0000
0000
0000
,
0001
0000
0000
0000
0010
0000
0000
0001
0000
0000
0000
0000
0010
0000
0000
0000
,
0100
1000
0100
1000
0100
0000
0000
0000
,
1000
0001
1000
0001
1000
0000
0000
0000
,
0001
0100
0001
0000
1000
0000
0100
0000
,
0010
0001
0010
0000
0100
0000
1000
0000
,
0002
0000
0203
0000
,
0320
0000
2030
0000
,
3002
0023
0032
2003
,
3010
0000
0000
0100
,
1001
0000
0001
0000
0010
0100
2000
0000
,
3002
0000
0103
0000
0010
1000
0100
0010
,
0200
0000
1300
0000
0001
0100
0020
0000
,
2030
0000
0000
0000
0000
3000
0000
0000
1001
0000
0000
0000
0000
0000
0000
0000
,
0101
0000
0100
0000
0010
1000
0002
0000
,
0023
0000
0130
0000
0010
0001
2000
0000
,
3020
0000
0130
0010
2000
0000
3010
0100
,
0002
0000
0103
0010
1000
0001
1000
0001
,
0020
0000
0130
0000
1000
0001
2000
0000
,
3020
0000
0130
0000
0001
0010
0100
0010
,
0002
0000
1003
0000
0010
0100
0020
0000
,
2030
0000
0000
0000
0000
3000
0000
0000
1100
0000
0000
0000
0000
0000
0000
0000
,
1001
0000
0001
0000
1000
0100
0020
0000
,
0032
0000
0013
0000
0001
1000
0020
0000
,
0130
0000
0000
0100
0000
0000
0000
0000
,
0001
0000
0000
0001
0000
0000
0000
0000
,
1100
0000
0100
1000
0002
0000
0000
0000
,
0000
0000
0103
0100
,
0020
0000
1030
0000
0001
0010
0001
0000
,
2000
0000
0000
0000
0000
3000
0000
0000
1010
0000
0000
0000
0000
0000
0000
0000
,
1001
0000
0001
0000
0100
0010
0100
0000
,
0100
0010
0100
0000
0100
0000
0020
0000
,
2030
0000
3100
0100
0020
0000
0000
0030
,
0002
0000
0000
0003
2001
0000
0000
0000
,
3020
0130
0002
0000
,
0023
0000
0130
0000
1000
0100
1000
0100
,
0020
0000
0031
0000
1000
0001
1000
0000
,
0020
0030
0110
0000
,
1010
0000
0000
0000
1000
0100
0010
0000
,
0002
0000
0013
0000
0001
1000
0001
0000
,
0100
0000
0000
0100
0000
0010
0000
0000
,
1000
0000
0000
0000
0000
0001
0000
0000
,
0020
0000
0130
0100
2000
0000
0000
0000
,
3020
0000
0032
0000
,
0023
0000
0130
0000
0010
0000
0010
1000
,
0010
0000
0010
1000
0001
1000
0001
0000
,
0020
0130
2000
0000
,
3200
0000
0302
0000
,
0203
0000
0310
0000
2002
3003
0010
0000
,
2002
3003
0010
0000
1001
0000
0000
0000
,
2000
3010
0200
0000
,
0302
0000
0000
0000
1003
0100
1000
0100
,
2000
0000
3001
0100
0001
0000
0001
0100
,
0001
0000
0001
0100
0001
0000
2000
0000
,
3200
0000
0310
0000
0001
0100
0010
0000
,
1000
0000
0001
0000
0000
0001
1000
0000
,
0100
0010
0100
0010
0001
0010
0001
0010
,
0002
0000
0000
1003
,
1001
0000
0000
0000
;

//---------------dance-single - Loodee----------------
#NOTES:
     dance-single:
     Loodee:
     Beginner:
     2:
     0.084573,0.152231,0.000000,0.033829,0.000000,70.000000,70.000000,0.000000,4.000000,0.000000,0.000000,0.084573,0.152231,0.000000,0.033829,0.000000,70.000000,70.000000,0.000000,4.000000,0.000000,0.000000:
// measure 0
0000
0000
0000
0000
,  // measure 1
0000
0000
0000
0000
,  // measure 2
0000
0000
0000
0000
,  // measure 3
0000
0000
0000
0000
,  // measure 4
0001
0000
0000
0000
,  // measure 5
0000
0000
0000
0000
,  // measure 6
0000
0000
0000
0000
,  // measure 7
0000
0000
0000
0000
,  // measure 8
0001
0000
0000
0000
,  // measure 9
0000
0000
0000
0000
,  // measure 10
0001
0000
0000
0000
,  // measure 11
0000
0000
0000
0000
,  // measure 12
1000
0000
0000
0000
,  // measure 13
0000
0000
0000
0000
,  // measure 14
1000
0000
0000
0000
,  // measure 15
1000
0000
0000
0000
,  // measure 16
0020
0000
0000
0000
,  // measure 17
0000
0000
0000
0000
,  // measure 18
0000
0000
0000
0000
,  // measure 19
0000
0000
0030
0000
,  // measure 20
1000
0000
0000
0000
,  // measure 21
1000
0000
0000
0000
,  // measure 22
0001
0000
0000
0000
,  // measure 23
0001
0000
0000
0000
,  // measure 24
0100
0000
0000
0000
,  // measure 25
0010
0000
0000
0000
,  // measure 26
0100
0000
0000
0000
,  // measure 27
0001
0000
0000
0000
,  // measure 28
1000
0000
0000
0000
,  // measure 29
0100
0000
0000
0000
,  // measure 30
1000
0000
1000
0000
,  // measure 31
1000
0000
0000
0000
,  // measure 32
0001
0000
0000
0000
,  // measure 33
0100
0000
0000
0000
,  // measure 34
0001
0000
0000
0000
,  // measure 35
1000
0000
0000
0000
,  // measure 36
0100
0000
0000
0000
,  // measure 37
0010
0000
0000
0000
,  // measure 38
0002
0000
0000
0000
,  // measure 39
0000
0000
0003
0000
,  // measure 40
0100
0000
0200
0000
,  // measure 41
0000
0000
0300
0000
,  // measure 42
0010
0000
0010
0000
,  // measure 43
0010
0000
0000
0000
,  // measure 44
1000
0000
1000
0000
,  // measure 45
1000
0000
1000
0000
,  // measure 46
1000
0000
0000
0000
,  // measure 47
0001
0000
0000
0000
,  // measure 48
1000
0000
0000
0000
,  // measure 49
0100
0000
0100
0000
,  // measure 50
0100
0000
0000
0000
,  // measure 51
0010
0000
0000
0000
,  // measure 52
0100
0000
0000
0000
,  // measure 53
1000
0000
0000
0000
,  // measure 54
0001
0000
0000
0000
,  // measure 55
0000
0000
0000
0000
,  // measure 56
0001
0000
0000
0000
,  // measure 57
0100
0000
0000
0000
,  // measure 58
0010
0000
0010
0000
,  // measure 59
0010
0000
0010
0000
,  // measure 60
0010
0000
0000
0000
,  // measure 61
1000
0000
0000
0000
,  // measure 62
0001
0000
0001
0000
,  // measure 63
0001
0000
0001
0000
,  // measure 64
0001
0000
0000
0000
,  // measure 65
0010
0000
0000
0000
,  // measure 66
0100
0000
0100
0000
,  // measure 67
0100
0000
0100
0000
,  // measure 68
0100
0000
0000
0000
,  // measure 69
1000
0000
0000
0000
,  // measure 70
0010
0000
0010
0000
,  // measure 71
0200
0000
0000
0300
,  // measure 72
0001
0000
0000
0000
;
