#TITLE:Rocket Lanterns;
#SUBTITLE:;
#ARTIST:Farhan Sarasin;
#TITLETRANSLIT:;
#SUBTITLETRANSLIT:;
#ARTISTTRANSLIT:;
#GENRE:;
#CREDIT:;
#BANNER:Rocket Lanterns-bn.png;
#BACKGROUND:Rocket Lanterns-bg.png;
#LYRICSPATH:;
#CDTITLE:cd-title-Benpai.png;
#MUSIC:Rocket Lanterns.ogg;
#OFFSET:0.009000;
#SAMPLESTART:52.490997;
#SAMPLELENGTH:15.000000;
#SELECTABLE:YES;
#DISPLAYBPM:128.000000;
#BPMS:0.000000=128.000000
,79.000000=192.000000
,79.750000=64.000000
,80.000000=128.000000
,179.000000=192.000000
,179.750000=64.000000
,180.000000=128.000000
;
#STOPS:
;
#BGCHANGES:;
#KEYSOUNDS:;
#ATTACKS:;

//---------------dance-single - Benpai----------------
#NOTES:
     dance-single:
     Benpai:
     Challenge:
     11:
     0.797997,0.805421,0.225627,0.512789,1.005066,817.000000,784.000000,33.000000,75.000000,15.000000,0.000000,0.797997,0.805421,0.225627,0.512789,1.005066,817.000000,784.000000,33.000000,75.000000,15.000000,0.000000:
0000
0000
0000
0000
,
0000
0000
0000
0000
,
0000
0000
0000
0000
,
0000
0000
0000
0000
0000
0000
0000
0000
0000
0000
0000
0000
0000
0000
0000
0000
00M0
0000
0M00
00M0
0M00
0000
00M0
0000
0001
0000
0100
0000
0001
0000
1000
0000
,
1100
0000
0000
0000
0000
0000
1100
0000
0000
0000
0000
0000
1100
0000
0000
0000
0100
M000
0100
0000
0001
0000
0100
0000
2000
0000
3000
0000
0200
0000
0300
0000
,
0101
0000
0000
0000
0000
0000
0101
0000
0000
0000
0000
0000
0101
0000
0000
0000
0001
0000
1000
0100
1000
0000
0001
0000
0100
0000
0010
0000
1000
0000
0100
0000
,
0110
0000
0000
0000
0000
0000
0110
0000
0000
0000
0000
0000
0110
0000
0000
0000
0100
M000
0100
0000
0001
0000
0010
0000
2000
0000
0000
3000
0020
0000
0000
0030
,
0110
0000
0000
0100
1000
0010
0100
0001
0101
0000
0000
1001
2000
0000
3200
0000
,
0310
0000
0001
0000
0100
0000
0000
0000
0010
0000
0100
0000
0001
0000
1000
0000
0100
00M0
0100
0000
0001
0000
0100
0000
0020
0000
0000
0000
0130
0000
0001
0000
,
1000
0000
0000
0000
0000
0000
0000
0000
0000
1000
0000
0000
0001
0000
0000
0010
0000
0000
0100
0000
0000
1000
0000
0000
0001
0000
0100
0000
0001
0000
1000
0000
0000
0100
0000
0000
0001
0000
0000
0100
0000
0000
0010
0000
0000
0001
0000
0000
,
1000
0000
0001
0000
0100
0000
0000
0000
0010
0000
0100
0000
0001
0000
1000
0000
0100
00M0
0100
00M0
0100
00M0
0100
00M0
0200
0000
0000
0000
0000
0000
0300
0000
,
2010
0000
0000
0000
3100
0100
0100
0100
0021
0000
0000
0000
0031
0000
0000
0000
,
0100
0001
1000
0000
0100
0010
0001
1000
0001
0100
0000
0100
0010
0000
0000
0000
,
0100
0001
0000
0001
1000
0100
1000
0001
0100
0000
0010
0000
0010
0000
0010
0000
,
0100
0001
1000
0000
0100
0010
0100
1000
0001
0100
0000
0100
0010
0000
0010
0000
,
1000
0001
1000
0001
0010
0100
1000
0001
0100
0000
0020
0000
1030
0000
0002
0000
,
1003
0100
1000
0000
0010
0100
0001
1000
0100
0000
0100
0000
0020
0000
0032
0000
,
1003
1000
0010
0010
0100
0100
0002
2003
,
3001
0010
0100
1000
0001
0100
0010
0100
0001
1000
0100
1000
0010
1000
0001
0100
,
0011
0000
1000
0000
0101
0000
1000
0000
0011
0000
0100
0001
1MM0
0000
0000
0000
,
0001
1000
0100
1000
0001
0000
0010
0000
0400
0000
0000
0300
0010
0000
0001
0000
,
0100
0000
0001
1000
0000
0010
0100
0000
0001
0000
0010
0100
0002
0000
0203
0000
,
1300
0001
1000
0010
0100
0000
0001
0000
4000
0000
0000
3000
0100
0000
0010
0000
,
1000
0000
0000
0000
0000
0000
0010
0000
0000
0100
0000
0000
0000
0000
0000
0100
0000
0000
2000
0000
0000
0000
0000
0000
0001
0000
0000
0000
0000
0000
3010
0000
0100
0000
0001
0000
2000
0000
0000
0000
0000
0000
0000
0000
0000
0000
0000
0000
,
3100
0010
0001
1000
0010
0000
0100
0000
0004
0000
0000
0003
1000
0000
0100
0000
,
1000
0000
0001
0100
0000
0010
1000
0000
0001
0000
0010
0100
0002
0000
0203
0000
,
1300
0001
0100
0010
1000
0000
0100
0000
4000
0000
0000
3000
0001
0000
0100
0000
,
0110
0000
0000
0010
0000
0000
1010
0000
0000
1000
0000
0000
1001
0000
0000
1000
0001
1000
0200
0000
0000
0000
0000
0000
,
0310
0001
1000
0001
0100
0000
0010
0000
4000
0000
0000
3000
0100
0000
1000
0000
,
0001
0000
0100
0010
0000
1000
0100
0000
0010
0000
0100
0010
2000
0000
3020
0000
,
0130
1000
0001
0100
0010
0000
0100
0000
0004
0000
0000
0003
0010
0000
0100
0000
,
0001
0000
0000
0000
0000
0000
0100
0000
0000
0010
0000
0000
0000
0000
0000
0010
0000
0000
0002
0000
0000
0000
0000
0000
1000
0000
0000
0000
0000
0000
0103
0000
0010
0000
1000
0000
0002
0000
0000
0000
0000
0000
0000
0000
0000
0000
0000
0000
,
0013
0100
1000
0001
0100
0000
0010
0000
4000
0000
0000
3000
0100
0000
0010
0000
,
0001
0000
1000
0010
0000
0100
0001
0000
1000
0000
0100
0010
2000
0000
3020
0000
,
0031
1000
0010
0100
0001
0000
0010
0000
0004
0000
0000
0003
1000
0000
0010
0000
,
0110
0000
0000
0100
0000
0000
0101
0000
0000
0001
0000
0000
0011
0000
0000
0010
0100
1000
0002
0000
0000
1003
0000
0000
,
0010
0000
0100
0000
0010
0000
1000
0000
0001
0000
0010
0000
0100
0000
0010
0000
0001
0000
1000
0010
1000
0000
0001
0000
0040
0000
0000
0000
0000
0000
0030
0000
,
0100
1000
0100
0000
0010
0001
1000
0010
0100
0010
1000
0001
0020
0000
0230
0000
,
1300
0000
0000
0001
0000
0000
1000
0000
0000
0010
0000
0000
0100
0000
0000
1000
0000
0000
0100
0000
0000
0010
0000
0000
1000
0000
0001
0000
1000
0000
0100
0000
0000
0010
0000
0000
2000
0000
0000
0000
0000
0000
3020
0000
0000
0000
0000
0000
,
0031
1000
0001
0000
0100
0010
1000
0001
1000
0100
0000
1000
0020
0000
0230
0000
,
0301
0000
0000
0100
0000
0000
0001
0000
0000
0010
0000
0000
0100
0000
0000
0001
0000
0000
0100
0000
0000
0010
0000
0000
0001
0000
1000
0000
0001
0000
0100
0000
0000
0010
0000
0000
0002
0000
0000
0000
0000
0000
0023
0000
0000
0000
0000
0000
,
1030
0001
1000
0000
0100
0010
0001
0100
0010
0100
0001
1000
0200
0000
0320
0000
,
0031
0000
0000
1000
0000
0000
0001
0000
0000
0010
0000
0000
0100
0000
0000
0001
0000
0000
0100
0000
0000
0010
0000
0000
0001
0000
1000
0000
0001
0000
0100
0000
0000
0010
0000
0000
0002
0000
0000
0000
0000
0000
0023
0000
0000
0000
0000
0000
,
1030
0001
1000
0000
0100
0010
0001
1000
0001
0100
0000
0001
0020
0000
0230
0000
,
1300
0000
0010
0100
0001
0000
1000
0100
0010
0000
0001
0100
M010
0000
0000
0000
,
2010
0000
0000
0000
3001
0000
0010
0000
0100
0000
0100
0000
0100
0000
0010
0001
,
1000
0000
0000
0000
1000
0000
0000
0000
1000
0000
0000
0000
0001
0000
0000
0000
0000
0000
0000
0000
0000
1000
0000
0000
0020
0000
0000
0000
0000
0000
0030
0000
0000
0000
0100
0000
0001
0000
0000
1000
0000
0000
0100
0000
0000
0010
0000
0000
,
0001
1000
0001
0000
1000
0000
0010
0000
0100
0001
0100
0000
0010
0000
1000
0000
0100
0010
0100
0000
1000
0000
0001
0000
0100
0000
0000
0000
0010
0000
1000
0000
,
0200
0000
1300
0001
1000
0000
0010
0000
0400
0000
0000
0000
0301
1000
0001
1000
,
0010
0000
0010
0000
0010
0000
0100
0001
0010
0000
0010
0000
0010
0000
0100
1000
,
0001
0000
0000
0000
0001
0000
0000
0000
0001
0000
0000
0000
0100
0000
0000
0000
0000
0000
0000
0000
0000
0001
0000
0000
2000
0000
0000
0000
0000
0000
0000
0000
0000
3000
0000
0000
0100
0000
0000
0010
0000
0000
0001
0000
0000
1000
0000
0000
,
0010
0100
0010
0000
1000
0000
0001
0000
1000
0100
1000
0000
0001
0000
0100
0000
0010
1000
0010
0000
0100
0000
0001
0000
1000
0000
0000
0000
0100
0000
0000
0000
,
0021
0000
0000
0000
0130
1000
0001
1000
0001
0100
0000
0010
0002
0000
0023
0000
,
1030
0000
0010
0000
1000
0000
0001
0000
1000
0000
0100
0000
0010
0000
0100
0000
1000
0000
0001
1000
0001
0000
0100
0000
2000
0000
0000
0000
3200
0000
0000
0000
,
0310
1000
0010
0000
0100
0001
1000
0010
1000
0100
0000
0010
2000
0000
3020
0000
,
0031
0000
0010
0000
0001
0000
1000
0000
0001
0000
0100
0000
0010
0000
1000
0000
0001
0000
1000
0001
1000
0000
0100
0000
0002
0000
0000
0000
0203
0000
0000
0000
,
0310
0001
1000
0010
0100
0010
2000
3002
,
0013
0100
1000
0001
0100
0010
0200
0302
,
1003
0000
0010
0000
1000
0000
0001
0000
1000
0000
0100
0000
0010
0000
0001
1000
0001
0000
1000
0000
0001
0000
0100
0010
0100
0000
0001
0000
0010
0000
0100
0000
,
1010
0000
0001
0000
1100
0000
0001
0000
1010
0000
0100
1000
0040
0000
0000
0030
,
1002
0000
0000
0000
0103
0010
1000
0001
1000
0100
1000
0001
0100
0000
0010
0000
,
1010
0000
0000
0000
0010
0000
0100
0000
0000
0000
0010
0000
0100
0000
0000
0000
0010
0000
0100
0000
0000
0000
0010
0000
0200
0000
0000
0000
0301
0000
1000
0001
,
0010
0100
1000
0001
0100
0000
0001
2000
0000
0000
0000
0000
0000
0000
3100
0100
,
1000
0000
0001
0001
0010
0000
0100
1000
0010
0100
0001
1000
0100
0010
0100
1000
,
0004
0000
0000
1003
0400
0000
0000
0300
0040
0000
0000
0130
4000
0000
0000
3000
,
0040
0000
0000
0130
0004
0000
0000
0003
0040
0000
0000
0130
4000
0000
0000
3000
,
0040
0000
0000
0130
0004
0000
0000
0003
1000
0100
0000
0100
0010
0000
0001
1000
,
0010
0000
0000
0000
0100
0000
0001
0100
0020
0000
0000
0000
0130
0000
0001
0000
2000
0000
0000
0000
3001
0010
0100
0000
2000
0000
0000
0000
3001
0000
0000
0000
,
1001
0001
1000
0100
0010
0000
0100
0000
4000
0000
0000
3000
0100
0000
1000
0000
,
0001
0000
0100
0010
0000
1000
0100
0000
0010
0000
0100
0010
2000
0000
3020
0000
,
0130
1000
0001
0100
0010
0000
0100
0000
0004
0000
0000
0003
1000
0000
0100
0000
,
0001
0000
0000
0000
0000
0000
0100
0000
0000
0010
0000
0000
0000
0000
0000
0010
0000
0000
0002
0000
0000
0000
0000
0000
1000
0000
0000
0000
0000
0000
0103
0000
0010
0000
1000
0000
0002
0000
0000
0000
0000
0000
0000
0000
0000
0000
0000
0000
,
0013
0100
1000
0001
0100
0000
0010
0000
4000
0000
0000
3000
0100
0000
0010
0000
,
0100
0000
1000
0010
0000
0100
0001
0000
1000
0000
0100
0010
2000
0000
3020
0000
,
0031
1000
0010
0100
0001
0000
0010
0000
0004
0000
0000
0003
1000
0000
0010
0000
,
0110
0000
0000
0000
0100
0000
0000
0000
1001
0000
0000
0000
1000
0000
0001
0000
0020
0000
0000
0000
0000
0000
0130
1000
0002
0000
0000
0000
0000
0000
0000
0000
,
0003
0000
0000
0000
;

//---------------dance-single - Benpai----------------
#NOTES:
     dance-single:
     Benpai SH:
     Hard:
     9:
     0.603626,0.623551,0.252976,0.724742,0.335022,618.000000,581.000000,37.000000,106.000000,0.000000,0.000000,0.603626,0.623551,0.252976,0.724742,0.335022,618.000000,581.000000,37.000000,106.000000,0.000000,0.000000:
0000
0000
0000
0000
,
0000
0000
0000
0000
,
0000
0000
0000
0000
,
0000
0000
0000
0000
,
1100
0000
0000
1100
0000
0000
1100
0000
0100
0000
0010
0000
0002
0003
0200
0300
,
0101
0000
0000
0101
0000
0000
0101
0000
0001
1000
0001
0000
0020
0030
0200
0300
,
0110
0000
0000
0110
0000
0000
0110
0000
0010
0000
0001
0000
2000
3000
0020
0030
,
1010
0000
0000
1010
0000
0000
0000
0000
0011
0000
0000
0001
0200
0000
0310
0000
,
1010
0000
0000
1010
0000
0000
1010
0000
1000
0000
0001
0000
0020
0030
0200
0300
,
1100
0000
0000
1100
0000
0000
1100
0000
1000
0001
1000
0000
0020
0030
0200
0300
,
0101
0000
0000
0101
0000
0000
0101
0000
0001
1000
0001
1000
0200
0000
0000
0300
,
0120
0000
0000
0000
0130
1000
0100
1000
0002
0000
0000
0000
0103
0000
0000
0000
,
0010
0000
1000
0000
0100
0000
0010
0000
0001
1000
0000
1000
0010
0000
0000
0000
,
0100
0000
0001
1000
0100
0010
0010
0001
,
1000
0000
0001
0000
0100
0000
0010
0000
1000
0001
0000
0001
0010
0000
0010
0000
,
0100
1000
0010
0100
0001
0020
0130
0020
,
0031
0000
1000
0000
0010
0100
0010
0000
1000
0000
0001
0000
0020
0000
0230
0000
,
1300
0001
0100
0010
1000
0001
2000
3200
,
0310
0001
1000
0000
0001
0100
0010
0000
1000
0001
0000
0001
0010
0000
0100
0000
,
1100
0000
1000
0000
1001
0000
0001
0000
0101
0000
0100
0010
1000
0000
0000
0000
,
0001
0000
1000
0000
0100
0000
0010
0000
0200
0000
0000
0300
1000
0000
0001
0000
,
0100
0000
0001
1000
0000
0010
0100
0000
0001
0000
0010
0000
2000
0000
3020
0000
,
0130
0000
1000
0000
0001
0000
0100
0000
0002
0000
0000
0003
1000
0000
0100
0000
,
0010
0000
0100
1000
0000
1000
0002
0000
0000
0000
0000
0000
0203
0000
0000
0000
,
0310
0000
1000
0000
0001
0000
0010
0000
0200
0000
0000
0300
1000
0000
0001
0000
,
0100
0000
0010
0100
0000
0010
1000
0000
0001
0000
0010
0000
2000
0000
3020
0000
,
0130
0000
1000
0000
0010
0000
0100
0000
0002
0000
0000
0003
1000
0000
0100
0000
,
0020
0000
0130
0000
2000
0000
3010
0000
0200
0000
0301
1000
0200
0000
0000
0000
,
0310
0000
0100
0000
1000
0000
0010
0000
0200
0000
0000
0300
0001
0000
1000
0000
,
0001
0000
0100
0010
0000
0100
0001
0000
1000
0000
0100
0000
0002
0000
0203
0000
,
0310
0000
0001
0000
1000
0000
0010
0000
0200
0000
0000
0300
0010
0000
1000
0000
,
0100
0000
0010
0001
0000
0001
2000
0000
0000
0000
0000
0000
3002
0000
0000
0000
,
0103
0000
0010
0000
1000
0000
0001
0000
0020
0000
0000
0030
0100
0000
1000
0000
,
0001
0000
0100
0010
0000
0100
0001
0000
1000
0000
0100
0000
0002
0000
0203
0000
,
0310
0000
0001
0000
1000
0000
0010
0000
0200
0000
0000
0300
0001
0000
0010
0000
,
0110
0100
1100
1000
1020
0000
0230
0000
,
0301
0000
1000
0000
0100
0000
0010
0000
0001
1000
0010
0000
0400
0000
0000
0300
,
0101
0000
0001
0000
0010
0000
0100
0000
1000
0001
1000
0001
0200
0000
0320
0000
,
1030
0000
0001
0000
0010
0000
0100
0000
1000
0001
0100
0000
2000
0000
3200
0000
,
0301
0000
1000
0000
0100
0000
0010
0000
0001
1000
0001
1000
0020
0000
0230
0000
,
0301
0000
1000
0000
0100
0000
0010
0000
0001
1000
0100
0000
0002
0000
0203
0000
,
0310
0000
0001
0000
1000
0000
0010
0000
0100
0001
0100
0001
2000
0000
3200
0000
,
0310
0000
0001
0000
0100
0000
0010
0000
1000
0001
0010
0000
2000
0000
3020
0000
,
0130
0000
1000
0000
0010
0000
0100
0000
0001
1000
0001
1000
0200
0000
0320
0000
,
0031
0000
1000
0000
0001
0000
0100
0000
0010
0000
1000
0000
0002
0000
0000
0003
,
0021
0000
0000
0000
0130
0000
1000
0000
0010
0000
0010
0000
0010
0000
0100
0001
,
1000
0000
0000
0000
0100
0000
0000
0000
1000
0000
0000
0000
0001
0000
0000
0000
0000
0000
0000
0000
0000
0100
0000
0000
0020
0000
0000
0000
0000
0000
0000
0000
0000
0030
0000
0000
0100
0000
0000
0000
0000
0000
0001
0000
0000
0000
0000
0000
,
0010
0100
0010
0000
0001
1000
0001
0000
1000
0010
0100
0000
0001
0000
0010
0100
,
2000
0000
3001
0000
0100
0000
0010
0000
2000
0000
0000
0000
3001
0000
0100
0010
,
1000
0000
1000
0000
1000
0000
0100
0010
0001
0000
0001
0000
0001
0000
0100
0010
,
1000
0000
0000
0000
0001
0000
0000
0000
1000
0000
0000
0000
0100
0000
0000
0000
0000
0000
0000
0000
0000
0010
0000
0000
0002
0000
0000
0000
0000
0000
0000
0000
0000
0003
0000
0000
1000
0000
0000
0000
0000
0000
0010
0000
0000
0000
0000
0000
,
0100
0001
1000
0000
0100
0010
0001
0000
1000
0010
0100
0000
0001
0000
0010
0000
,
0120
0000
0000
0000
0031
0000
1000
0000
0010
0100
0000
0100
0002
0000
2003
0000
,
3100
0000
0010
0000
0001
0000
0100
0000
0010
1000
0100
0000
0002
0000
0203
0000
,
0310
0000
0001
0000
1000
0000
0010
0000
0100
0001
0100
0001
2000
0000
3200
0000
,
0310
0000
0001
0000
1000
0000
0010
0000
0100
0001
0010
0000
2000
0000
3020
0000
,
0130
1000
0001
0100
0010
0100
0001
1000
,
0100
0010
0001
1000
0010
0100
0020
2030
,
3001
0000
0010
0000
0100
0000
1000
0001
1000
0000
0010
0100
0001
0000
1000
0000
,
1100
0000
0100
0000
0110
0000
0010
0000
0011
0000
0001
1000
0020
0000
0000
0030
,
0210
0000
0000
0000
0301
0000
1000
0000
0100
0010
0100
0010
0001
0000
1000
0000
,
0010
0000
0100
0010
0000
0100
0010
0000
0100
0010
0000
0100
0020
0000
1030
0001
,
0010
0000
0100
0000
1000
0000
0001
0200
0000
0000
0000
0000
0000
0000
0310
1000
,
0001
0000
0010
0100
1000
0000
0001
0100
0010
0000
0100
0000
0001
0000
1000
0000
,
0200
0000
0000
0310
0002
0000
0000
0003
0200
0000
0000
0310
2000
0000
0000
3000
,
0200
0000
0000
1300
0002
0000
0000
0003
0020
0000
0000
0130
2000
0000
0000
3000
,
0020
0000
0000
0130
0002
0000
0000
0000
0000
0000
0000
0000
1003
0000
0100
0010
,
0100
0000
1000
0000
0020
0000
0130
0000
0002
0000
0013
0000
0200
0000
0000
0300
,
1001
0000
0001
0000
0100
0000
0010
0000
2000
0000
0000
3000
0001
0000
0010
0000
,
0100
0000
0010
0001
0000
0100
0010
0000
1000
0000
0100
0000
0002
0000
0203
0000
,
0310
0000
0001
0000
1000
0000
0010
0000
0200
0000
0000
0300
0010
0000
1000
0000
,
0100
0000
0010
0001
0000
0001
2000
0000
0000
0000
0000
0000
3002
0000
0000
0000
,
0103
0000
0010
0000
1000
0000
0100
0000
0020
0000
0000
0030
0001
0000
1000
0000
,
0001
0000
0100
0010
0000
0100
0001
0000
1000
0000
0100
0000
0002
0000
0203
0000
,
0310
0000
0001
0000
1000
0000
0010
0000
0200
0000
0000
0300
0010
0000
1000
0000
,
1001
0001
0010
0100
2000
0000
3002
0000
,
0003
0000
0000
0000
;

//---------------dance-single - Benpai----------------
#NOTES:
     dance-single:
     Benpai SE:
     Easy:
     4:
     0.274464,0.285794,0.102558,0.164092,0.006837,281.000000,266.000000,15.000000,24.000000,0.000000,0.000000,0.274464,0.285794,0.102558,0.164092,0.006837,281.000000,266.000000,15.000000,24.000000,0.000000,0.000000:
0000
0000
0000
0000
,
0000
0000
0000
0000
,
0000
0000
0000
0000
,
0000
0000
0000
0000
,
0101
0000
0001
0000
,
1001
0000
1000
0000
,
1100
0000
0100
0000
,
0011
0000
0010
0000
,
0110
0000
0100
0000
,
1100
0000
0001
0000
,
0101
0000
0400
0300
,
0220
0330
2020
3030
,
1000
0001
0100
0001
,
0010
0100
1000
1000
,
0001
1000
0010
1000
,
0100
0010
0001
0001
,
0100
0010
0100
0001
,
1000
0001
0010
0100
,
2000
0000
0000
0000
,
3010
0010
0010
0100
,
1001
0001
1000
0100
,
1000
0000
0001
0000
0100
0000
0010
1000
,
0001
1000
0100
0010
,
0100
1000
0001
0100
,
0001
1000
0010
0100
,
0001
0000
1000
0000
0001
0000
0010
0100
,
1000
0001
0100
0001
,
0020
0000
0000
0000
0230
0000
0000
0000
0320
0000
0000
0000
0032
0000
0000
0003
,
1001
1000
0001
0010
,
0001
0000
1000
0000
0010
0000
0100
0001
,
1000
0001
0010
0100
,
0010
0001
1000
0010
,
1000
0001
0100
0010
,
1000
0000
0001
0000
1000
0000
0100
0010
,
0001
1000
0010
1000
,
0200
2300
3020
0230
,
0300
0000
0000
0000
,
1001
0001
0100
0010
,
0100
0001
0010
1000
,
0010
0100
1000
0001
,
0010
0001
0100
1000
,
0100
0010
1000
0001
,
1000
0100
0010
1000
,
0010
0001
1000
0010
,
0100
0000
0000
0000
0100
0000
0000
0000
0100
0000
0000
0000
0002
0000
0000
0003
,
1000
0000
0100
0010
0001
0000
0001
0000
,
0100
0000
0000
0000
0100
0000
0000
0001
1000
0000
0000
0000
0100
0000
0000
0000
,
0010
0100
1000
0001
,
0100
0010
1000
0001
,
0010
0000
0100
1000
0010
0000
0010
0000
,
0100
0000
0000
0000
0100
0000
0000
0001
1000
0000
0000
0000
0100
0000
0000
0000
,
0010
0100
1000
0001
,
0102
0000
1003
0100
,
2000
0000
3010
0100
,
0002
0000
1003
0010
,
0200
0000
0301
0010
,
0100
0100
1000
1000
,
0001
0001
0100
0010
,
2000
0000
0000
0000
,
3001
0001
0001
0010
,
1002
0000
0000
0000
,
0103
0010
0100
0001
,
1000
0100
1000
0001
,
0100
0010
0100
0001
,
1000
0100
0010
0100
,
1000
0001
0100
0001
,
0010
0100
1000
0001
,
0100
0000
0010
1000
0001
0000
1000
0000
,
1100
0100
0010
0001
,
1000
0000
0010
0000
0100
0000
0001
0010
,
0100
1000
0001
0100
,
0010
1000
0100
1000
,
0001
0100
0001
0010
,
0100
0000
1000
0000
0001
0000
0100
0010
,
1000
0001
0010
0100
,
2000
3020
0230
0302
,
0003
0000
0000
0000
;

//---------------dance-single - Benpai----------------
#NOTES:
     dance-single:
     Benpai SN:
     Beginner:
     2:
     0.142604,0.207850,0.027349,0.034186,0.000000,146.000000,142.000000,4.000000,5.000000,0.000000,0.000000,0.142604,0.207850,0.027349,0.034186,0.000000,146.000000,142.000000,4.000000,5.000000,0.000000,0.000000:
0000
0000
0000
0000
,
0000
0000
0000
0000
,
0000
0000
0000
0000
,
0000
0000
0000
0000
,
0001
0000
0000
0000
,
1000
0000
0000
0000
,
0100
0000
0000
0000
,
1000
0000
0000
0000
,
0010
0000
0000
0000
,
0100
0000
0000
0000
,
0001
0000
0002
0003
,
1000
0000
0010
0000
,
0100
0000
0001
0000
,
0010
0000
1000
0000
,
0001
0000
0010
0000
,
0100
0000
1000
0000
,
0001
0000
0001
0000
,
0100
0000
0100
0000
,
0020
0000
0000
0030
,
1000
0000
1000
0000
,
1001
0000
0001
0000
,
0010
0000
0100
0000
,
1000
0000
0001
0000
,
0100
0000
0010
0000
,
0100
0000
0001
0000
,
1000
0000
0100
0000
,
1000
0000
0010
0000
,
0100
0100
0001
0001
,
1001
0000
1000
0000
,
0100
0000
1000
0000
,
0001
0000
0100
0000
,
0010
0000
0100
0000
,
0001
0000
1000
0000
,
0100
0000
0010
0000
,
0001
0000
0100
0000
,
0010
0010
1000
1000
,
0000
0000
0000
0000
,
0001
0000
1000
0000
,
0100
0000
1000
0000
,
0010
0000
0100
0000
,
0001
0000
1000
0000
,
0001
0000
0010
0000
,
0100
0000
1000
0000
,
0001
0000
0100
0000
,
0010
0000
0000
0100
,
0001
0000
1000
1000
,
0100
0000
0100
0000
,
0010
0000
0001
0000
,
0100
0000
0001
0000
,
1000
1000
0010
0000
,
0010
0000
0100
0000
,
0001
0000
1000
0000
,
0010
0000
0100
0100
,
0001
0000
1000
0000
,
0100
0000
1000
1000
,
0001
0000
0100
0000
,
0010
0000
1000
0000
,
0001
0000
0010
0000
,
0200
0000
0000
0300
,
1000
0000
1000
0000
,
2001
0000
0000
3000
,
0010
0000
0010
0000
,
0100
0000
0001
0000
,
1000
0000
0100
0000
,
1000
0000
0001
0000
,
0100
0000
0010
0000
,
0100
0000
0001
0000
,
1000
0000
0001
0000
,
1001
0000
1000
0000
,
0100
0000
0010
0000
,
0001
0000
1000
0000
,
0010
0000
0100
0000
,
0010
0000
1000
0000
,
0001
0000
0010
0000
,
0001
0000
0100
0000
,
0010
0010
2000
0000
,
3000
0000
0000
0000
;

//---------------dance-single - Benpai----------------
#NOTES:
     dance-single:
     Benpai SM:
     Medium:
     6:
     0.373115,0.389720,0.075209,0.451254,0.071790,382.000000,371.000000,11.000000,66.000000,0.000000,0.000000,0.373115,0.389720,0.075209,0.451254,0.071790,382.000000,371.000000,11.000000,66.000000,0.000000,0.000000:
// measure 0
0000
0000
0000
0000
,  // measure 1
0000
0000
0000
0000
,  // measure 2
0000
0000
0000
0000
,  // measure 3
0000
0000
0000
0000
,  // measure 4
0101
0000
0000
0001
0000
0000
0001
0000
0000
0000
0000
0000
0000
0000
0000
0000
,  // measure 5
1010
0000
0000
1000
0000
0000
1000
0000
0200
0000
0000
0000
0310
0000
0001
0000
,  // measure 6
0100
0000
0000
0100
0000
0000
0100
0000
0020
0000
0000
0000
1030
0000
0001
0000
,  // measure 7
0010
0000
0000
0010
0000
0000
0000
0000
0100
0000
0000
0100
0000
0000
0000
0000
,  // measure 8
1100
0000
0000
1000
0000
0000
1000
0000
0002
0000
0000
0000
1003
0000
0010
0000
,  // measure 9
0100
0000
0000
0100
0000
0000
0100
0000
0002
0000
0000
0000
1003
0000
0100
0000
,  // measure 10
0010
0000
0000
0010
0000
0000
0010
0000
0004
0000
0000
0000
0003
0000
0000
0000
,  // measure 11
2002
3003
2020
3030
,  // measure 12
0010
0000
0100
0001
1000
0000
0001
0000
,  // measure 13
0010
0000
0100
1000
0001
0000
1000
0000
,  // measure 14
0010
0000
0100
0001
1000
0000
0100
0000
,  // measure 15
0010
0000
0100
1000
0001
0000
1000
0000
,  // measure 16
0010
0100
0010
0000
1000
0001
1000
0000
,  // measure 17
0100
0010
0001
0000
0100
0010
1000
0000
,  // measure 18
0004
0043
0430
4300
,  // measure 19
3001
0100
0001
0100
0001
1000
0010
0000
,  // measure 20
0110
0000
0100
0001
1000
0000
0001
0010
,  // measure 21
0001
0000
0000
1000
0000
0000
0020
0000
0000
0000
0000
0000
0130
0000
0001
0000
,  // measure 22
1000
0000
0001
1000
0001
0000
0100
0001
,  // measure 23
0010
0000
0000
0100
0000
0000
2000
0000
0000
0000
0000
0000
3001
0000
0000
0000
,  // measure 24
0100
0000
0010
1000
0001
0000
0100
0001
,  // measure 25
1000
0000
0000
0100
0000
0000
2000
0000
0000
0000
0000
0000
3010
0000
0100
0000
,  // measure 26
0001
0000
0010
0100
1000
0000
0001
0000
,  // measure 27
0020
0000
0130
0000
0020
0000
0031
0000
2000
0000
0000
0000
3002
0000
0000
0003
,  // measure 28
1001
0000
1000
0001
0010
0000
0100
1000
,  // measure 29
0100
0000
0000
0010
0000
0000
0002
0000
0000
0000
0000
0000
0103
0000
0010
0000
,  // measure 30
1000
0000
0001
0100
0001
0000
1000
0100
,  // measure 31
0010
0000
0000
0100
0000
0000
2000
0000
0000
0000
0000
0000
3001
0000
0000
0000
,  // measure 32
0100
0000
0010
1000
0001
0000
0100
0001
,  // measure 33
1000
0000
0000
0100
0000
0000
2000
0000
0000
0000
0000
0000
3010
0000
0100
0000
,  // measure 34
0001
0000
0010
0100
1000
0000
0001
0000
,  // measure 35
2000
3100
2000
3010
0200
0000
0302
0000
,  // measure 36
0003
0000
0000
0000
,  // measure 37
1001
0000
1000
0001
0100
0000
0010
0100
,  // measure 38
0001
0000
0010
0100
1000
0000
0010
0100
,  // measure 39
0001
0000
1000
0100
0010
0000
0100
1000
,  // measure 40
0001
0000
0100
0010
1000
0000
0100
0010
,  // measure 41
0001
0000
1000
0010
0100
0000
0001
1000
,  // measure 42
0100
0000
1000
0001
0100
0000
0010
0100
,  // measure 43
0001
0000
1000
0100
1000
0000
0010
0100
,  // measure 44
0001
0001
0001
0020
,  // measure 45
0130
0000
0100
1000
0001
0001
0001
0100
,  // measure 46
0020
0000
0000
0000
1030
0000
0000
0001
1000
0000
0000
0000
0100
0000
0010
0000
,  // measure 47
0002
2003
3020
0230
,  // measure 48
0302
0000
1003
0100
2000
0000
0000
3001
,  // measure 49
0100
0100
0100
0010
1000
1000
1000
0001
,  // measure 50
0020
0000
0000
0000
0130
0000
0000
1000
0001
0000
0000
0000
0100
0000
0010
0000
,  // measure 51
2000
0000
0000
0000
3200
0000
0000
0000
2300
0000
0000
0000
3002
0000
0000
0003
,  // measure 52
0102
0000
2003
0000
3200
0000
0310
0100
,  // measure 53
2000
0000
3002
0000
0203
0000
0310
1000
,  // measure 54
0002
0000
2003
0000
3200
0000
0310
0001
,  // measure 55
2000
0000
3020
0000
0230
0000
0301
1000
,  // measure 56
0100
0100
0010
0010
,  // measure 57
0001
0001
0100
0100
,  // measure 58
0010
1000
0010
1000
0001
0100
0001
0100
,  // measure 59
0010
0010
0010
1000
,  // measure 60
2001
0000
0000
0000
,  // measure 61
3100
0000
0000
0100
0000
0000
0100
0000
0000
0100
0000
0000
0100
0000
0000
0000
,  // measure 62
1000
0000
0001
0100
0001
0000
1000
0000
,  // measure 63
0100
0000
0010
0000
0100
1000
0001
1000
,  // measure 64
0020
0230
0302
0203
,  // measure 65
0320
2030
3200
2300
,  // measure 66
3020
0000
0230
0000
0301
1000
0001
0000
,  // measure 67
0020
0000
0130
1000
0001
1000
0010
0000
,  // measure 68
0110
0000
0100
0001
1000
0000
0001
0010
,  // measure 69
0001
0000
0000
1000
0000
0000
0020
0000
0000
0000
0000
0000
0130
0000
0001
0000
,  // measure 70
1000
0000
0001
1000
0001
0000
0100
0001
,  // measure 71
0010
0000
0000
0100
0000
0000
2000
0000
0000
0000
0000
0000
3001
0000
0000
0000
,  // measure 72
0100
0000
0010
1000
0001
0000
0100
0001
,  // measure 73
1000
0000
0000
0100
0000
0000
2000
0000
0000
0000
0000
0000
3010
0000
0100
0000
,  // measure 74
0001
0000
0010
0100
1000
0000
0001
0000
,  // measure 75
0020
0130
0020
0031
2000
0000
3002
0000
,  // measure 76
0003
0000
0000
0000
;
