#TITLE:Rainbow Locus;
#SUBTITLE:;
#ARTIST:“V‰¹;
#TITLETRANSLIT:;
#SUBTITLETRANSLIT:;
#ARTISTTRANSLIT:Amane;
#GENRE:;
#CREDIT:Loodee;
#BANNER:Rainbow Locus-bn.png;
#BACKGROUND:Rainbow Locus-bg.png;
#LYRICSPATH:;
#CDTITLE:loodeecdtitle.png;
#MUSIC:Rainbow Locus.ogg;
#OFFSET:-0.005;
#SAMPLESTART:90.014;
#SAMPLELENGTH:22.304;
#SELECTABLE:YES;
#DISPLAYBPM:128.000;
#BPMS:0.000=128.000,127.000=256.000,127.500=128.000,127.750=64.000,128.000=192.000,130.000=128.000,136.000=192.000,138.000=128.000,144.000=192.000,146.000=128.000,152.000=256.000,152.500=128.000,152.750=64.000,153.000=192.000,154.000=128.000,159.000=256.000,159.500=128.000,159.750=64.000,160.000=192.000,162.000=128.000,168.000=192.000,170.000=128.000,176.000=192.000,178.000=128.000,184.000=256.000,184.500=128.000,184.750=64.000,185.000=192.000,186.000=128.000,192.000=160.000,194.000=128.000,208.000=160.000,210.000=128.000,216.000=192.000,216.333=128.000,216.667=96.000,217.000=160.000,218.000=128.000,224.000=160.000,226.000=128.000,240.000=160.000,242.000=128.000,248.000=192.000,248.333=128.000,248.667=96.000,249.000=160.000,250.000=128.000;
#STOPS:128.000=0.156
,129.000=0.156
,136.000=0.156
,137.000=0.156
,144.000=0.156
,145.000=0.157
,153.000=0.156
,160.000=0.156
,161.000=0.157
,168.000=0.156
,169.000=0.156
,176.000=0.156
,177.000=0.157
,185.000=0.156
,192.000=0.094
,193.000=0.094
,208.000=0.094
,209.000=0.093
,217.000=0.094
,224.000=0.094
,225.000=0.093
,240.000=0.094
,241.000=0.094
,249.000=0.094
;
#BGCHANGES:;
#KEYSOUNDS:;

//---------------dance-single - Loodee----------------
#NOTES:
     dance-single:
     Loodee:
     Hard:
     9:
     0.548,0.525,0.318,0.223,0.259:
0000
0000
0000
0000
,
0000
0000
0000
0000
,
0000
0000
0000
0000
,
0000
0000
0000
0000
,
0000
0000
0000
0000
,
0000
0000
0000
0000
,
0000
0000
0000
0000
,
0000
0000
0000
0000
,
0001
0000
1000
0000
0100
0000
1000
0100
0000
0000
0010
0000
0001
0000
1000
0010
,
0000
0000
0100
0000
0010
0000
0100
0001
0000
0000
1000
0000
0010
0000
0100
0000
,
0010
0000
1000
0000
0001
0000
0010
0001
0000
0000
1000
0000
0001
0000
0010
0100
,
0000
0000
1000
0000
0001
0000
1000
0100
0000
0000
0010
0000
0001
0100
0010
0000
,
1000
0000
0001
0000
1000
0000
0100
0000
0010
0001
0010
0000
0001
0000
1000
0000
,
0010
0100
0010
0000
1000
0000
0001
0000
1000
0100
0010
0000
0001
0000
1000
0000
,
0100
0000
1000
0000
0001
0000
1000
0000
0001
0100
0001
0100
0010
0000
1000
0000
,
0001
0000
0010
0000
0000
0000
0100
0000
0000
0000
0100
0000
2000
0000
0000
3000
,
1001
0000
0000
0001
0000
0000
0100
0000
0000
0000
0010
0000
1000
0001
1000
0000
,
0100
0000
0010
0000
0001
0010
0001
0010
0100
0000
0000
0000
0000
0000
1000
0010
,
0100
0000
0000
0001
0000
0000
1000
0000
0100
0000
0000
0010
0000
0000
0100
0000
,
1000
0000
0001
0000
0010
0001
0010
0001
1000
0000
0000
0000
0000
0000
0010
0100
,
0010
0000
1000
0001
1000
0000
0000
0000
0000
0000
0100
0010
0000
0000
0001
0000
,
0000
0000
0001
1000
0001
1000
0000
0000
0000
0000
0100
0010
0000
0000
0100
1000
,
0000
0000
0100
1000
0100
1000
0001
0000
0000
0000
0100
0001
0000
0000
0100
0001
,
0000
0000
0100
0001
0100
0001
1000
0000
0010
0000
0100
0000
0010
0000
0000
0000
,
1001
0000
0001
0000
1000
0000
0001
0010
0000
0000
0100
0000
1000
0000
1000
0000
,
0010
0000
0100
0000
0001
0000
0100
0010
0000
0000
1000
0000
0001
0010
0001
0000
,
1000
0000
0010
0000
0100
0000
0010
0100
0000
0000
0001
0000
0010
0000
0100
1000
,
0000
0000
0100
0000
1000
0000
0001
0100
0000
0000
0010
0000
0100
0001
1000
0000
,
0100
0000
0010
0000
0100
0000
1000
0001
1000
0000
0010
0000
0100
0000
0001
0100
,
0001
0000
0010
0000
0100
0000
1000
0100
1000
0100
1000
0000
0001
0000
0100
0000
,
0001
0010
0001
0000
0010
0000
0010
0000
0100
0000
1000
0000
0001
0000
0100
0000
,
0010
1000
0010
0100
0001
0000
1000
0000
0001
0000
0010
0000
0200
0000
0000
0300
,
1100
0000
0011
0000
1100
0100
1000
0001
,
0100
0000
0010
0000
0002
0000
0013
0000
0200
0000
0000
0300
0001
0000
1000
0000
,
0010
0000
0101
0000
1010
1000
0001
0010
,
0100
0000
1100
0000
0100
1000
0001
0100
,
0110
0000
1001
0000
0011
0001
0010
0100
,
2000
0000
3100
0000
2000
0000
3100
0000
0020
0000
0000
0030
0001
0000
1000
0000
,
2000
0000
0000
3000
1010
0000
0000
0000
0010
0000
0100
0010
0100
0000
0001
0000
,
1000
0000
0100
0000
0000
0000
0010
0000
0000
0000
0100
0000
0200
0000
0000
0300
,
1100
0000
1001
0000
0101
0100
0010
1000
,
0100
0000
0010
0000
2000
0000
3010
0000
0200
0000
0000
0300
1000
0000
0001
0000
,
0100
0000
0110
0000
0010
1000
0100
0010
,
0001
0000
0011
0000
0001
0100
0010
1000
,
1001
0000
0110
0000
1001
1000
0010
1000
,
0200
0000
0310
0000
0200
0000
0310
0000
0002
0000
0000
0003
1000
0000
0010
0000
,
0020
0000
0000
0030
1001
0000
0000
0000
1000
0000
0100
0010
0001
0000
0100
0000
,
0010
1000
0010
1000
0001
0000
0010
0000
0100
0000
1000
0000
0020
0000
0000
0030
,
0101
0000
0110
0000
0101
0001
1000
0100
,
0010
0000
0100
1000
0020
0000
0130
0001
,
1000
0010
0100
0000
0002
0000
0000
0000
0013
0000
0000
0100
0000
0000
1000
0100
,
1000
0000
0000
0000
0001
0100
0001
0000
2000
0000
0000
3000
1001
0000
0000
0000
,
0011
0000
0110
0000
0011
0001
0100
0010
,
0100
0000
0101
0000
0001
1000
0100
1000
,
0020
0000
0000
0030
0110
0000
0000
0000
0100
0000
0001
1000
0001
0000
0010
0000
,
0100
0000
1000
0000
0001
0010
0100
0000
1000
0000
0001
0000
0200
0000
0000
0300
,
1001
0000
0101
0000
1001
1000
0100
1000
,
0001
0000
0100
0010
2000
0000
3100
0010
,
0001
1000
0010
0000
2000
0000
0000
0000
3001
0000
0000
0010
0000
0000
0100
1000
,
0100
0000
0000
0000
1000
0001
0100
0000
0020
0000
0000
0030
0101
0000
0000
0000
,
1100
0000
0110
0000
1100
1000
0100
0010
,
0001
0000
0101
0000
0100
0010
1000
0001
,
2000
0000
0000
3000
1100
0000
0000
0000
0100
0000
1000
0010
1000
0000
0001
0000
,
0100
0000
0001
0000
1000
0001
1000
0001
0010
0000
0100
0000
2000
0000
0000
3000
,
2002
0000
0000
0000
,
0000
0000
0000
0000
,
3003
0000
0000
0000
;

//---------------dance-single - Loodee----------------
#NOTES:
     dance-single:
     Loodee:
     Medium:
     6:
     0.447,0.447,0.326,0.215,0.040:
0000
0000
0000
0000
,
0000
0000
0000
0000
,
0000
0000
0000
0000
,
0000
0000
0000
0000
,
0000
0000
0000
0000
,
0000
0000
0000
0000
,
0000
0000
0000
0000
,
0000
0000
0000
0000
,
0001
0000
1000
0000
0001
0000
0000
0100
0000
0000
0010
0000
1000
0000
1000
0000
,
0100
0010
0001
0000
0001
1000
0100
0100
,
1001
0000
0001
0000
0100
0000
0000
0001
0000
0000
1000
0000
0100
0000
0100
0000
,
1000
0001
0100
0000
0100
0001
0010
0010
,
0110
0100
1000
0000
1000
1000
0010
0000
,
0010
0010
1000
0000
0001
0001
0010
0010
,
0001
0110
1100
1001
,
0001
0000
0100
0000
0000
0000
0010
0000
0000
0000
1000
0000
0002
0000
0000
0003
,
0101
0000
0000
0100
0000
0000
0010
0000
0000
0000
1000
0000
0001
0000
0010
0000
,
0100
0000
0100
1000
0001
0100
0000
0000
,
0001
0000
0000
0001
0000
0000
0001
0000
1000
0000
0000
1000
0000
0000
1000
0000
,
0100
1000
0010
0100
0001
0010
0000
0000
,
0100
0000
1000
0000
0100
0000
0000
0000
0000
0000
0000
0100
0000
0000
1000
0000
,
2000
0000
0000
0000
0000
3001
0000
0000
0000
0000
0100
0000
0000
0000
0000
0010
,
0000
1000
0001
1000
0000
0100
0000
0100
,
1000
0001
1000
0001
0100
0000
0100
0000
,
1001
0001
0010
0000
0100
1000
0020
0230
,
0301
1000
0100
0000
0100
0010
0001
0001
,
0001
0100
0010
0000
0010
1000
0002
2003
,
3100
0010
0100
0000
0100
1000
0010
0100
,
0110
0000
0001
1000
1001
0000
0001
0010
,
0100
1000
0100
1000
0001
1000
0001
0100
,
0010
1000
0100
0000
0100
0010
0001
0100
,
0020
0000
0000
0000
1030
0000
0001
0000
1000
0000
0100
0000
0020
0000
0000
0030
,
0011
0000
1100
0000
1000
0100
0010
0001
,
1000
0010
0200
0000
0302
0000
1003
0000
,
1010
0000
0101
0000
0001
0100
0010
1000
,
0100
0000
0110
0000
0010
0001
1000
0001
,
0101
0000
0110
0000
0010
1000
0001
0000
,
1000
0100
1000
0100
0020
0000
0031
0000
,
0002
0000
0103
0000
0010
1000
0001
1000
,
0100
0000
0010
0000
0000
0000
0100
0000
0000
0000
1000
0000
0002
0000
0000
0003
,
1001
0000
0101
0000
0001
1000
0001
0010
,
0100
1000
0002
0000
0203
0000
0310
0000
,
0110
0000
1001
0000
0001
0010
0001
1000
,
0010
0000
0110
0000
0100
0001
1000
0001
,
0011
0000
0110
0000
0100
1000
0001
0000
,
0100
0010
0100
0010
2000
0000
3001
0000
,
0020
0000
0130
0000
0100
1000
0010
0000
,
0010
0100
1000
0000
0100
0001
1000
0000
,
1100
0000
0011
0000
1100
0000
0100
1000
,
0010
0000
0100
0010
0000
0100
0001
1000
,
0100
0000
0000
0000
0110
0000
0000
0000
0010
0000
0000
0001
0000
0000
1000
0000
,
0010
0000
0100
0100
0002
0003
1001
0000
,
1010
0000
0101
0000
1010
0000
1000
0001
,
0010
0000
0110
0000
0100
1000
0100
0000
,
2000
0000
3002
0000
0103
0010
0100
0010
,
1000
0000
0001
0010
0001
0001
1000
0000
,
1001
0000
0110
0000
1001
0000
0001
0010
,
0100
0000
0010
0001
0000
1000
0010
0100
,
0002
0000
0000
0000
2003
0000
0000
0000
3100
0000
0000
0010
0000
0000
0100
0000
,
1000
0000
0001
0000
0100
0000
0000
0000
0020
0000
0000
0030
1001
0000
0000
0000
,
1100
0110
1100
0001
,
0101
0000
0100
0000
0010
1000
0100
0010
,
0200
0000
1300
0000
1000
0001
0100
0001
,
0010
0000
0010
0001
1000
0010
0200
0300
,
2002
0000
0000
0000
,
0000
0000
0000
0000
,
3003
0000
0000
0000
;

//---------------dance-single - Loodee----------------
#NOTES:
     dance-single:
     Loodee:
     Easy:
     5:
     0.324,0.341,0.167,0.239,0.000:
0000
0000
0000
0000
,
0000
0000
0000
0000
,
0000
0000
0000
0000
,
0000
0000
0000
0000
,
0000
0000
0000
0000
,
0000
0000
0000
0000
,
0000
0000
0000
0000
,
0000
0000
0000
0000
,
0001
0000
0000
0000
1000
0001
0100
0000
,
0010
0000
0000
0000
1000
0001
1000
0000
,
0100
0000
0000
0000
0010
0001
0010
0000
,
0100
0000
1000
0001
,
0100
0000
0000
0000
0010
1000
0010
0000
,
0100
0000
0001
0000
,
1001
1001
1001
0001
,
0010
0100
0000
0100
0000
0000
2000
0000
,
3001
0000
0000
0100
,
0010
1000
0001
0000
,
0001
0000
0010
0000
,
0001
1000
0010
0000
,
1000
0000
0100
0000
0000
0000
0000
1000
,
0000
0100
0000
0000
0000
0010
0000
0001
,
0000
1000
0000
0000
0000
0001
0000
0002
,
0000
0000
2000
3003
,
1000
1000
1000
0000
0010
0000
0100
0000
,
0001
0000
0001
0000
0010
0000
0100
1000
,
0100
0000
1000
0000
0001
0000
0100
0010
,
0100
0000
0001
0000
1000
0000
0000
1000
,
0001
1000
0010
0000
0100
0001
0100
0000
,
0001
1000
0001
0000
0010
0100
1000
0000
,
0200
0320
0032
2003
,
3002
0010
0013
0100
,
1001
0110
1001
0001
,
0100
0010
1000
0000
0200
0000
0300
0000
,
1100
0011
1100
1000
,
0001
0000
0100
0000
0010
0100
0001
0000
,
1001
0110
1001
1000
,
0100
0010
0100
0010
0001
0000
0000
0000
,
2000
3020
0130
0001
,
1000
0100
0000
0000
0000
1000
0001
0000
,
0101
1010
0101
0100
,
0001
1000
0100
0000
0020
0000
0030
0000
,
0110
0000
1001
0000
0001
0000
0100
0010
,
0100
0000
0001
0000
1000
0100
0010
0000
,
0011
0110
0011
0001
,
1000
0010
1000
0010
0100
0000
0000
0000
,
0002
0000
0013
0000
0001
0100
0010
0000
,
2000
0000
0001
0000
3100
0010
0001
0000
,
0200
0000
0320
0000
1030
0000
0100
0010
,
0001
0000
0000
0100
0000
0010
1000
0000
,
0001
0020
0130
1000
,
0001
0000
1000
0010
0200
0000
0301
0000
,
2000
0000
3200
0000
0310
0100
1000
0000
,
0010
0000
0100
0000
0001
0100
0010
0000
,
2000
0000
3100
0000
0010
0001
0010
0000
,
0002
0000
0103
0010
,
2000
0000
3002
0000
0013
0000
0100
1000
,
0100
0000
0000
1000
0000
0001
1000
0000
,
0010
0200
0310
1000
,
0001
0000
0010
0100
2000
0000
3001
0000
,
0100
0000
0001
0000
1000
0010
0100
0000
,
0001
0000
0010
0000
0100
0010
0001
0000
,
2000
0000
3010
0000
0100
0010
0100
0000
,
0002
0000
1000
0000
1003
1000
0100
0000
,
2002
0000
0000
0000
,
0000
0000
0000
0000
,
3003
0000
0000
0000
;

//---------------dance-single - Loodee----------------
#NOTES:
     dance-single:
     Loodee:
     Challenge:
     10:
     0.766,0.800,0.517,0.541,0.665:
0000
0000
0000
0000
,
0000
0000
0000
0000
,
0000
0000
0000
0000
,
0000
0000
0000
0000
,
0000
0000
0000
0000
,
0000
0000
0000
0000
,
0000
0000
0000
0000
,
0000
0000
0000
0000
,
1001
0000
0000
0000
0000
0000
0000
0000
1000
0000
0000
0000
0000
0000
0000
0000
0001
0000
0000
0000
0000
0000
0000
0000
0100
0000
0000
0000
0000
0010
0000
0000
0100
0000
0000
0000
0000
0001
0000
0000
1000
0000
0000
0000
0000
0000
0000
0000
0100
0000
0000
0000
0000
0000
0000
0000
0010
0000
0000
0000
0000
0100
0000
0000
,
1000
0000
0000
0000
0000
0100
0000
0000
0010
0000
0000
0000
0000
0000
0000
0000
0001
0000
0000
0000
0000
0000
0000
0000
1000
0000
0000
0000
0000
0010
0000
0000
1000
0000
0000
0000
0000
0001
0000
0000
1000
0000
0000
0000
0000
0100
0000
0000
0010
0000
0000
0000
0000
0001
0000
0000
1000
0000
0000
0000
0000
0000
0000
0000
,
1010
0000
0000
0000
0000
0000
0000
0000
0010
0000
0000
0000
0000
0000
0000
0000
0100
0000
0000
0000
0000
0000
0000
0000
0001
0000
0000
0000
0000
1000
0000
0000
0100
0000
0000
0000
0000
1000
0000
0000
0001
0000
0000
0000
0000
0000
0000
0000
1000
0000
0000
0000
0000
0000
0000
0000
0010
0000
0000
0000
0000
0100
0000
0000
,
0010
0000
0000
0000
0000
1000
0000
0000
0010
0000
0000
0000
0000
0000
0000
0000
0100
0000
0000
0000
0000
0000
0000
0000
0001
0000
0000
0000
0000
1000
0000
0000
0100
0000
0000
0000
0000
0010
0000
0000
0001
0000
0000
0000
0000
0100
0000
0000
0001
0000
0000
0000
0000
1000
0000
0000
0010
0000
0000
0000
0000
0100
0000
0000
,
0001
0000
0000
0000
0000
0000
0000
0000
0010
0000
0000
0000
0000
0000
0000
0000
0001
0000
0000
0000
0000
0000
0000
0000
0001
0000
0000
0000
0000
0010
0000
0000
0100
0000
0000
0000
0000
1000
0000
0000
0100
0000
0000
0000
0000
0000
0000
0000
1000
0000
0000
0000
0000
0000
0000
0000
1000
0000
0000
0000
0000
0010
0000
0000
,
0100
0000
0000
0000
0000
0001
0000
0000
0100
0000
0000
0000
0000
0000
0000
0000
0010
0000
0000
0000
0000
0000
0000
0000
0010
0000
0000
0000
0000
1000
0000
0000
0001
0000
0000
0000
0000
1000
0000
0000
0100
0000
0000
0000
0000
0010
0000
0000
0001
0000
0000
0000
0000
0000
0000
0000
0001
0000
0000
0000
0000
1000
0000
0000
,
0010
0000
0000
0000
0000
0100
0000
0000
0010
0000
0000
0000
0000
0000
0000
0000
1000
0000
0000
0000
0000
0000
0000
0000
0010
0000
0000
0000
0000
0100
0000
0000
0001
0000
0000
0000
0000
1000
0000
0000
0010
0000
0000
0000
0000
1000
0000
0000
0001
0000
0000
0000
0000
0010
0000
0000
0100
0000
0000
0000
0000
0010
0000
0000
,
0001
0000
1000
0000
0010
0000
0000
0100
0010
0000
0010
1000
0002
0000
0000
0000
,
0013
0000
0100
1000
0000
0100
0010
0000
0000
0000
0001
0000
1000
0001
0100
0010
,
1000
0000
0001
0010
0100
0010
0001
1000
0010
0000
0010
0000
0000
0000
0100
0001
,
1000
0000
0001
1000
0000
0100
0010
1000
0010
0000
0010
0001
0000
1000
0001
1000
,
0010
0000
0100
0010
1000
0001
0010
0100
1000
0000
1001
0000
0000
0000
0001
0100
,
0010
0000
1000
0100
0010
0001
0000
0000
0000
0000
0100
0010
0000
0000
1000
0000
,
1000
0100
0010
0001
1000
0010
0000
0000
0000
0000
0100
0001
0000
0000
1000
0100
,
0000
0000
1000
0001
1000
0010
0100
0000
0000
0000
0001
0100
0000
0000
0001
0100
,
0000
0000
0001
1000
0100
1000
0100
0010
0001
0000
0100
0000
0010
1000
0001
0000
,
0011
0000
0000
0000
0000
0000
0000
0000
0010
0000
0000
0000
0000
0000
0000
0000
0001
0000
0000
0000
0000
0000
0000
0000
1000
0000
0000
0000
0000
0010
0000
0000
0100
0000
0000
0000
0000
0010
0000
0000
1000
0000
0000
0000
0000
0000
0000
0000
0100
0000
0000
0000
0000
0000
0000
0000
0100
0000
0000
0000
0000
0010
0000
0000
,
0001
0000
0000
0000
0000
1000
0000
0000
0001
0000
0000
0000
0000
0000
0000
0000
0100
0000
0000
0000
0000
0000
0000
0000
0100
0000
0000
0000
0000
0010
0000
0000
1000
0000
0000
0000
0000
0010
0000
0000
0100
0000
0000
0000
0000
0000
0000
0000
0001
0000
0000
0000
0010
0000
0000
0000
0001
0000
0000
0000
0010
0000
0000
0000
,
0100
0000
0000
0000
0000
0000
0000
0000
1000
0000
0000
0000
0000
0000
0000
0000
0001
0000
0000
0000
0000
0000
0000
0000
1000
0000
0000
0000
0000
0100
0000
0000
0010
0000
0000
0000
0000
0001
0000
0000
1000
0000
0000
0000
0000
0000
0000
0000
0010
0000
0000
0000
0000
0000
0000
0000
0010
0000
0000
0000
0000
0100
0000
0000
,
0001
0000
0000
0000
0000
1000
0000
0000
0100
0000
0000
0000
0000
0000
0000
0000
0010
0000
0000
0000
0000
0000
0000
0000
0010
0000
0000
0000
0000
0100
0000
0000
1000
0000
0000
0000
0000
0001
0000
0000
1000
0000
0000
0000
0000
0010
0000
0000
0100
0000
0000
0000
0000
0001
0000
0000
0100
0000
0000
0000
0000
0001
0000
0000
,
0010
0000
0000
0000
0000
0000
0000
0000
0100
0000
0000
0000
0000
0000
0000
0000
0010
0000
0000
0000
0000
0000
0000
0000
0001
0000
0000
0000
0000
1000
0000
0000
0010
0000
0000
0000
0000
0100
0000
0000
0001
0000
0000
0000
0000
0000
0000
0000
0100
0000
0000
0000
0000
0000
0000
0000
0100
0000
0000
0000
0000
0010
0000
0000
,
1000
0000
0000
0000
0000
0001
0000
0000
1000
0000
0000
0000
0000
0000
0000
0000
0100
0000
0000
0000
0000
0000
0000
0000
0100
0000
0000
0000
0000
1000
0000
0000
0100
0000
0000
0000
0000
0010
0000
0000
0001
0000
0000
0000
0000
1000
0000
0000
0010
0000
0000
0000
0000
0000
0000
0000
0010
0000
0000
0000
0000
0100
0000
0000
,
0001
0000
0000
0000
0000
1000
0000
0000
0001
0000
0000
0000
0000
0000
0000
0000
0100
0000
0000
0000
0000
0000
0000
0000
0010
0000
0000
0000
0000
1000
0000
0000
0001
0000
0000
0000
0000
0010
0000
0000
0100
0000
0000
0000
0000
1000
0000
0000
0001
0000
0000
0000
0000
0010
0000
0000
0100
0000
0000
0000
0000
1000
0000
0000
,
0001
0100
0010
0100
1000
0000
0100
0000
0001
0000
1000
0001
0020
0000
0000
0030
,
2200
0000
0000
3300
2002
0000
0000
3003
1010
0000
0101
0000
0110
0000
0001
0000
,
0011
0000
0010
0000
1000
0000
0010
0000
0200
0000
0000
0000
1300
0000
1000
0001
,
0200
0000
0000
0000
0000
0000
0000
0000
0000
0300
0000
0000
2020
0000
0000
0000
0000
0000
0000
0000
0000
3030
0000
0000
0010
0000
0100
0000
0001
0000
1000
0000
0010
0000
1000
0000
0001
0000
0010
0000
0100
0000
1000
0000
0100
0000
0010
0000
,
0001
0000
0000
0000
0010
0001
1000
0010
0100
0000
0010
0000
1010
0000
1000
0000
,
2002
0000
0000
3003
0022
0000
0000
0033
1100
0000
0011
0000
1010
0000
1000
0010
,
0100
0000
0010
0000
0001
0000
0010
0000
0200
0000
0000
0000
0301
0000
0001
1000
,
0200
0000
0000
0000
0000
0000
0000
0000
0000
0300
0000
0000
0220
0000
0000
0000
0000
0000
0000
0000
0000
0330
0000
0000
1000
0000
0001
0000
1000
0000
0100
0000
1000
0000
0100
0000
0010
0000
0001
0000
1000
0000
0010
0000
1000
0000
0001
0000
,
0100
0000
0010
0000
1000
0100
0010
0001
1000
0000
0001
0000
0200
0000
0000
0300
,
0202
0000
0000
0303
2002
0000
0000
3003
1100
0000
0110
0000
1001
0000
0001
0000
,
1100
0000
0100
0000
0001
0000
0100
0000
0020
0000
0000
0000
0031
0000
0001
0100
,
0020
0000
0000
0000
0000
0000
0000
0000
0000
0030
0000
0000
2002
0000
0000
0000
0000
0000
0000
0000
0000
3003
0000
0000
1000
0000
0010
0000
0100
0000
0010
0000
1000
0000
0001
0000
1000
0000
0001
0000
0010
0000
0001
0000
0010
0000
0100
0000
,
1000
0000
0000
0000
0010
1000
0001
0100
0001
0000
0010
0000
0110
0000
0100
0000
,
2200
0000
0000
3300
0202
0000
0000
0303
1100
0000
0101
0000
1010
0000
0010
1000
,
0100
0000
0010
0000
1000
0000
0010
0000
0200
0000
0000
0000
1300
0000
1000
0001
,
0200
0000
0000
0000
0000
0000
0000
0000
0000
0300
0000
0000
0202
0000
0000
0000
0000
0000
0000
0000
0000
0303
0000
0000
0100
0000
0010
0000
1000
0000
0001
0000
1000
0000
0100
0000
0010
0000
0001
0000
1000
0000
0010
0000
1000
0000
0001
0000
,
1000
0010
0100
0010
0001
0010
1000
0001
0010
0000
0100
0000
2000
0000
0000
3000
,
2002
0000
0000
3003
0022
0000
0000
0033
1100
0000
1001
0000
0011
0000
0001
0000
,
0100
0000
1010
1000
0000
0001
0010
0100
,
0010
0001
0100
0000
2010
0000
0000
0000
3001
0000
0000
0010
0000
0000
0001
0100
,
0010
0000
0000
0000
1000
0100
0010
0100
0002
0000
0000
0003
0101
0000
0100
0000
,
2200
0000
0000
3300
2002
0000
0000
3003
0101
0000
0110
0000
0101
0000
0000
0000
,
0001
0000
1001
0000
1000
0001
0011
0010
,
0220
0000
0000
0330
2200
0000
0000
3300
0001
0000
1000
0010
0100
0000
0001
0000
,
1000
0000
0100
0000
1000
0001
0010
0100
0010
0000
0010
0001
0200
0000
0010
0300
,
0202
0000
0000
0303
2020
0000
0000
3030
0101
0000
0001
0000
0011
0000
0010
0000
,
0100
0000
1100
1000
0000
0010
1000
0100
,
0010
0001
0100
0000
0120
0000
0000
0000
1030
0000
0000
0001
0000
0000
0010
0100
,
1000
0000
0000
0000
0010
1000
0100
0010
2000
0000
0000
3000
1010
0000
0010
0000
,
0022
0000
0000
0033
2002
0000
0000
3003
1010
0000
0010
0000
0110
0000
0000
0000
,
0100
0000
1001
0000
0001
0010
0110
0100
,
2200
0000
0000
3300
0202
0000
0000
0303
0100
0000
0001
1000
0100
0000
1000
0000
,
0010
0000
0100
0000
0010
1000
0001
0010
0100
0000
0100
1000
0002
0000
0100
0003
,
0220
0000
0000
0000
,
0000
0000
0000
0000
,
0000
0000
0000
0000
,
0330
0000
0000
0000
;

//---------------dance-single - Loodee----------------
#NOTES:
     dance-single:
     Loodee:
     Beginner:
     2:
     0.076,0.102,0.016,0.032,0.000:
0000
0000
0000
0000
,
0000
0000
0000
0000
,
0000
0000
0000
0000
,
0000
0000
0000
0000
,
0000
0000
0000
0000
,
0000
0000
0000
0000
,
0000
0000
0000
0000
,
0000
0000
0000
0000
,
0001
0000
0000
0000
,
0000
0000
0000
0000
,
1000
0000
0000
0000
,
0000
0000
0000
0000
,
0001
0000
0000
0000
,
0001
0000
0000
0000
,
1000
0000
0000
0000
,
0010
0000
0000
0000
,
2002
0000
0000
0000
,
0000
0000
0000
0000
,
0000
0000
0000
0000
,
3003
0000
0000
0000
,
0000
0000
0000
0000
,
0000
0000
0000
0000
,
0000
0000
0000
0000
,
0000
0000
0000
0000
,
0002
0000
0000
0000
,
0003
0000
0000
0000
,
2000
0000
0000
0000
,
3000
0000
0000
0000
,
0100
0000
0000
0000
,
0100
0000
0000
0000
,
1000
0000
0000
0000
,
0010
0000
0000
0000
,
1000
0000
1000
0000
,
0001
0000
0000
0000
,
0100
0000
0100
0000
,
0001
0000
0000
0000
,
1000
0000
1000
0000
,
0100
0000
0000
0000
,
0010
0000
0010
0000
,
0001
0000
0000
0000
,
1000
0000
1000
0000
,
1000
0000
0000
0000
,
0001
0000
0001
0000
,
0001
0000
0000
0000
,
1000
0000
1000
0000
,
1000
0000
0000
0000
,
0100
0000
0100
0000
,
0100
0000
0000
0000
,
1000
0000
0001
0000
,
1000
0000
0000
0000
,
0010
0000
0100
0000
,
0010
0000
0000
0000
,
1000
0000
0001
0000
,
1000
0000
0000
0000
,
0100
0000
0010
0000
,
0000
0000
0000
0000
,
0001
0000
1000
0000
,
0001
0000
0000
0000
,
0100
0000
0010
0000
,
0100
0000
0000
0000
,
0001
0000
1000
0000
,
0001
0000
0000
0000
,
1000
0000
0100
0000
,
1000
0000
0000
0000
,
1001
0000
0000
0000
;
