#TITLE:Poppin';
#SUBTITLE:(Mashup);
#ARTIST:Dirtcaps x Gerald Le Funk;
#TITLETRANSLIT:;
#SUBTITLETRANSLIT:;
#ARTISTTRANSLIT:;
#GENRE:Big Room;
#CREDIT:;
#BANNER:poppin-bn.png;
#BACKGROUND:poppin-bg.png;
#LYRICSPATH:;
#CDTITLE:FeraligatrV4-cd.png;
#MUSIC:Dirtcaps - Poppin' mash.ogg;
#OFFSET:0.009000;
#SAMPLESTART:77.188004;
#SAMPLELENGTH:16.615000;
#SELECTABLE:YES;
#DISPLAYBPM:130.000000:135.000000;
#BPMS:0.000000=135.000000
,128.000000=130.000000
,174.000000=195.000000
,174.375000=65.000000
,174.500000=130.000000
;
#STOPS:
;
#BGCHANGES:;
#KEYSOUNDS:;
#ATTACKS:;

//---------------dance-single - Feraligatr----------------
#NOTES:
     dance-single:
     Feraligatr:
     Challenge:
     10:
     0.755844,0.819034,0.345455,0.181818,0.631818,582.000000,544.000000,38.000000,20.000000,14.000000,0.000000,0.755844,0.819034,0.345455,0.181818,0.631818,582.000000,544.000000,38.000000,20.000000,14.000000,0.000000:
// measure 0
0000
0000
0000
0000
,  // measure 1
0000
0000
0000
0000
,  // measure 2
0000
0000
0000
0000
,  // measure 3
0000
0000
0000
0000
,  // measure 4
1000
0000
0010
0000
0100
0001
1000
0100
0010
0000
0001
0000
1000
0000
0010
0000
,  // measure 5
0100
0001
1000
0100
0010
0100
1000
0001
,  // measure 6
1000
0000
0010
0000
0100
0001
1000
0100
0010
0000
0100
0000
1000
0000
0001
0000
,  // measure 7
0100
0000
0010
0000
1000
0000
0001
0000
1000
0000
0100
0000
0010
0000
0100
0000
1000
0000
0002
0000
0000
0003
0000
0000
,  // measure 8
0101
0000
0100
0000
0001
1000
0100
0010
0001
0000
0100
0000
0010
0000
0100
0000
,  // measure 9
0001
0000
0100
0000
0010
0000
0100
0001
1000
0100
0010
0100
1000
0000
0001
0000
,  // measure 10
0100
0000
0010
0000
1000
0001
0010
0100
1000
0000
0010
0000
0100
0000
0010
0000
,  // measure 11
1000
0000
0010
0000
0100
0000
0010
1000
0001
1000
0100
1000
0001
0100
0001
1000
,  // measure 12
0100
0000
1000
0000
0001
1000
0010
0100
0001
0000
0010
0000
0100
0000
0010
0000
,  // measure 13
0001
0000
0010
0000
0100
0000
0010
0100
1000
0001
0100
0001
1000
0000
0100
0000
,  // measure 14
0010
0001
1000
0001
0100
0010
0100
0001
1000
0100
0010
0001
1000
0010
0100
0001
,  // measure 15
1000
0000
0000
0000
0000
0000
0000
0000
0000
0000
0000
0000
0M00
00M0
0000
0000
,  // measure 16
1200
0000
0000
0000
M301
0000
0100
0010
0100
0000
0100
0000
1010
0000
0100
0000
,  // measure 17
0100
0010
0001
1000
0001
0100
0010
1000
0001
1000
0010
0100
10M0
0000
0100
0000
,  // measure 18
0120
0000
0000
0000
M031
0000
0010
0100
0010
0000
0010
0000
1100
0000
0010
0000
,  // measure 19
0010
1000
0010
0100
0001
1000
0100
1000
0001
0100
0001
0100
0010
0000
1000
0000
,  // measure 20
1002
0000
0013
0000
0100
1000
0001
0100
0010
0000
0010
0000
0010
0000
0010
0000
,  // measure 21
0100
0001
1000
0010
1000
0001
0010
0100
1000
0010
1000
0010
0100
0000
0001
0000
,  // measure 22
1002
0000
0013
0000
100M
0000
0010
0100
1000
0000
1000
0000
1000
0000
1000
0000
,  // measure 23
0001
1000
0010
1000
0001
0100
0010
0100
0001
0010
0001
0010
0100
0000
0100
0000
,  // measure 24
2100
0000
0000
0000
3001
0010
0001
0010
1000
0000
1000
0000
0010
0000
0010
0000
,  // measure 25
0010
0000
0010
0000
0010
0000
0010
0000
0100
1000
0001
1000
0010
0000
0100
0000
,  // measure 26
0210
0000
0000
0000
0301
0100
0001
0100
1000
0000
1000
0000
0100
0000
0100
0000
,  // measure 27
0100
0000
0100
0000
0100
0000
0100
0000
0010
1000
0000
0010
1000
0000
0001
0000
,  // measure 28
2001
0000
0000
0000
3001
0000
0010
0001
0200
0000
0301
0000
1000
0000
0001
0000
,  // measure 29
0010
0000
0001
0000
1000
0000
0001
0000
0100
0010
0100
0001
1000
0000
0100
0000
,  // measure 30
1002
0000
0000
0000
1003
0000
0100
1000
0020
0000
1030
0000
0001
0000
1000
0000
,  // measure 31
0100
0000
1000
0000
0001
0000
1000
0000
0010
0100
0010
1000
0001
0000
0010
0000
,  // measure 32
1MM2
0103
0010
00M0
0001
0100
0010
00M0
,  // measure 33
0001
1000
0100
0010
0001
0100
0010
0000
,  // measure 34
1000
0100
0010
00M0
1000
0100
0010
00M0
,  // measure 35
1000
0001
0100
0010
1000
0100
0010
0000
,  // measure 36
0001
0000
0000
1000
0001
0000
0100
0010
1000
0000
0001
0010
0100
0000
0010
0000
,  // measure 37
0001
0000
1000
0010
0100
0000
0001
1000
0100
0000
0010
0001
1000
0000
0010
0000
,  // measure 38
0010
0000
0000
0100
0001
0000
1000
0100
0010
0000
0001
1000
0010
0000
0100
0000
,  // measure 39
0001
0000
1000
0001
0010
0000
0100
1000
0001
0000
1000
0010
0100
0000
0001
0000
,  // measure 40
0001
0000
0000
1000
0001
0000
0100
0010
1000
0000
0001
0010
0100
0000
1000
0000
,  // measure 41
0001
0000
0100
0010
1000
0000
0001
1000
0100
0000
0010
0001
1000
0000
0010
0000
,  // measure 42
0010
0000
0000
1000
0001
0000
0010
0100
1000
0000
0001
1000
0010
0000
0100
0000
,  // measure 43
0001
0000
M0M0
0000
,  // measure 44
0101
0000
0000
0000
0000
0000
0000
0000
0101
0000
0000
0000
0100
0000
0000
0000
0011
0000
0000
0000
1000
0000
0000
0000
0100
0000
0000
0000
0040
0000
0000
0030
,  // measure 45
0101
0000
0000
0010
0101
0000
0010
0000
0101
0000
1000
0100
0002
0000
0103
0000
,  // measure 46
0110
0000
0000
0000
0110
0000
0100
0000
1010
0000
0001
0000
1000
0000
0010
0100
,  // measure 47
0001
0000
1100
0000
0011
0000
0100
0000
0041
0000
0130
0001
1000
0100
1000
0001
,  // measure 48
0100
0000
0000
0010
1100
0000
0010
0000
1100
0000
0001
0000
1000
0000
0100
0000
,  // measure 49
0010
0001
1010
0001
1010
0100
0002
0103
,  // measure 50
0110
0000
0000
1000
0001
1000
0010
0000
1100
0000
0010
0000
1000
0000
0001
0000
,  // measure 51
0010
0000
0100
0000
0010
0000
0100
0000
1000
0001
1000
0100
0010
0001
0200
0300
,  // measure 52
0140
0000
0000
0000
2030
0000
3000
0000
0001
1000
0100
1000
0001
0100
0010
0100
,  // measure 53
0001
0000
1000
0000
0100
0000
0010
0000
0001
0000
1000
0000
0001
0000
0100
0000
0010
0000
1000
0000
0001
0000
0010
0000
0004
0003
0000
0000
4000
3000
0000
0000
,  // measure 54
1100
0000
0100
1000
0100
0000
0010
0000
0101
0000
1000
0000
0001
0000
0100
0000
,  // measure 55
0010
0000
1100
0000
1100
0000
0010
0000
1100
0010
1000
0001
0010
0001
0100
0010
,  // measure 56
4000
0000
0000
0000
3200
0000
0310
0000
0001
1000
0100
1000
0020
0000
0130
0000
,  // measure 57
0001
0000
1000
0000
0010
0000
1000
0000
0200
0000
0000
0000
0310
0000
0000
0000
0001
0000
1000
0000
0010
0000
1000
0000
0004
0003
0000
0000
4000
3000
0000
0000
,  // measure 58
1100
0000
0100
1000
0001
0100
0010
0000
1100
0000
0001
0000
0001
0000
0010
0000
,  // measure 59
0100
0000
1000
0000
0100
0000
1000
0000
0001
1000
0100
1000
0001
0100
0010
1000
,  // measure 60
0200
0300
0000
0000
0000
0000
0000
0000
0000
0000
0000
0000
0000
0000
0000
0000
;

//---------------dance-single - Feraligatr SH----------------
#NOTES:
     dance-single:
     Feraligatr SH:
     Hard:
     7:
     0.467532,0.518722,0.136364,0.154545,0.040909,360.000000,345.000000,15.000000,17.000000,0.000000,0.000000,0.467532,0.518722,0.136364,0.154545,0.040909,360.000000,345.000000,15.000000,17.000000,0.000000,0.000000:
// measure 0
0000
0000
0000
0000
,  // measure 1
0000
0000
0000
0000
,  // measure 2
0000
0000
0000
0000
,  // measure 3
0000
0000
0000
0000
,  // measure 4
1000
0100
0010
0000
0001
1000
0010
0000
,  // measure 5
0100
0001
1000
0100
0010
0001
1000
0000
,  // measure 6
0001
0100
0010
0000
1000
0001
0010
0000
,  // measure 7
0100
0000
1000
0000
0001
0000
1000
0000
0001
0000
1000
0000
0001
0000
1000
0000
0001
0000
0200
0000
0000
0300
0000
0000
,  // measure 8
0001
1000
0100
0010
0001
1000
0010
1000
,  // measure 9
0001
1000
0100
1000
0001
0100
0010
0000
,  // measure 10
1000
0001
0010
0100
0010
0001
1000
0001
,  // measure 11
0100
0001
1000
0001
0010
0100
1000
0000
,  // measure 12
0001
0010
0100
0000
0100
1000
0001
0000
,  // measure 13
0001
1000
0010
0000
0010
0100
0001
0000
,  // measure 14
1000
1000
0001
0001
0010
0010
0100
0100
,  // measure 15
1000
0000
0000
0000
,  // measure 16
1002
0000
0103
0010
1000
0001
0010
0100
,  // measure 17
1000
0001
1000
0001
1000
0001
0010
0100
,  // measure 18
2000
3000
0001
1000
0010
0100
0001
1000
,  // measure 19
0100
0010
0100
0010
0100
1000
0001
0100
,  // measure 20
0020
0030
1000
0000
0010
0010
0010
0010
,  // measure 21
0100
0001
1000
0100
0010
0010
0100
1000
,  // measure 22
0002
0003
0100
0000
0010
0010
0010
0010
,  // measure 23
0100
0001
1000
0100
0010
0010
0100
0100
,  // measure 24
2000
0000
3001
0000
0010
0010
0100
0100
,  // measure 25
0100
0100
0100
0100
1000
0001
0100
0000
,  // measure 26
0020
0000
1030
0000
0001
0001
0100
0100
,  // measure 27
0100
0100
0100
0100
0001
0000
0001
0000
,  // measure 28
2001
0000
3100
0000
0010
0001
1000
0001
,  // measure 29
0100
0001
1000
0001
0010
0100
0010
0001
,  // measure 30
1002
0000
0013
0000
0100
1000
0001
1000
,  // measure 31
0010
1000
0001
1000
0100
0010
0100
1000
,  // measure 32
1002
0003
0000
0000
,  // measure 33
0000
0000
0000
0000
,  // measure 34
0000
0000
0000
0000
,  // measure 35
0000
0000
0000
0000
,  // measure 36
1000
0001
0100
0000
0010
1000
0001
0000
,  // measure 37
1000
0010
0100
0010
1000
0001
0010
0000
,  // measure 38
0100
0010
0001
0000
1000
0010
0100
0000
,  // measure 39
0001
1000
0100
1000
0001
0100
0010
0000
,  // measure 40
1000
0001
0010
0000
0100
0010
0001
0000
,  // measure 41
1000
0001
0100
0010
0100
0001
1000
0000
,  // measure 42
0100
0010
0001
0000
1000
0010
0100
0000
,  // measure 43
0001
0000
0000
0000
,  // measure 44
1001
0000
1001
1000
0100
0010
0001
1000
,  // measure 45
0010
0000
0000
0000
0010
0000
0100
0000
0010
0000
1000
0000
0200
0000
0000
0300
,  // measure 46
0110
0000
0110
0010
0001
1000
0010
0100
,  // measure 47
0001
1000
0100
0010
0100
0000
1000
0000
,  // measure 48
1001
0000
0001
0100
0001
0100
0010
1000
,  // measure 49
0001
0000
0000
0000
0010
0000
0100
0000
0010
0000
0100
0000
2000
0000
0000
3000
,  // measure 50
1001
0000
0001
0100
0010
1000
0001
0010
,  // measure 51
0100
1000
0100
1000
0001
0100
0010
1000
,  // measure 52
1002
0000
0023
0030
0100
1000
0000
0010
,  // measure 53
0100
0000
0000
0100
0000
0000
0100
0000
0001
0000
1000
0001
1000
0000
0100
0000
,  // measure 54
0110
0000
0110
0010
0001
1000
0010
0100
,  // measure 55
0001
0010
0010
0100
0010
0000
0001
0000
,  // measure 56
2001
0000
3020
0130
0001
1000
0000
0100
,  // measure 57
0010
0000
0000
0010
0000
0000
0010
0000
0001
0000
0000
0000
1000
0000
0001
0000
,  // measure 58
0101
0000
0100
0010
1000
0001
0001
0000
,  // measure 59
0010
0100
0010
0100
1000
0001
0100
0010
,  // measure 60
2000
3000
0000
0000
0000
0000
0000
0000
0000
0000
0000
0000
0000
0000
0000
0000
;

//---------------dance-single - Feraligatr SM----------------
#NOTES:
     dance-single:
     Feraligatr SM:
     Medium:
     5:
     0.349351,0.409517,0.100000,0.154545,0.000000,269.000000,258.000000,11.000000,17.000000,0.000000,0.000000,0.349351,0.409517,0.100000,0.154545,0.000000,269.000000,258.000000,11.000000,17.000000,0.000000,0.000000:
0000
0000
0000
0000
,
0000
0000
0000
0000
,
0000
0000
0000
0000
,
0000
0000
0000
0000
,
1000
1000
1000
0000
0001
0001
0001
0000
,
1000
0000
0100
0000
0010
0010
0010
0000
,
0001
0001
0001
0000
1000
1000
1000
0000
,
0001
0000
0100
0000
0010
0010
0010
0000
,
1000
0000
0100
0000
0010
0001
0000
1000
,
0000
0001
0000
1000
0000
0000
0001
0000
,
0100
0000
0010
0000
1000
0001
0000
1000
,
0000
0001
0000
1000
0000
0000
0100
0000
,
0010
0001
1000
0010
,
0100
0001
1000
0100
,
0010
0010
0001
0001
1000
1000
0010
0010
,
0100
0000
0000
0000
,
1002
0000
1003
0000
0100
0000
0010
0001
,
1000
0000
0010
0000
0100
0000
0010
1000
,
0002
0003
0010
0000
0100
0000
1000
0001
,
0100
0000
0010
0000
1000
1000
1000
0000
,
0002
0003
0010
0000
0100
0000
0100
0000
,
1000
0000
1000
0000
0010
0000
0100
0001
,
1000
0000
0200
0300
0010
0000
0010
0000
,
0001
0000
0001
0000
1000
0000
0010
0010
,
0200
0000
0301
0000
1000
1000
0100
0100
,
0100
0100
0100
0100
0010
0000
0001
1000
,
0002
0000
0103
0000
0010
0010
1000
1000
,
1000
1000
1000
1000
0001
0000
0001
0000
,
1002
0000
0013
0000
0100
1000
0000
0001
,
0000
1000
0000
0001
0000
0000
0100
0000
,
0120
0000
0130
0000
0001
1000
0000
0001
,
0000
1000
0000
0001
0000
0000
0010
0100
,
1000
0000
0000
0000
,
0000
0000
0000
0000
,
0000
0000
0000
0000
,
0000
0000
0000
0000
,
0001
0001
0001
0000
0100
0100
0100
0000
,
0010
0000
1000
0000
0001
0001
0001
0000
,
0010
0010
0010
0000
0100
0100
0100
0000
,
1000
0000
0001
0000
0100
0100
0100
0000
,
0010
0010
0010
0000
1000
1000
1000
0000
,
0001
0000
1000
0000
0100
0100
0100
0000
,
0010
0010
0010
0000
0001
0001
0001
0000
,
1000
0000
0000
0000
,
1001
0000
1000
0000
0100
0010
0100
0000
,
1000
0000
0000
0000
1000
0000
0000
0000
1000
0000
0001
0000
0200
0000
0000
0300
,
0110
0000
0010
0000
1000
0001
1000
0000
,
0100
0010
0001
0000
0001
0000
1000
0000
,
1001
0000
0001
1000
0001
0000
0010
0000
,
0100
0000
0000
0000
1000
0000
0100
0000
1000
0000
0000
0000
0002
0000
0000
0003
,
0101
0000
0100
0000
0010
1000
0010
0000
,
0100
0001
0100
0001
1000
0001
1000
0000
,
1002
0000
0023
0030
0100
1000
0000
0001
,
1000
0000
0000
0001
1000
0000
0010
0000
,
0101
0000
0100
0000
0010
1000
0010
0000
,
1000
0001
0001
0000
0001
0000
0010
0000
,
1200
0000
0320
0030
0001
0000
0200
0300
,
0010
0000
2000
3000
0001
0000
0010
0000
,
1001
0000
1000
0000
0100
0010
0010
0000
,
0001
1000
0001
1000
0001
1000
0001
0000
,
0020
0030
0000
0000
0000
0000
0000
0000
0000
0000
0000
0000
0000
0000
0000
0000
;

//---------------dance-single - Feraligatr SE----------------
#NOTES:
     dance-single:
     Feraligatr SE:
     Easy:
     3:
     0.258442,0.300312,0.090909,0.145455,0.000000,199.000000,189.000000,10.000000,16.000000,0.000000,0.000000,0.258442,0.300312,0.090909,0.145455,0.000000,199.000000,189.000000,10.000000,16.000000,0.000000,0.000000:
0000
0000
0000
0000
,
0000
0000
0000
0000
,
0000
0000
0000
0000
,
0000
0000
0000
0000
,
1000
0100
1000
0100
,
0010
0001
0010
0001
,
1000
0010
0100
0010
,
1000
0001
0010
0100
,
1000
1000
0001
0001
,
0100
0100
0010
0010
,
1000
1000
0001
0001
,
0010
0010
0100
0100
,
1000
1000
0001
0001
,
0100
0100
0010
0010
,
1000
0001
1000
0001
,
1000
0000
0000
0000
,
2001
3100
0010
0001
,
0100
0010
1000
0001
,
0020
0030
0100
0000
0010
0000
0001
0000
,
1000
0010
0100
0001
,
1000
0100
0010
0010
,
0001
0001
1000
0010
,
0100
0001
1000
1000
,
0100
0100
0010
0001
,
2001
0000
0010
3002
,
0000
0000
0000
0003
0002
0000
0000
0000
1000
0000
0000
0000
0023
0000
0000
0000
,
0230
0000
0010
2300
,
0000
0000
0000
3000
2000
0000
0000
0000
3010
0000
0000
0000
0010
0000
0000
0000
,
1001
0001
0010
0100
,
0010
0001
1000
0001
,
1001
1000
0010
0100
,
0010
1000
0001
1000
,
0100
0000
0000
0000
,
0000
0000
0000
0000
,
0000
0000
0000
0000
,
0000
0000
0000
0000
,
1000
1000
0001
0001
,
0100
0100
0010
0010
,
0100
0100
0001
0001
,
1000
1000
0100
0100
,
0010
0010
0001
0001
,
1000
1000
0010
0010
,
0100
0100
0001
0001
,
1000
0000
0000
0000
,
1001
1000
0100
0010
,
0001
0001
0001
0200
,
0310
0010
1000
0001
,
1000
0100
0100
0000
,
1001
0001
0001
0100
,
0010
1000
1000
0002
,
0013
0100
1000
1000
,
0001
0001
0100
0100
,
2001
0000
0000
0000
,
3200
0000
0000
0310
,
1001
1000
0010
0100
,
0010
1000
1000
0001
,
0021
0000
0000
0000
,
0230
0000
0000
1300
,
1001
0001
1000
0010
,
0100
0100
0010
0010
,
2000
3000
0000
0000
0000
0000
0000
0000
0000
0000
0000
0000
0000
0000
0000
0000
;

//---------------dance-single - Feraligatr SN----------------
#NOTES:
     dance-single:
     Feraligatr SN:
     Beginner:
     1:
     0.119481,0.273011,0.163636,0.081818,0.000000,92.000000,74.000000,18.000000,9.000000,0.000000,0.000000,0.119481,0.273011,0.163636,0.081818,0.000000,92.000000,74.000000,18.000000,9.000000,0.000000,0.000000:
0000
0000
0000
0000
,
0000
0000
0000
0000
,
0000
0000
0000
0000
,
0000
0000
0000
0000
,
1001
0000
0000
0000
,
1000
0000
0000
0000
,
0100
0000
0000
0000
,
0010
0000
0000
0000
,
1001
0000
0000
0000
,
1000
0000
0000
0000
,
0010
0000
0000
0000
,
0100
0000
0000
0000
,
0001
0000
0001
0000
,
1000
0000
1000
0000
,
0100
0100
0100
0100
,
0100
0000
0000
0000
,
2002
3003
0000
0000
,
1000
0000
0000
0000
,
0010
0000
0000
0000
,
0100
0000
0000
0000
,
0010
0000
0000
0000
,
1000
0000
0000
0000
,
0001
0000
0000
0000
,
0010
0000
0000
0000
,
2002
0000
3003
0000
,
1000
0000
0000
0000
,
0001
0000
0000
0000
,
1000
0000
0000
0000
,
0010
0000
0000
0000
,
0100
0000
0000
0000
,
0001
0000
0000
0000
,
1000
0000
0000
0000
,
0100
0000
0000
0000
,
0000
0000
0000
0000
,
0000
0000
0000
0000
,
0000
0000
0000
0000
,
1000
0000
0000
0000
,
1000
0000
0000
0000
,
0001
0000
0000
0000
,
0001
0000
0000
0000
,
0100
0000
0000
0000
,
0100
0000
0000
0000
,
0010
0000
0000
0000
,
1000
0000
0000
0000
,
1001
1001
0000
0000
,
0110
0110
0000
0000
,
1001
1001
0000
0000
,
0100
0100
0000
0000
,
1001
0000
1000
0000
,
0110
0000
0010
0000
,
1001
0000
0001
0000
,
0100
0100
0100
0100
,
0220
0000
0000
0000
,
0330
0000
0000
0000
,
1001
1001
0000
0000
,
1000
1000
1000
0000
,
0220
0000
0000
0000
,
0330
0000
0000
0000
,
1001
0000
0001
0000
,
1000
1000
1000
1000
,
0002
0003
0000
0000
0000
0000
0000
0000
0000
0000
0000
0000
0000
0000
0000
0000
;
