#VERSION:0.83;
#TITLE:Pixel Galaxy;
#SUBTITLE:;
#ARTIST:Ujico/Snail’s House;
#TITLETRANSLIT:;
#SUBTITLETRANSLIT:;
#ARTISTTRANSLIT:;
#GENRE:EDM;
#ORIGIN:;
#CREDIT:;
#BANNER:Pixel Galaxy-bn.png;
#BACKGROUND:Pixel Galaxy-bg-wide.png;
#PREVIEWVID:;
#JACKET:Pixel Galaxy-jacket.png;
#CDIMAGE:;
#DISCIMAGE:;
#LYRICSPATH:;
#CDTITLE:cd-title-Benpai.png;
#MUSIC:Pixel Galaxy.ogg;
#OFFSET:0.009000;
#SAMPLESTART:102.390999;
#SAMPLELENGTH:25.600000;
#SELECTABLE:YES;
#DISPLAYBPM:150.000000;
#BPMS:0.000=150.000,
94.000=225.000,
94.500=112.500,
95.000=150.000,
254.000=225.000,
254.500=112.500,
255.000=150.000;
#STOPS:;
#DELAYS:;
#WARPS:;
#TIMESIGNATURES:0.000=4=4;
#TICKCOUNTS:0.000=4;
#COMBOS:0.000=1;
#SPEEDS:0.000=1.000=0.000=0;
#SCROLLS:0.000=1.000;
#FAKES:;
#LABELS:0.000=Song Start;
#BGCHANGES:;
#KEYSOUNDS:;
#ATTACKS:
;

//---------------dance-single - Benpai----------------
#NOTEDATA:;
#CHARTNAME:Benpai SX;
#STEPSTYPE:dance-single;
#DESCRIPTION:Benpai;
#CHARTSTYLE:;
#DIFFICULTY:Challenge;
#METER:11;
#RADARVALUES:0.759900,0.891750,0.361101,0.666648,0.708314,766.000000,714.000000,52.000000,96.000000,19.000000,0.000000,12.000000,0.000000,0.000000,0.759900,0.891750,0.361101,0.666648,0.708314,766.000000,714.000000,52.000000,96.000000,19.000000,0.000000,12.000000,0.000000,0.000000;
#CREDIT:Benpai;
#DISPLAYBPM:150.000000;
#NOTES:
0000
0000
0000
0000
,
0000
0000
0000
0000
,
0000
0000
0000
0000
,
0000
0000
0000
0000
,
0000
0000
0000
0000
,
0000
0000
0000
0000
,
0000
0000
0000
0000
,
0000
0000
0000
0000
0000
0000
0000
0000
1000
0000
0010
0100
0000
0001
0000
1000
,
0200
0310
0001
1000
1010
0010
0200
0302
,
0013
0000
0000
0000
0010
0000
0000
0000
0100
0000
1000
0000
0000
0000
0001
0100
0001
0000
0000
0000
1000
0000
0000
0000
0100
0000
0010
0000
0100
0000
0000
0000
,
1000
0001
0100
0010
0100
1M00
0001
1000
,
0100
0000
0000
0000
0020
0000
0000
0000
0130
0000
0000
0000
1000
0000
0001
1000
0001
0000
0000
0000
0100
0000
0000
0000
0010
0000
1000
0000
0010
0000
0000
0000
,
0100
0001
1000
0100
0110
0010
0001
1000
,
0010
0000
0000
0000
0020
0000
0000
0000
0130
0000
0001
0000
0000
0000
1000
0100
1000
0000
0000
0000
0100
0000
0000
0000
0010
0000
0100
0000
1000
0000
0000
0000
,
0040
0000
0130
0001
1001
1000
0200
1300
,
0001
0000
0000
0000
0100
0000
0000
0000
0010
0000
0000
0000
1000
0000
0001
1000
0001
0000
0000
0000
0010
0000
0100
0000
0000
0000
1000
0000
0001
0000
0100
0000
,
0001
0000
1000
0100
00M0
0100
0000
0001
0100
00M0
0100
0000
1000
0001
1000
0001
,
0010
0M00
0010
0000
1000
0001
0000
0001
0010
0000
0100
0000
1000
0001
1000
0000
,
0010
0000
0100
0001
0000
0001
1000
0000
0100
0000
0M02
0000
1003
0001
0010
0001
,
1000
0000
0010
0100
0000
0010
1000
0001
0010
0000
0100
0010
0001
1000
0001
0100
,
0020
0130
0001
2000
3001
0010
0200
0310
,
0001
1000
0010
0100
0010
1000
0100
0010
,
0001
0010
0001
1000
0010
0100
0001
1000
0100
0010
0001
0100
0020
0000
0000
0000
,
1030
0000
0000
0001
0000
0010
0100
0000
2100
0000
3000
0000
0101
0000
0000
0000
,
2001
0000
0000
3001
0010
0100
1000
0020
,
0030
0000
0000
0000
0102
0000
0000
0000
0000
0000
0000
0000
1003
0000
0100
1000
0100
0000
0000
0000
0010
0000
0001
0000
1000
0000
0010
0000
0100
0000
0000
0000
,
0110
0010
1000
0400
0000
0310
0100
1000
,
0010
0000
0100
0000
0012
0000
0000
0000
0000
0000
0000
0000
0103
0000
0010
1000
0010
0000
0000
0000
0100
0000
0001
0000
1000
0000
0100
0000
0010
0000
0001
0000
,
2001
3002
0203
0300
0001
0010
0000
0010
,
0000
0000
0000
0000
2100
0000
0000
0000
0000
0000
0000
0000
3010
0000
0100
0001
0100
0000
0000
0000
0001
0000
0000
0000
0010
0000
0000
0000
0100
0000
0000
0000
,
1200
0000
1300
1002
0000
0103
0120
0000
,
0030
0000
0000
0000
0000
0000
0000
0100
0002
0000
0000
0000
0000
0000
0000
0000
0000
0000
0000
0000
0000
0000
0000
0000
1003
0000
0000
0000
0000
0000
0000
0000
0001
0000
0000
0000
0000
0000
0000
0000
0011
0000
0000
0000
0000
0000
0000
0000
0010
0000
0000
0000
0000
0000
0000
0000
0100
0000
0000
0000
0000
0000
0000
0000
,
1002
0000
0000
1003
0100
0010
0001
0200
,
0300
0000
0000
0000
2010
0000
0000
0000
0000
0000
0000
0000
3001
0000
0010
0001
0010
0000
0000
0000
0100
0000
1000
0000
0001
0000
0100
0000
0010
0000
0000
0000
,
1010
1000
0001
0040
0000
0130
0010
0002
,
0103
0000
0010
0000
1200
0000
0000
0000
0000
0000
0000
0000
0300
0000
0001
1000
0001
0000
0000
0000
0010
0000
0000
0000
0100
0000
1000
0000
0001
0000
0000
0000
,
0012
0000
0000
0000
0000
0000
0000
0000
2003
0000
0000
0000
0000
0000
0000
0000
3010
0000
0000
0000
0000
0000
0000
0000
0101
0000
0000
0000
0000
0000
0000
0000
0001
0000
0000
0000
0000
0000
0000
0000
0010
0000
0000
0000
0000
0000
0000
0000
0110
0000
0000
0000
0000
0000
0000
0100
2000
0000
0000
0000
0000
0000
0000
0000
,
0000
0000
0000
0000
3002
0000
0000
0000
0000
0000
0000
0000
0103
0000
0001
1000
0001
0000
0000
0000
0010
0000
0000
0000
0100
0000
0000
0000
1000
0000
0000
0000
,
1100
0001
0100
0102
0000
1003
2010
0000
,
3100
0000
0000
0000
0010
0000
0001
0000
0000
0000
0100
0000
0001
0000
1000
0001
1000
0000
0000
0000
0100
0000
0000
0000
0010
0000
0000
0000
0100
0000
0000
0000
,
1100
0000
1000
0100
00M0
0100
0000
0001
0100
00M0
0100
0000
1000
0001
1000
0000
,
0010
0M00
0010
0000
0001
1000
0000
1000
0100
0000
0010
0001
0000
0001
1000
0000
,
0040
0000
0000
0000
0130
2M00
3010
0100
,
0001
0000
1000
0010
1000
0000
0001
0000
0010
0000
0100
0000
1000
0001
0100
0000
,
0010
0000
1000
0100
00M0
0100
0001
0000
0100
00M0
0100
0000
1000
0001
1000
0000
,
0010
0M00
0010
0000
0001
1000
0000
1000
0010
0000
0100
0001
0000
0001
1000
0000
,
0100
0010
0001
0100
0010
00M2
1003
0100
,
0010
0000
0001
1000
0000
0000
1000
0000
0010
0000
0100
0001
1000
0100
0010
0001
,
1000
0000
0010
0000
0100
0000
0001
0000
1000
0000
0010
0000
1000
0001
0010
0000
,
0100
0000
0010
0000
0001
1000
0001
0000
0100
0000
0010
0000
1000
0001
1000
0000
,
0100
0010
0001
0010
0100
0M02
1003
0010
,
0100
0000
0004
0003
4000
3000
0400
0300
0040
0030
0400
0300
4000
3000
0010
2100
,
3000
0000
0001
0000
1000
0000
0100
0010
0000
0010
0000
0001
1000
0000
0010
0000
,
0100
0000
0100
0000
0001
1000
0000
1000
0010
0000
0100
0010
0000
1000
0001
0000
,
0010
0000
0000
0010
0000
0100
1000
0000
0010
0000
00M2
0000
1003
0000
0001
0000
,
0100
0000
0010
0100
0000
0001
1000
0000
0100
0000
0010
0100
1000
0001
0100
0001
,
1001
0000
1000
0200
0000
0320
0000
0030
0001
0000
1000
0200
0000
0320
0000
0030
,
0001
0000
1000
0020
0000
0230
0000
0300
0001
0000
1000
0020
0000
0230
0000
0300
,
0001
0000
0010
0200
0000
2300
0000
3000
0001
0000
0010
0200
0000
2300
0000
3000
,
0001
0000
0100
0020
0000
2030
0000
3000
0001
0000
0100
0020
0000
2030
0000
3000
,
1100
0000
0100
0020
0000
0032
0000
0003
1000
0000
0100
0020
0000
0032
0000
0003
,
0100
0000
0010
2000
0000
3002
0000
0003
0010
0000
0100
1000
0001
0100
0010
0000
,
1000
0001
1000
0100
0010
0100
1000
0001
0100
0001
0010
0100
1000
0001
0100
0010
,
1000
0000
0010
0100
0000
0001
0010
0000
0210
0000
0300
0000
1100
0000
0000
0000
,
1002
0000
0000
1003
0100
0010
0001
0200
,
0300
0000
0000
0000
2010
0000
0000
0000
0000
0000
0000
0000
3001
0000
0010
0001
0010
0000
0000
0000
0100
0000
1000
0000
0001
0000
0100
0000
0010
0000
0000
0000
,
0110
0100
0001
0040
0000
0130
0010
0001
,
0100
0000
0010
0000
1200
0000
0000
0000
0000
0000
0000
0000
0310
0000
1000
0010
1000
0000
0000
0000
0001
0000
1000
0000
0001
0000
0010
0000
0100
0000
1000
0000
,
1002
2003
3200
0300
0010
0100
0000
0100
,
0000
0000
0000
0000
1002
0000
0000
0000
0000
0000
0000
0000
0103
0000
0001
1000
0001
0000
0000
0000
0010
0000
0000
0000
0100
0000
0000
0000
0010
0000
0000
0000
,
0021
0000
0031
2001
0000
3010
0210
0000
,
0300
0000
0000
0000
0000
0000
0000
0010
2000
0000
0000
0000
0000
0000
0000
0000
0000
0000
0000
0000
0000
0000
0000
0000
3001
0000
0000
0000
0000
0000
0000
0000
0010
0000
0000
0000
0000
0000
0000
0000
0110
0000
0000
0000
0000
0000
0000
0000
0100
0000
0000
0000
0000
0000
0000
0000
1000
0000
0000
0000
0000
0000
0000
0000
,
2001
0000
0000
3001
0010
0100
1000
0020
,
0030
0000
0000
0000
0102
0000
0000
0000
0000
0000
0000
0000
1003
0000
0100
1000
0100
0000
0000
0000
0010
0000
0001
0000
1000
0000
0010
0000
0100
0000
0000
0000
,
0101
0001
1000
0400
0000
0310
0100
2000
,
3001
0000
0100
0000
0021
0000
0000
0000
0000
0000
0000
0000
0130
0000
0001
0100
0001
0000
0000
0000
1000
0000
0000
0000
0100
0000
0010
0000
0100
0000
0000
0000
,
2100
0000
0000
0000
0000
0000
0000
0000
3002
0000
0000
0000
0000
0000
0000
0000
0103
0000
0000
0000
0000
0000
0000
0000
0110
0000
0000
0000
0000
0000
0000
0000
0010
0000
0000
0000
0000
0000
0000
0000
1000
0000
0000
0000
0000
0000
0000
0000
1001
0000
0000
0000
0000
0000
0000
0001
0020
0000
0000
0000
0000
0000
0000
0000
,
0000
0000
0000
0000
0230
0000
0000
0000
0000
0000
0000
0000
1300
0000
0001
1000
0001
0000
0000
0000
0100
0000
0000
0000
0010
0000
0000
0000
0100
0000
0000
0000
,
0101
0001
1000
2100
0000
3001
0012
0000
,
1003
0000
0000
0000
0010
0000
0100
0000
0000
0000
0001
0000
0100
0000
0010
1000
0010
0000
0000
0000
1000
0000
0000
0000
0100
0000
0000
0000
0010
0000
0000
0000
,
0012
0000
0000
0000
0000
0000
0000
0000
0003
0000
0000
0000
0002
0000
0000
0013
,
2000
0000
3020
0000
0230
0000
2300
0000
3002
0000
0103
0010
0000
0010
1000
0000
,
0001
0000
0010
0001
0000
1000
0001
0000
0100
0000
2M00
0000
3001
0000
0010
0000
,
0100
0000
1000
0100
0000
1000
0001
0000
0100
0000
0100
0000
0010
0100
0001
1000
,
0100
0000
0010
0001
0000
1000
0001
0000
0100
0000
0100
0000
0010
1000
0001
0000
,
0010
0000
0010
0000
0100
1000
0000
0001
1000
0000
0010
0100
0001
1000
0100
0000
,
0010
0000
0001
1000
0000
0001
0100
0000
0100
0000
2M00
0000
3001
0000
0010
0000
,
0100
0000
1000
0001
0000
1000
0010
0000
0100
0000
0001
1000
0000
0100
0000
1000
,
00M2
0000
0000
0000
0000
00M0
0000
0000
0000
0000
0000
0000
0000
0000
0000
0000
0000
0000
0000
0000
0000
0000
0000
0000
0000
0000
0000
0000
0000
0000
0000
0000
0000
0000
0000
0000
0003
0000
0000
0000
0000
0000
0000
0000
0000
0000
0000
0000
0000
0000
0000
0000
0000
0000
0000
0000
0000
0000
0000
0000
0000
0000
0000
0000
;

//---------------dance-single - Benpai----------------
#NOTEDATA:;
#CHARTNAME:Benpai SN;
#STEPSTYPE:dance-single;
#DESCRIPTION:Benpai;
#CHARTSTYLE:;
#DIFFICULTY:Beginner;
#METER:1;
#RADARVALUES:0.104164,0.183328,0.090275,0.020833,0.000000,105.000000,92.000000,13.000000,3.000000,4.000000,0.000000,0.000000,0.000000,0.000000,0.104164,0.183328,0.090275,0.020833,0.000000,105.000000,92.000000,13.000000,3.000000,4.000000,0.000000,0.000000,0.000000,0.000000;
#CREDIT:Benpai;
#DISPLAYBPM:150.000000;
#NOTES:
0000
0000
0000
0000
,
0000
0000
0000
0000
,
0000
0000
0000
0000
,
0000
0000
0000
0000
,
0000
0000
0000
0000
,
0000
0000
0000
0000
,
0000
0000
0000
0000
,
0000
0000
0000
0000
,
0001
0000
1000
0000
,
0000
0000
1000
0000
,
0100
0000
1000
0000
,
0000
0000
1000
0000
,
0001
0000
0100
0000
,
0000
0000
0100
0000
,
0010
0000
1000
0000
,
0000
0000
1000
0000
,
1001
0000
0000
0000
,
0001
0000
0000
0000
,
0100
0000
0000
0000
,
0100
0000
0000
0000
,
0010
0000
0000
0000
,
0000
0000
0000
0000
,
1000
0000
0000
0000
,
0000
0000
0000
MMMM
,
1001
0000
0000
0000
,
0000
0100
0000
0000
0000
0000
0000
0000
,
0110
0000
0000
0000
,
0000
0001
0000
0000
0000
0000
0000
0000
,
1001
0000
0000
0000
,
0000
0010
0000
0000
0000
0000
0000
0000
,
1000
0000
0000
1000
0000
0000
1000
0000
,
0000
0000
0000
0000
0000
0100
0000
0000
,
0010
0000
0000
0000
,
0000
0001
0000
0000
0000
0000
0000
0000
,
1001
0000
0000
0000
,
0000
1000
0000
0000
0000
0000
0000
0000
,
0100
0000
0000
0100
0000
0000
0100
0000
,
0000
0000
0000
0000
,
0010
0000
0000
0010
0000
0000
0010
0000
,
0000
0000
0001
0000
,
1000
0000
0000
0000
,
0000
0000
0000
0000
,
0020
0000
0000
0000
0000
0030
0000
0000
,
0000
0000
0000
0000
,
0100
0000
0000
0000
,
0001
0000
0000
0000
,
1000
0000
1000
0000
,
0100
0000
0000
0000
,
0110
0000
0000
0000
,
0010
0000
0000
0000
,
0001
0000
0000
0000
,
1000
0000
0000
0000
,
0100
0000
0000
0000
,
1000
0000
0000
0000
,
0010
0000
0000
0000
,
0100
0000
0000
0000
,
0001
0000
0000
0000
,
0001
0000
0000
0000
,
0001
0000
0000
0000
,
0001
0000
0000
0000
,
1001
0000
0000
0000
,
1000
0000
0000
0000
,
0200
0000
0000
0000
,
1300
0000
0000
0000
,
0110
0000
0000
0000
,
0000
1000
0000
0000
0000
0000
0000
0000
,
1001
0000
0000
0000
,
0000
0010
0000
0000
0000
0000
0000
0000
,
0110
0000
0000
0000
,
0000
0010
0000
0000
0000
0000
0000
0000
,
1000
0000
0000
1000
0000
0000
1000
0000
,
0000
0000
0100
0000
,
0110
0000
0000
0000
,
0000
0001
0000
0000
0000
0000
0000
0000
,
1001
0000
0000
0000
,
0000
1000
0000
0000
0000
0000
0000
0000
,
0100
0000
0000
0100
0000
0000
0100
0000
,
0000
0000
0000
0000
,
0010
0000
0000
0010
0000
0000
0010
0000
,
0000
0000
0001
0000
,
1000
0000
0000
0000
,
0020
0000
0000
0030
,
0100
0000
0000
0000
,
0001
0000
0000
0000
,
0100
0000
0000
0000
,
0010
0000
0000
0000
,
1000
0000
0000
0000
,
0100
0000
0000
0000
,
0110
0000
0000
0000
;

//---------------dance-single - Benpai----------------
#NOTEDATA:;
#CHARTNAME:Benpai SH;
#STEPSTYPE:dance-single;
#DESCRIPTION:Benpai;
#CHARTSTYLE:;
#DIFFICULTY:Hard;
#METER:9;
#RADARVALUES:0.576373,0.615000,0.166662,0.520819,0.354157,581.000000,557.000000,24.000000,75.000000,4.000000,0.000000,20.000000,0.000000,0.000000,0.576373,0.615000,0.166662,0.520819,0.354157,581.000000,557.000000,24.000000,75.000000,4.000000,0.000000,20.000000,0.000000,0.000000;
#CREDIT:Benpai;
#DISPLAYBPM:150.000000;
#NOTES:
// measure 0
0000
0000
0000
0000
,  // measure 1
0000
0000
0000
0000
,  // measure 2
0000
0000
0000
0000
,  // measure 3
0000
0000
0000
0000
,  // measure 4
0000
0000
0000
0000
,  // measure 5
0000
0000
0000
0000
,  // measure 6
0000
0000
0000
0000
,  // measure 7
0000
0000
0000
0000
0000
0000
0000
0000
1000
0000
0010
0100
0000
0001
0000
1000
,  // measure 8
0200
0000
0300
0000
0010
0000
0001
0100
,  // measure 9
0010
0000
0010
0000
0000
1000
0000
0004
0013
0000
0100
0000
0010
0000
0000
0000
,  // measure 10
0001
1000
0010
0100
0000
0001
0100
0010
,  // measure 11
0000
0000
1000
0000
0100
0000
0010
0004
1003
0000
0001
0000
0100
0010
0100
0000
,  // measure 12
0001
1000
0100
1000
0000
0010
0100
0001
,  // measure 13
0010
0010
0000
0004
1003
0001
0100
0010
,  // measure 14
2000
0000
3001
0010
0000
1000
0020
0000
,  // measure 15
0130
0000
1000
0000
0000
0000
0004
0000
0013
0000
0001
0100
0000
0010
0000
1000
,  // measure 16
0001
0000
0000
0100
0000
0100
0000
0010
1000
0000
1000
0000
0001
0000
0010
0000
,  // measure 17
0100
0000
0100
0000
0000
1000
0000
0001
0100
0000
0010
0000
1000
0000
0000
0000
,  // measure 18
0001
0010
0100
1000
0000
0010
0100
0001
,  // measure 19
0000
0000
0100
0000
0010
0000
1000
0000
0100
0000
0010
0000
0001
0000
1000
0010
,  // measure 20
0200
0301
0100
0020
1030
0001
0020
0130
,  // measure 21
1000
0001
1000
0010
0100
0001
0010
0001
,  // measure 22
4000
0000
3010
0100
0000
0001
0020
0000
,  // measure 23
0130
0000
0000
1000
0000
0001
0100
0000
M020
0000
0000
0000
1030
0000
0000
0000
,  // measure 24
2001
0000
0000
3000
0010
0100
0001
1000
,  // measure 25
0000
0000
2100
0000
0000
0000
3001
0100
0010
0000
0100
0000
0001
0000
1000
0000
,  // measure 26
1001
0001
0010
0400
0000
0300
1000
0001
,  // measure 27
0000
0000
0102
0000
0000
0000
1003
0010
0100
0000
0001
0000
0010
0000
0100
0000
,  // measure 28
1000
0001
0010
0000
0100
0010
0000
0010
,  // measure 29
0000
0000
0012
0000
0000
0000
1003
0010
0100
0000
0001
0000
1000
0000
0100
0000
,  // measure 30
0120
0000
0030
0012
0000
0003
2001
0000
,  // measure 31
3000
0020
0000
0130
0001
1001
1000
0100
,  // measure 32
0020
0000
0000
0030
0001
0100
0010
1000
,  // measure 33
0000
0000
2010
0000
0000
0000
3001
0010
0100
0000
0010
0000
0001
0000
1000
0000
,  // measure 34
1001
0001
0100
0040
0000
0030
0001
0010
,  // measure 35
0000
1020
0000
0000
0130
0001
1000
0100
,  // measure 36
0020
0130
1000
0020
0130
0001
0020
0230
,  // measure 37
0000
0000
1300
0000
0000
0000
0001
0010
0100
0000
1000
0000
0001
0000
0100
0000
,  // measure 38
0020
1030
0200
0320
0000
0031
0200
0000
,  // measure 39
0301
0000
1000
0100
0000
1000
0001
0400
0310
0000
0100
0000
0001
0000
1000
0000
,  // measure 40
0100
0000
0000
0010
0000
0010
0000
0100
1000
0000
1000
0000
0000
0001
0000
0000
,  // measure 41
0100
0000
0100
0000
0000
0010
0000
1000
0001
0000
0000
1000
0000
0000
0100
0000
,  // measure 42
0040
0000
0000
0000
0000
0031
1000
0001
,  // measure 43
0100
0010
1000
0001
0010
0100
1000
0010
,  // measure 44
0100
0000
0000
0001
0000
0001
0000
1000
0100
0000
0100
0000
0000
0010
0000
0000
,  // measure 45
0001
0000
0001
0000
0000
1000
0000
0010
0100
0000
0000
0010
0000
0000
1000
0000
,  // measure 46
0001
1000
0010
0100
0001
0010
0100
1000
,  // measure 47
0001
0000
0000
0001
0000
0000
0100
0000
0010
0000
1000
0000
0004
0000
0000
0000
,  // measure 48
1003
0100
1000
0001
0100
0100
0010
1000
,  // measure 49
0001
0001
0010
0100
1000
0001
0100
0000
,  // measure 50
0010
0100
0001
1000
0000
0100
0010
0001
,  // measure 51
1000
0000
0040
0030
0400
0300
0004
0003
4000
3000
0400
0300
0040
0030
0001
1000
,  // measure 52
0000
0000
0010
0000
0100
0000
0000
0001
0000
0001
1000
0000
0100
0000
1000
0000
,  // measure 53
0010
0000
0010
0000
0000
0100
0000
0001
0100
0000
0010
0000
1000
0000
0001
0000
,  // measure 54
0020
0000
0130
1000
0000
0010
1000
0001
,  // measure 55
0100
0000
0010
0100
0000
0010
1000
0000
0001
0000
0010
0100
1000
0000
0001
1000
,  // measure 56
0010
0000
1000
0200
0000
0320
0000
0030
0001
0000
1000
0200
0000
0320
0000
0030
,  // measure 57
0001
0000
1000
0020
0000
0230
0000
0300
0001
0000
1000
0020
0000
0230
0000
0300
,  // measure 58
0001
0000
0010
0200
0000
2300
0000
3000
0001
0000
0010
0200
0000
2300
0000
3000
,  // measure 59
0001
0000
0100
0020
0000
2030
0000
3000
0001
0000
0100
0020
0000
2030
0000
3000
,  // measure 60
0M01
0000
0010
0200
0000
2300
0000
3000
0001
0000
0010
0200
0000
2300
0000
3000
,  // measure 61
0010
0000
0100
0002
0000
2003
0000
3000
0100
0000
0010
0000
0001
0000
1000
0000
,  // measure 62
0040
0000
0130
0001
0000
0010
0200
0000
,  // measure 63
1300
0000
0001
1000
0000
0100
0010
0000
0002
0000
0000
0000
1003
0000
0000
0000
,  // measure 64
2001
0000
0000
3000
0100
0010
0001
1000
,  // measure 65
0000
0000
2010
0000
0000
0000
3001
0010
0100
0000
0010
0000
0001
0000
1000
0000
,  // measure 66
1001
0001
0100
0040
0000
0030
1000
0001
,  // measure 67
0000
0000
0012
0000
0000
0000
1003
0100
0010
0000
0001
0000
0100
0000
0010
0000
,  // measure 68
1000
0001
0100
0000
0010
0100
0000
0100
,  // measure 69
0000
0000
0102
0000
0000
0000
1003
0100
0010
0000
0001
0000
1000
0000
0010
0000
,  // measure 70
0210
0000
0300
0102
0000
0003
2001
0000
,  // measure 71
3000
0200
0000
0310
0001
1001
1000
0010
,  // measure 72
0200
0000
0000
0300
0001
0010
0100
1000
,  // measure 73
0000
0000
2100
0000
0000
0000
3001
0100
0010
0000
0100
0000
0001
0000
1000
0000
,  // measure 74
1001
0001
0010
0400
0000
0300
0001
0100
,  // measure 75
0000
1200
0000
0000
0310
0001
1000
0010
,  // measure 76
0200
0310
1000
0200
0310
0001
0200
0320
,  // measure 77
0000
0000
1030
0000
0000
0000
0001
0100
0010
0000
1000
0000
0001
0000
0010
0000
,  // measure 78
0200
1300
0020
0230
0000
0301
0020
0000
,  // measure 79
0031
0000
1000
0010
0000
1000
0001
0040
0130
0000
0010
0000
0001
0000
1000
0000
,  // measure 80
0200
0000
0000
0000
0000
0000
0000
0000
0300
0000
0000
0000
0200
0000
0000
0310
,  // measure 81
0001
0100
0010
1000
0002
0000
0003
0000
,  // measure 82
0001
0000
0010
0100
0000
0010
0001
0000
1000
0000
0010
0000
0100
0000
0001
0000
,  // measure 83
1000
0000
0100
0010
0000
0100
1000
0000
0001
0000
0001
0000
0100
0010
0100
0000
,  // measure 84
0001
0000
1000
0100
0000
0010
0000
0000
0001
0000
0001
0000
1000
0001
0000
0000
,  // measure 85
0100
0000
0100
0000
0000
0010
0000
0000
1000
0000
0001
0010
0000
0100
0010
0000
,  // measure 86
0001
0000
0000
0001
0000
1000
0001
0000
0100
0000
0010
0000
0100
0000
0001
0000
,  // measure 87
1000
0000
0100
0010
0000
0100
1000
0000
0001
0000
0010
0100
0000
1000
0000
0001
,  // measure 88
02M0
0000
0000
0000
0000
00M0
0000
0000
0000
0000
0000
0000
0000
0000
0000
0000
0000
0000
0000
0000
0000
0000
0000
0000
0000
0000
0000
0000
0000
0000
0000
0000
0000
0000
0000
0000
0300
0000
0000
0000
0000
0000
0000
0000
0000
0000
0000
0000
0000
0000
0000
0000
0000
0000
0000
0000
0000
0000
0000
0000
0000
0000
0000
0000
;

//---------------dance-single - Benpai----------------
#NOTEDATA:;
#CHARTNAME:Benpai SE;
#STEPSTYPE:dance-single;
#DESCRIPTION:Benpai;
#CHARTSTYLE:;
#DIFFICULTY:Easy;
#METER:3;
#RADARVALUES:0.210312,0.305547,0.124997,0.263882,0.000000,212.000000,194.000000,18.000000,38.000000,16.000000,0.000000,1.000000,0.000000,0.000000,0.210312,0.305547,0.124997,0.263882,0.000000,212.000000,194.000000,18.000000,38.000000,16.000000,0.000000,1.000000,0.000000,0.000000;
#CREDIT:Benpai;
#DISPLAYBPM:150.000000;
#NOTES:
// measure 0
0000
0000
0000
0000
,  // measure 1
0000
0000
0000
0000
,  // measure 2
0000
0000
0000
0000
,  // measure 3
0000
0000
0000
0000
,  // measure 4
0000
0000
0000
0000
,  // measure 5
0000
0000
0000
0000
,  // measure 6
0000
0000
0000
0000
,  // measure 7
0000
0000
0000
0000
,  // measure 8
0001
0000
1000
0000
,  // measure 9
0000
0100
0000
0000
1000
0000
0000
0000
,  // measure 10
0001
0000
0100
0000
,  // measure 11
0000
0001
0000
0000
1000
0000
0000
0000
,  // measure 12
0010
0000
0100
0000
,  // measure 13
0000
0010
0000
0000
1000
0000
0000
0000
,  // measure 14
0100
0000
0010
0000
,  // measure 15
0000
0100
0000
0000
1000
0000
0000
0000
,  // measure 16
1001
0000
0001
0000
,  // measure 17
0100
0000
0010
0000
,  // measure 18
1000
0000
0100
0000
,  // measure 19
1000
0000
0001
0000
,  // measure 20
0200
0000
0000
0320
,  // measure 21
0000
0000
0030
0000
,  // measure 22
2000
0000
0000
3001
,  // measure 23
0100
0000
0010
MMMM
,  // measure 24
1002
0000
0013
0000
,  // measure 25
0000
1100
0000
0000
1000
0000
0000
0000
,  // measure 26
0020
0000
0000
0030
0100
0000
0001
0000
,  // measure 27
0000
1001
0000
0000
1000
0000
0000
0000
,  // measure 28
0200
0000
0000
0300
0010
0000
0000
0000
,  // measure 29
0000
0012
0000
0000
0003
0000
0000
0000
,  // measure 30
2000
0000
0000
3020
0000
0000
0230
0000
,  // measure 31
0000
0301
0000
0000
1000
0001
0000
0000
,  // measure 32
0012
0000
0000
0003
1000
0000
0000
0000
,  // measure 33
0000
1010
0000
0000
0010
0000
0000
0000
,  // measure 34
0200
0000
0000
0300
0001
0000
0000
0000
,  // measure 35
0000
0102
0000
0003
1000
0000
0000
0000
,  // measure 36
0200
0000
0000
0320
0000
0000
0032
0000
,  // measure 37
0000
0003
0000
0000
1000
0000
0000
0000
,  // measure 38
0020
0000
0000
0230
0000
0000
0302
0000
,  // measure 39
0003
0000
0000
MMMM
,  // measure 40
0010
0000
0000
0000
,  // measure 41
0100
0000
0000
0000
,  // measure 42
4000
0000
0000
0000
0000
3000
0000
0000
,  // measure 43
0010
0000
0100
0001
,  // measure 44
1000
0000
0000
0000
,  // measure 45
0010
0000
0010
0000
,  // measure 46
0100
0001
1000
0001
,  // measure 47
0010
0000
0000
0000
,  // measure 48
0110
0100
1000
0001
,  // measure 49
0100
0010
0100
0001
,  // measure 50
1000
0100
0010
0100
,  // measure 51
1000
0001
0100
0010
,  // measure 52
0100
0001
1000
0001
,  // measure 53
0010
0100
1000
0010
,  // measure 54
0100
0001
0010
0001
,  // measure 55
1000
0010
0100
0001
,  // measure 56
1000
0100
1000
0001
,  // measure 57
0100
0010
0100
0001
,  // measure 58
1000
0100
1000
0001
,  // measure 59
0100
0010
0100
0001
,  // measure 60
1001
1000
0100
0010
,  // measure 61
0001
0100
0010
1000
,  // measure 62
0200
0000
0000
0320
0000
0000
0032
0000
,  // measure 63
1003
0000
0010
MMMM
,  // measure 64
0210
0000
0301
0000
,  // measure 65
0000
1001
0000
0000
1000
0000
0000
0000
,  // measure 66
0200
0000
0000
0300
0010
0000
0001
0000
,  // measure 67
0000
1001
0000
0000
1000
0000
0000
0000
,  // measure 68
0020
0000
0000
0030
0100
0000
0000
0000
,  // measure 69
0000
0102
0000
0000
0003
0000
0000
0000
,  // measure 70
2000
0000
0000
3200
0000
0000
0320
0000
,  // measure 71
0000
0031
0000
0000
1000
0001
0000
0000
,  // measure 72
0102
0000
0000
0003
1000
0000
0000
0000
,  // measure 73
0000
1100
0000
0000
0100
0000
0000
0000
,  // measure 74
0020
0000
0000
0030
0001
0000
0000
0000
,  // measure 75
0000
0012
0000
0003
1000
0000
0000
0000
,  // measure 76
0020
0000
0000
0230
0000
0000
0302
0000
,  // measure 77
0000
0003
0000
0000
1000
0000
0000
0000
,  // measure 78
0200
0000
0000
0320
0000
0000
0032
0000
,  // measure 79
0003
0000
0000
MMMM
,  // measure 80
1000
0000
0000
1000
,  // measure 81
0010
0100
0001
0000
,  // measure 82
1000
0100
1000
0000
,  // measure 83
0001
0010
0001
0100
,  // measure 84
0010
0000
1000
0000
,  // measure 85
0100
0000
0010
0000
,  // measure 86
0100
1000
0001
0000
,  // measure 87
0100
0010
1000
0000
,  // measure 88
1001
0000
0000
0000
;

//---------------dance-single - Benpai----------------
#NOTEDATA:;
#CHARTNAME:Benpai SM;
#STEPSTYPE:dance-single;
#DESCRIPTION:Benpai;
#CHARTSTYLE:;
#DIFFICULTY:Medium;
#METER:7;
#RADARVALUES:0.431536,0.461250,0.048610,0.416655,0.059026,435.000000,428.000000,7.000000,60.000000,2.000000,0.000000,0.000000,0.000000,0.000000,0.431536,0.461250,0.048610,0.416655,0.059026,435.000000,428.000000,7.000000,60.000000,2.000000,0.000000,0.000000,0.000000,0.000000;
#CREDIT:Benpai;
#DISPLAYBPM:150.000000;
#NOTES:
// measure 0
0000
0000
0000
0000
,  // measure 1
0000
0000
0000
0000
,  // measure 2
0000
0000
0000
0000
,  // measure 3
0000
0000
0000
0000
,  // measure 4
0000
0000
0000
0000
,  // measure 5
0000
0000
0000
0000
,  // measure 6
0000
0000
0000
0000
,  // measure 7
0000
0000
0000
0000
0000
0000
0000
0000
1000
0000
0000
0100
0000
0010
0000
0001
,  // measure 8
2000
0000
3000
0000
0010
0000
0100
0001
,  // measure 9
2000
0000
3000
0000
0100
1000
0001
0000
,  // measure 10
0100
0010
1000
0001
0000
0010
0001
1000
,  // measure 11
0000
0001
0100
0010
1000
0001
0010
0100
,  // measure 12
0000
1000
0001
1000
0000
0010
0100
0002
,  // measure 13
0000
0000
0003
0000
0000
1000
0100
0010
,  // measure 14
0002
0000
1003
0010
0000
0100
0002
0000
,  // measure 15
0000
0000
1003
0000
0000
0000
0000
0000
0100
0000
0000
0010
0000
0001
0000
1000
,  // measure 16
0001
0000
0100
0000
0010
1000
0001
0010
,  // measure 17
0200
0000
0300
0000
0010
0001
1000
0000
,  // measure 18
0001
0100
0010
0100
0000
0001
1000
0100
,  // measure 19
0000
0010
0100
1000
0010
0100
0001
1000
,  // measure 20
0200
0000
0300
0020
0000
0030
0002
0000
,  // measure 21
1003
0010
0100
0001
1000
0100
0010
0001
,  // measure 22
2000
0000
3010
0100
0000
0001
0020
0000
,  // measure 23
0130
0000
0000
1000
0000
0000
0001
0000
M200
0000
0000
0000
0310
0000
0000
0000
,  // measure 24
2001
0000
0000
3000
0010
0100
0001
1000
,  // measure 25
0000
0200
0000
0300
0010
0100
1000
0001
,  // measure 26
0100
0010
0100
0002
0000
0003
1000
0100
,  // measure 27
0000
0110
0000
0000
0010
0001
1000
0010
,  // measure 28
0100
0001
1000
0000
0001
0010
0000
0010
,  // measure 29
0000
0200
0000
0300
1000
0001
0100
0010
,  // measure 30
2000
0000
3000
0200
0000
0300
0020
0000
,  // measure 31
0030
0002
0000
1003
0010
0100
0010
1000
,  // measure 32
0002
0000
0000
0003
0010
0100
1000
0001
,  // measure 33
0000
0200
0000
0300
0010
0100
0001
1000
,  // measure 34
0100
0010
0100
2000
0000
3000
0010
0100
,  // measure 35
0000
0101
0000
0000
0001
1000
0001
0010
,  // measure 36
0200
0000
0300
2000
0000
3000
0020
0100
,  // measure 37
0000
1030
0000
0001
0010
0100
0010
0001
,  // measure 38
2000
0000
3000
0020
0000
0030
0200
0000
,  // measure 39
0301
1000
0100
1000
0001
0100
0010
1000
,  // measure 40
0001
0000
0000
0000
1000
0000
0000
0000
0100
0000
1000
0000
0000
0001
0000
0000
,  // measure 41
0010
0000
0001
0000
0000
1000
0000
0000
0010
0000
0000
1000
0000
0000
0001
0000
,  // measure 42
0200
0000
0000
0000
0000
0310
0000
0000
,  // measure 43
0000
1000
0010
1000
0100
0010
0001
1000
,  // measure 44
0010
0000
0000
0000
0100
0000
0000
0000
0001
0000
1000
0000
0000
0100
0000
0000
,  // measure 45
0010
0000
0100
0000
0000
1000
0000
0000
0001
0000
0000
1000
0000
0000
0010
0000
,  // measure 46
0100
0001
1000
0100
,  // measure 47
0010
0000
0000
0100
0000
0000
1000
0000
0001
0000
0000
0000
1001
0000
0000
0000
,  // measure 48
1000
0000
0010
0000
0100
0001
1000
0100
,  // measure 49
0010
0000
0100
0000
1000
0001
0100
0000
,  // measure 50
0010
0100
0001
1000
0000
0100
0010
0001
,  // measure 51
0000
0100
0010
1000
0001
0010
0100
1000
,  // measure 52
0000
0000
0001
0000
0100
0010
1000
0000
,  // measure 53
0001
1000
0100
0000
0010
0100
1000
0010
,  // measure 54
0200
0000
0301
1000
0000
0001
0020
0000
,  // measure 55
0130
0000
1000
0000
0010
0100
0001
1000
,  // measure 56
0200
0000
0310
0000
0002
0000
1003
0010
,  // measure 57
0200
0000
0301
0000
0010
0100
0010
0000
,  // measure 58
0001
1000
0010
0100
0000
0001
1000
0100
,  // measure 59
0000
1000
0001
0100
0010
1000
0001
1000
,  // measure 60
00M0
0100
0010
0100
0000
1000
0010
0200
,  // measure 61
0000
0000
0000
0300
0000
0010
1000
0100
,  // measure 62
0020
0000
0130
1000
0000
0010
0200
0000
,  // measure 63
0301
0000
0000
1000
0000
0000
0100
0000
0020
0000
0000
0000
0031
0000
0000
0000
,  // measure 64
2001
0000
0000
3000
0100
0010
0001
1000
,  // measure 65
0000
0020
0000
0030
0100
0010
1000
0001
,  // measure 66
0010
0100
0010
0002
0000
0003
1000
0010
,  // measure 67
0000
0110
0000
0000
0100
0001
1000
0100
,  // measure 68
0010
0001
1000
0000
0001
0100
0000
0100
,  // measure 69
0000
0020
0000
0030
1000
0001
0010
0100
,  // measure 70
2000
0000
3000
0020
0000
0030
0200
0000
,  // measure 71
0300
0002
0000
1003
0100
0010
0100
1000
,  // measure 72
0002
0000
0000
0003
0100
0010
1000
0001
,  // measure 73
0000
0020
0000
0030
0100
0010
0001
1000
,  // measure 74
0010
0100
0010
2000
0000
3000
0100
0010
,  // measure 75
0000
0011
0000
0000
0001
1000
0001
0100
,  // measure 76
0020
0000
0030
2000
0000
3000
0200
0010
,  // measure 77
0000
1300
0000
0001
0100
0010
0100
0001
,  // measure 78
2000
0000
3000
0200
0000
0300
0020
0000
,  // measure 79
0031
1000
0010
1000
0001
0010
0100
1000
,  // measure 80
0020
0000
0030
0020
,  // measure 81
0130
0001
0010
0100
2000
0000
3000
0000
,  // measure 82
0001
0000
0100
0000
0010
1000
0001
0010
,  // measure 83
0100
0000
0010
0000
0001
1000
0010
0100
,  // measure 84
0001
0000
1000
0000
0100
0010
0100
1000
,  // measure 85
0001
0000
0000
0000
0100
0000
0000
0000
0010
0000
0000
1000
0000
0000
0001
0000
,  // measure 86
0010
0000
0100
0000
1000
0010
0100
0001
,  // measure 87
1000
0000
0000
0000
0100
0000
0000
0000
0010
0000
0000
0001
0000
0000
1000
0000
,  // measure 88
0020
0000
0000
0000
0000
0000
0000
0000
0000
0030
0000
0000
0000
0000
0000
0000
;
