#TITLE:Paradox;
#SUBTITLE:;
#ARTIST:ESAI;
#TITLETRANSLIT:;
#SUBTITLETRANSLIT:;
#ARTISTTRANSLIT:;
#GENRE:;
#CREDIT:;
#BANNER:Paradox-bn.png;
#BACKGROUND:Paradox-bg.png;
#LYRICSPATH:;
#CDTITLE:cd-title-Benpai.png;
#MUSIC:Paradox.ogg;
#OFFSET:0.009000;
#SAMPLESTART:89.647308;
#SAMPLELENGTH:11.034482;
#SELECTABLE:YES;
#DISPLAYBPM:174.000000;
#BPMS:0.000000=174.000000
,100.000000=261.000000
,100.750000=87.000000
,101.000000=174.000000
,116.000000=261.000000
,117.000000=174.000000
,132.000000=261.000000
,132.750000=87.000000
,133.000000=174.000000
,148.000000=261.000000
,149.000000=174.000000
,171.000000=261.000000
,171.250000=130.500000
,171.500000=174.000000
,178.000000=261.000000
,178.187500=87.000000
,178.250000=174.000000
,178.500000=261.000000
,178.687500=87.000000
,178.750000=174.000000
,179.000000=261.000000
,179.187500=87.000000
,179.250000=174.000000
,179.500000=261.000000
,179.687500=87.000000
,179.750000=174.000000
,259.000000=261.000000
,260.000000=174.000000
;
#STOPS:116.000000=0.058000,
116.500000=0.057000,
148.000000=0.058000,
148.500000=0.058000,
259.000000=0.115000
;
#BGCHANGES:;
#KEYSOUNDS:;
#ATTACKS:;

//---------------dance-single - Benpai----------------
#NOTES:
     dance-single:
     Benpai SX:
     Challenge:
     12:
     0.850265,1.111040,0.426858,0.354373,0.793312,739.000000,686.000000,53.000000,44.000000,13.000000,0.000000,0.850265,1.111040,0.426858,0.354373,0.793312,739.000000,686.000000,53.000000,44.000000,13.000000,0.000000:
// measure 0
0000
0000
0000
0000
,  // measure 1
0000
0000
0000
0000
,  // measure 2
0000
0000
0000
0000
,  // measure 3
0000
0000
0000
0000
,  // measure 4
0000
0000
0000
0000
,  // measure 5
0000
0000
0000
0000
,  // measure 6
0000
0000
0000
0000
,  // measure 7
0000
0000
0000
0000
,  // measure 8
0000
0000
0000
0000
,  // measure 9
1002
0000
0013
0000
0100
0010
0001
1000
,  // measure 10
0010
1000
0001
0001
0020
0130
0010
0001
,  // measure 11
1000
0000
0010
0000
0100
0001
1000
0001
,  // measure 12
0010
0000
0001
0000
1000
0000
1000
0000
0020
0000
0030
0002
0000
0003
0020
0000
,  // measure 13
0130
0000
0001
0000
1000
0000
0100
0010
0001
1000
0001
0000
0100
0000
0010
0000
,  // measure 14
1000
0000
0100
0000
1000
0000
0001
1000
0010
0100
0010
0000
1000
0000
0100
0000
,  // measure 15
0010
0000
0001
0000
0100
0000
0010
0100
0001
1000
0001
0000
0010
0000
0100
0000
,  // measure 16
1000
0000
0100
0000
0010
0000
0001
1000
0010
0100
0010
0000
1000
0000
0001
0000
,  // measure 17
1001
0001
0100
0010
,  // measure 18
1000
0001
1000
0100
,  // measure 19
0110
0010
0001
1000
,  // measure 20
0010
0000
0000
0000
0000
0000
0100
0000
0000
0000
0000
0000
1020
0000
0000
0030
0000
0000
1000
0000
0001
0000
1000
0000
,  // measure 21
0100
0000
0010
0000
0100
0000
1000
0000
0001
0100
0010
0000
0100
0000
0001
0000
,  // measure 22
1001
0000
1000
0000
0100
0000
0010
0000
0001
1000
0010
0000
0100
0000
0001
0000
,  // measure 23
1000
0100
1000
0010
0100
0001
1000
0100
0010
0001
0100
0001
1000
0010
1000
0001
,  // measure 24
1000
0010
0100
0001
0010
0100
1000
0010
0100
0001
1000
0001
0020
0000
0000
0030
,  // measure 25
0110
0000
0000
0000
1000
0001
1000
0001
0010
0100
0001
0100
1000
0001
1000
0001
,  // measure 26
0010
0100
0001
0100
1000
0001
1000
0001
0010
0100
0001
0100
1000
0001
1000
0001
,  // measure 27
0200
0000
0000
0000
0301
1000
0001
1000
0010
0100
1000
0100
0001
1000
0001
1000
,  // measure 28
0010
0100
1000
0100
0001
1000
0001
1000
0010
0100
1000
0100
0001
1000
0001
1000
,  // measure 29
0100
0000
0100
0000
1000
0001
0100
0001
0010
0100
0001
0100
1000
0001
0100
0001
,  // measure 30
0010
0100
0001
0100
1000
0001
0100
0001
0010
0100
0001
0100
1000
0001
0100
0001
,  // measure 31
4000
0000
0000
3000
4040
0000
3030
0000
0004
0000
0103
0000
0004
0000
1003
0000
,  // measure 32
0400
0000
0300
0000
0040
0000
0031
1000
0100
1000
0001
0100
0010
0000
0000
0000
,  // measure 33
1001
0000
0000
0000
0001
1000
0001
1000
0100
0010
1000
0010
0001
1000
0001
1000
,  // measure 34
0100
0010
1000
0010
0001
1000
0010
0100
0001
1000
0100
1000
0010
0100
0001
1000
,  // measure 35
0200
0000
0000
0000
1300
0001
1000
0001
0100
0010
0001
0010
1000
0001
1000
0010
,  // measure 36
0100
0010
0001
0010
1000
0001
1000
0001
0100
0010
0001
0010
1000
0001
1000
0100
,  // measure 37
0010
0000
0010
0000
0001
1000
0001
1000
0010
0100
1000
0100
0001
1000
0001
1000
,  // measure 38
0010
0100
1000
0100
0001
1000
0001
1000
0010
0100
1000
0100
0001
1000
0100
1000
,  // measure 39
0004
0000
0000
0003
0044
0000
0033
1000
0040
0000
0130
0000
0004
0000
1003
0000
,  // measure 40
0400
0000
0310
0000
0004
0000
1003
0010
0100
0001
0010
0100
0010
0001
1000
0010
,  // measure 41
0200
0000
0302
0000
1003
0001
0100
0001
,  // measure 42
0102
0000
1003
0100
0010
0001
0200
0310
,  // measure 43
0120
0000
2030
0000
3001
0010
0001
0100
,  // measure 44
0102
0000
0000
0000
1003
0000
0100
0000
0040
0030
0400
0300
4000
3000
0004
0003
,  // measure 45
2001
0000
0000
0000
3001
1000
0001
1000
0100
0010
1000
0010
0100
1000
0001
1000
,  // measure 46
0100
0010
1000
0010
0100
1000
0001
1000
0100
0010
1000
0010
0100
1000
0001
1000
,  // measure 47
0020
0000
0000
0000
0130
0001
1000
0001
0010
0100
0001
0100
1000
0001
0100
0010
,  // measure 48
1000
0100
1000
0001
0100
0010
0100
0001
1000
0100
1000
0001
0010
0100
1000
0010
,  // measure 49
0200
0000
0000
0000
,  // measure 50
0302
0000
0000
0000
0000
0000
0000
0000
2003
0000
0000
0000
0000
0000
0000
3000
,  // measure 51
1200
0000
0000
0000
,  // measure 52
1300
0001
0100
0010
0100
0001
1000
0100
,  // measure 53
0120
0000
0000
0000
,  // measure 54
0000
0000
0000
0000
0000
0000
0000
0030
,  // measure 55
1002
0000
0000
0000
,  // measure 56
0023
0000
0230
0000
,  // measure 57
1300
0001
0100
0001
1000
0100
0010
0001
,  // measure 58
1000
0100
1000
0001
0100
0010
1000
0001
,  // measure 59
0020
0130
0010
0001
1000
0001
0100
0010
,  // measure 60
1000
0001
1000
0100
1000
0001
0010
0001
,  // measure 61
1002
0003
1000
0000
1010
0000
0010
0000
,  // measure 62
0110
0100
0101
0001
,  // measure 63
0012
0000
0000
0003
0000
0000
0110
0000
0000
0000
0000
0000
1100
0000
0000
1000
0000
0000
0001
0000
0000
0100
0001
0100
,  // measure 64
0001
0000
0000
0000
0000
0000
0000
0000
0000
0000
0000
0000
00M0
00M0
00M0
00M0
00M0
00M0
00M0
0000
0000
0000
0000
0000
,  // measure 65
1002
0000
0000
0000
0013
0000
0100
1000
0100
1000
0001
0000
0100
0000
0010
0000
,  // measure 66
2010
0000
0000
0000
3001
0000
0010
0100
0010
0001
1000
0000
0010
0000
0100
0000
,  // measure 67
0201
0000
0000
0000
0310
0000
1000
0001
0010
0M00
0010
0000
1000
0000
0100
1000
,  // measure 68
0010
0M00
0010
0000
0001
0000
1000
0001
0010
0M00
0010
0000
0100
0000
0010
0000
,  // measure 69
1020
0000
0000
0000
0130
0000
0001
1000
0100
1000
0001
0000
0010
0000
0100
0000
,  // measure 70
1200
0000
0000
0000
0310
0000
0001
0100
0010
1000
0001
0000
0010
0000
0010
0000
,  // measure 71
0210
0000
0000
0000
1300
0000
0001
0100
0010
1000
0001
1000
0100
0000
1000
0000
,  // measure 72
1200
0000
0000
0000
1300
0000
0001
0100
0010
1000
0010
0000
0100
0000
0001
0000
,  // measure 73
0102
0000
0000
0000
1003
0000
0010
1000
0100
0010
1000
0000
0010
0000
0001
0000
,  // measure 74
0012
0000
0000
0000
1003
0000
0001
1000
0010
0100
0001
0000
0100
0000
1000
0000
,  // measure 75
0210
0000
0000
0000
0301
0000
1000
0001
0100
00M0
0100
0000
1000
0000
0010
1000
,  // measure 76
0100
00M0
0100
0000
0001
0000
1000
0001
0100
00M0
0100
0000
0010
0000
0001
0000
,  // measure 77
1002
0000
0000
0000
0013
0000
0100
1000
0010
0100
1000
0000
0100
0000
0001
0000
,  // measure 78
0102
0000
0000
0000
1003
0000
0001
1000
0100
0010
0001
0000
0010
0000
1000
0000
,  // measure 79
0120
0000
0000
0000
0031
0000
1000
0001
1000
0010
0100
0000
0001
0000
1000
0000
,  // measure 80
2100
0000
0000
0000
3020
0000
0000
0000
0130
0001
1000
0100
0010
0000
0100
1000
,  // measure 81
0001
0000
0101
0000
0100
0010
1010
0000
,  // measure 82
1000
0000
1001
0000
0001
0010
0110
0000
,  // measure 83
0100
0000
1100
0000
1000
0010
0101
0000
,  // measure 84
0001
0000
1001
0000
1000
0100
0110
0000
,  // measure 85
0011
0000
1001
0000
1000
0010
1010
0000
,  // measure 86
0001
0000
0101
0000
0100
0010
1010
0000
,  // measure 87
1000
0000
1001
0000
0001
1000
1100
0000
,  // measure 88
0001
0100
0010
1000
0001
0010
0100
0010
0001
0000
1000
0010
0100
0000
0001
0000
,  // measure 89
1100
0000
0000
0000
;

//---------------dance-single - Benpai----------------
#NOTES:
     dance-single:
     Benpai SH:
     Hard:
     10:
     0.631658,0.716800,0.378535,0.410750,0.120809,549.000000,502.000000,47.000000,51.000000,13.000000,0.000000,0.631658,0.716800,0.378535,0.410750,0.120809,549.000000,502.000000,47.000000,51.000000,13.000000,0.000000:
// measure 0
0000
0000
0000
0000
,  // measure 1
0000
0000
0000
0000
,  // measure 2
0000
0000
0000
0000
,  // measure 3
0000
0000
0000
0000
,  // measure 4
0000
0000
0000
0000
,  // measure 5
0000
0000
0000
0000
,  // measure 6
0000
0000
0000
0000
,  // measure 7
0000
0000
0000
0000
,  // measure 8
0000
0000
0000
0000
,  // measure 9
1002
0000
0013
0000
0100
0010
0001
1000
,  // measure 10
0010
1000
0001
0001
0020
0130
0010
0001
,  // measure 11
1000
0000
0010
0000
0100
0001
1000
0001
,  // measure 12
0010
0000
0001
0000
0100
0000
0100
0000
0002
0000
0003
0020
0000
0030
0200
0000
,  // measure 13
1300
0001
0100
0010
0100
0001
1000
0100
,  // measure 14
0010
0001
1000
0001
0100
0010
0100
0001
,  // measure 15
1000
0001
0010
0100
1000
0001
0100
0001
,  // measure 16
1000
0000
0100
0000
1000
0000
0001
0000
0200
0000
0000
0320
0000
0000
1030
0000
,  // measure 17
1001
0001
0100
0010
,  // measure 18
1000
0001
1000
0100
,  // measure 19
0110
0010
0001
1000
,  // measure 20
0010
0000
0000
0000
0000
0000
0100
0000
0000
0000
0000
0000
1020
0000
0000
0030
0000
0000
1000
0000
0001
0000
1000
0000
,  // measure 21
0100
0010
0100
1000
0010
0100
0001
0010
,  // measure 22
0100
0010
0001
0100
0010
1000
0100
1000
,  // measure 23
0010
0000
0100
0001
0100
0000
0010
1000
0001
0000
0010
0000
0100
0000
1000
0000
,  // measure 24
0004
0000
0000
0000
0000
0000
1003
0000
0010
0100
0001
1000
0002
0000
0000
0003
,  // measure 25
1001
0000
1000
0100
0010
1000
0010
0001
,  // measure 26
0010
1000
0010
0100
0010
1000
0010
0001
,  // measure 27
0200
0000
0310
1000
0100
0001
0100
0010
,  // measure 28
0100
0001
0100
1000
0100
0001
0100
1000
,  // measure 29
0001
0001
1000
0010
0100
1000
0100
0001
,  // measure 30
0100
1000
0100
0010
0100
1000
0100
0010
,  // measure 31
4000
0000
0000
3000
4040
0000
3030
0000
0004
0000
0103
0000
0004
0000
1003
0000
,  // measure 32
0400
0000
0300
0000
0040
0000
0130
0000
1000
0001
1000
0100
0010
0000
0000
0000
,  // measure 33
1001
0000
0001
0010
0100
0001
0100
1000
,  // measure 34
0100
0001
0100
0010
0001
0100
1000
0100
,  // measure 35
0020
0000
1030
0100
0010
1000
0010
0001
,  // measure 36
0010
1000
0010
0100
0010
1000
0010
0001
,  // measure 37
0100
0100
0001
0010
0100
0001
0100
1000
,  // measure 38
0100
0001
0100
0010
0100
0001
0100
1000
,  // measure 39
0004
0000
0000
0003
0044
0000
0033
0000
4000
0000
3010
0000
4000
0000
3001
0000
,  // measure 40
0040
0000
0130
0000
4000
0000
3001
0000
0100
0010
0100
0001
1000
0100
0010
0001
,  // measure 41
0200
0000
0302
0000
1003
0001
1000
0100
,  // measure 42
0210
0000
1300
0001
0100
0010
2000
3001
,  // measure 43
0020
0000
0230
0000
1300
0001
1000
0010
,  // measure 44
0120
0000
0000
0000
1030
0000
0100
0000
0040
0030
0004
0003
4000
3000
0040
0030
,  // measure 45
2010
0000
3001
0100
0010
0001
0010
1000
,  // measure 46
0010
0001
0010
0100
0010
0001
0010
1000
,  // measure 47
0200
0000
0310
0001
0100
1000
0100
0010
,  // measure 48
1000
0001
0010
0100
0001
0100
1000
0010
,  // measure 49
0200
0000
0000
0000
,  // measure 50
0302
0000
0000
0000
0000
0000
0000
0000
2003
0000
0000
0000
0000
0000
0000
3000
,  // measure 51
1200
0000
0000
0000
,  // measure 52
1300
0001
0100
0010
0100
0001
1000
0100
,  // measure 53
0120
0000
0000
0000
,  // measure 54
0000
0000
0000
0000
0000
0000
0000
0030
,  // measure 55
1002
0000
0000
0000
,  // measure 56
0023
0000
0230
0000
,  // measure 57
1300
0001
0100
0001
1000
0100
0010
0001
,  // measure 58
1000
0100
1000
0001
0100
0010
1000
0001
,  // measure 59
0020
0130
0010
0001
1000
0001
0100
0010
,  // measure 60
1000
0001
1000
0100
1000
0001
0010
0001
,  // measure 61
1002
0003
1000
0000
1010
0000
0010
0000
,  // measure 62
0110
0100
0101
0001
,  // measure 63
0012
0000
0003
0000
0110
0000
0000
0000
1100
0000
1000
0000
0010
0000
0100
0001
,  // measure 64
0100
0000
0000
0000
0000
0000
0000
0000
0000
0000
0000
0000
00M0
00M0
00M0
00M0
00M0
00M0
00M0
0000
0000
0000
0000
0000
,  // measure 65
1002
0000
0013
0002
0000
0103
0010
0100
,  // measure 66
0102
0000
1003
0200
0000
0310
0001
1000
,  // measure 67
2100
0000
0000
0000
3001
0000
0100
0000
0010
0M00
0010
0000
0001
0000
0100
0000
,  // measure 68
0010
0M00
0010
0000
0001
0000
1000
0000
0010
0M00
0010
0000
0001
0000
0010
0000
,  // measure 69
0120
0000
0031
2000
0000
3010
0100
0001
,  // measure 70
1002
0000
0013
0200
0000
1300
0001
1000
,  // measure 71
0020
0000
0130
0001
1000
0001
0010
0100
,  // measure 72
2100
0000
3010
0000
0010
0100
0001
0010
,  // measure 73
1200
0000
0310
0001
0100
1000
0100
0010
,  // measure 74
2000
0000
3001
0010
0100
1000
0010
0100
,  // measure 75
0210
0000
0000
0000
0301
0000
1000
0000
0100
00M0
0100
0000
0010
0000
1000
0000
,  // measure 76
0100
00M0
0100
0000
0010
0000
1000
0000
0100
00M0
0100
0000
0001
0000
1000
0000
,  // measure 77
2010
0000
3010
0100
1000
0100
0001
0010
,  // measure 78
0021
0000
0130
2000
0000
3001
0100
0010
,  // measure 79
0120
0000
1030
0001
0010
0100
1000
0001
,  // measure 80
0200
0000
0000
0000
0320
0000
0000
0000
0130
0001
1000
0100
0010
0000
0001
1000
,  // measure 81
0100
0000
1100
0000
0000
1000
1001
0000
,  // measure 82
0001
0000
0011
0000
0000
0010
0110
0000
,  // measure 83
0100
0000
1100
0000
0000
1000
1001
0000
,  // measure 84
0001
0000
0101
0000
0000
0100
0110
0000
,  // measure 85
1010
0000
1001
0000
0000
0001
0101
0000
,  // measure 86
1000
0000
1100
0000
0000
0100
0110
0000
,  // measure 87
0010
0000
0011
0000
0000
0001
0100
0000
,  // measure 88
0010
0000
0100
0001
0100
0000
0010
1000
0001
0000
0010
0000
0100
0000
1000
0000
,  // measure 89
1100
0000
0000
0000
;

//---------------dance-single - Benpai----------------
#NOTES:
     dance-single:
     Benpai SN:
     Beginner:
     1:
     0.048324,0.107520,0.000000,0.032216,0.000000,42.000000,42.000000,0.000000,4.000000,42.000000,0.000000,0.048324,0.107520,0.000000,0.032216,0.000000,42.000000,42.000000,0.000000,4.000000,42.000000,0.000000:
// measure 0
0000
0000
0000
0000
,  // measure 1
0000
0000
0000
0000
,  // measure 2
0000
0000
0000
0000
,  // measure 3
0000
0000
0000
0000
,  // measure 4
0000
0000
0000
0000
,  // measure 5
0000
0000
0000
0000
,  // measure 6
0000
0000
0000
0000
,  // measure 7
0000
0000
0000
0000
,  // measure 8
0000
0000
0000
0000
,  // measure 9
M001
0000
0000
0000
,  // measure 10
0000
0000
0000
0000
,  // measure 11
M001
0000
0000
0000
,  // measure 12
0000
0000
0000
0000
,  // measure 13
M001
0000
0000
0000
,  // measure 14
0000
0000
0000
0000
,  // measure 15
M001
0000
0000
0000
,  // measure 16
0000
0000
0000
0000
,  // measure 17
M001
0000
0000
0000
,  // measure 18
0000
0000
0000
0000
,  // measure 19
M001
0000
0000
0000
,  // measure 20
0000
0000
0000
0000
,  // measure 21
M001
0000
0000
0000
,  // measure 22
M001
0000
0000
0000
,  // measure 23
M001
0000
0000
0000
,  // measure 24
0000
0000
0000
0000
,  // measure 25
M002
0003
0000
0000
,  // measure 26
0000
0000
0000
0000
,  // measure 27
M001
0000
0000
0000
,  // measure 28
0000
0000
0000
0000
,  // measure 29
M002
0003
0000
0000
,  // measure 30
0000
0000
0000
0000
,  // measure 31
M001
0000
0000
0000
,  // measure 32
0000
0000
0000
0000
,  // measure 33
M002
0003
0000
0000
,  // measure 34
0000
0000
0000
0000
,  // measure 35
M001
0000
0000
0000
,  // measure 36
0000
0000
0000
0000
,  // measure 37
M002
0003
0000
0000
,  // measure 38
0000
0000
0000
0000
,  // measure 39
M001
0000
0000
0000
,  // measure 40
0000
0000
0000
0000
,  // measure 41
M001
0000
0000
0000
,  // measure 42
0000
0000
0000
0000
,  // measure 43
M001
0000
0000
0000
,  // measure 44
0000
0000
0000
0000
,  // measure 45
M001
0000
0000
0000
,  // measure 46
0000
0000
0000
0000
,  // measure 47
M001
0000
0000
0000
,  // measure 48
0000
0000
0000
0000
,  // measure 49
M001
0000
0000
0000
,  // measure 50
0000
0000
0000
0000
,  // measure 51
M001
0000
0000
0000
,  // measure 52
0000
0000
0000
0000
,  // measure 53
M001
0000
0000
0000
,  // measure 54
0000
0000
0000
0000
,  // measure 55
M001
0000
0000
0000
,  // measure 56
0000
0000
0000
0000
,  // measure 57
M001
0000
0000
0000
,  // measure 58
0000
0000
0000
0000
,  // measure 59
M001
0000
0000
0000
,  // measure 60
0000
0000
0000
0000
,  // measure 61
M001
0000
0000
0000
,  // measure 62
0000
0000
0000
0000
,  // measure 63
M001
0000
0000
0000
,  // measure 64
0000
0000
0000
0000
,  // measure 65
M001
0000
0000
0000
,  // measure 66
0000
0000
0000
0000
,  // measure 67
M001
0000
0000
0000
,  // measure 68
0000
0000
0000
0000
,  // measure 69
M001
0000
0000
0000
,  // measure 70
0000
0000
0000
0000
,  // measure 71
M001
0000
0000
0000
,  // measure 72
0000
0000
0000
0000
,  // measure 73
M001
0000
0000
0000
,  // measure 74
0000
0000
0000
0000
,  // measure 75
M001
0000
0000
0000
,  // measure 76
0000
0000
0000
0000
,  // measure 77
M001
0000
0000
0000
,  // measure 78
0000
0000
0000
0000
,  // measure 79
M001
0000
0000
0000
,  // measure 80
0000
0000
0000
0000
,  // measure 81
M001
0000
0000
0000
,  // measure 82
0000
0000
0000
0000
,  // measure 83
M001
0000
0000
0000
,  // measure 84
0000
0000
0000
0000
,  // measure 85
M001
0000
0000
0000
,  // measure 86
0000
0000
0000
0000
,  // measure 87
M001
0000
0000
0000
,  // measure 88
0000
0000
0000
0000
,  // measure 89
100M
0000
0000
0000
;

//---------------dance-single - Benpai----------------
#NOTES:
     dance-single:
     Benpai SE:
     Easy:
     3:
     0.130013,0.250880,0.064431,0.056378,0.000000,113.000000,105.000000,8.000000,7.000000,1.000000,0.000000,0.130013,0.250880,0.064431,0.056378,0.000000,113.000000,105.000000,8.000000,7.000000,1.000000,0.000000:
// measure 0
0000
0000
0000
0000
,  // measure 1
0000
0000
0000
0000
,  // measure 2
0000
0000
0000
0000
,  // measure 3
0000
0000
0000
0000
,  // measure 4
0000
0000
0000
0000
,  // measure 5
0000
0000
0000
0000
,  // measure 6
0000
0000
0000
0000
,  // measure 7
0000
0000
0000
0000
,  // measure 8
0000
0000
0000
0000
,  // measure 9
1001
0000
0000
0000
,  // measure 10
0000
0000
0000
0000
,  // measure 11
0001
0000
0000
0000
,  // measure 12
0000
0000
0000
0000
,  // measure 13
1000
0000
0000
0000
,  // measure 14
0000
0000
0000
0000
,  // measure 15
0100
0000
0000
0000
,  // measure 16
0000
0000
0000
0000
,  // measure 17
0110
0000
0000
0000
,  // measure 18
0000
0000
0000
0000
,  // measure 19
0010
0000
0000
0000
,  // measure 20
0000
0000
0001
0000
,  // measure 21
0001
0000
0000
0000
,  // measure 22
0100
0000
0000
0000
,  // measure 23
0010
0010
0010
0010
,  // measure 24
0000
0000
1000
1000
,  // measure 25
0002
0103
0000
0010
,  // measure 26
0000
0010
0000
0010
,  // measure 27
1000
0001
0000
0001
,  // measure 28
0000
0001
0000
0001
,  // measure 29
2000
3100
0000
0100
,  // measure 30
0000
0100
0000
0100
,  // measure 31
0010
0001
0000
0001
,  // measure 32
0000
0001
0000
0001
,  // measure 33
0200
0310
0000
0010
,  // measure 34
0000
0010
0000
0010
,  // measure 35
1000
0100
0000
0100
,  // measure 36
0000
0100
0000
0100
,  // measure 37
0020
0031
0000
0001
,  // measure 38
0000
0001
0000
0001
,  // measure 39
1000
0010
0000
0010
,  // measure 40
1000
0000
0000
0000
,  // measure 41
1001
0000
0000
0000
,  // measure 42
0001
0000
0000
0020
,  // measure 43
0130
0000
0000
0000
,  // measure 44
0100
0000
1000
0001
,  // measure 45
0100
0010
0000
0010
,  // measure 46
0000
0010
0000
0010
,  // measure 47
1000
0001
0000
0001
,  // measure 48
2000
0000
0000
0000
,  // measure 49
3100
0000
0000
0000
,  // measure 50
0000
0000
0000
0000
,  // measure 51
0010
0000
0000
0000
,  // measure 52
0000
0000
0000
0000
,  // measure 53
0001
0000
0000
0000
,  // measure 54
0000
0000
0000
0000
,  // measure 55
0001
0000
0000
0000
,  // measure 56
0000
0000
0000
0000
,  // measure 57
1000
0000
0000
0000
,  // measure 58
0000
0000
0000
0000
,  // measure 59
0010
0000
0000
0000
,  // measure 60
0000
0000
0000
0000
,  // measure 61
0100
0000
0000
0000
,  // measure 62
0000
0000
0000
0000
,  // measure 63
0100
0000
0000
0000
,  // measure 64
0001
0000
0000
10M0
,  // measure 65
1000
0000
0000
0000
,  // measure 66
0100
0000
0000
0000
,  // measure 67
1000
0000
0000
0000
,  // measure 68
0001
0000
0000
0000
,  // measure 69
0101
0000
0000
0000
,  // measure 70
0100
0000
0000
0000
,  // measure 71
0010
0000
0000
0000
,  // measure 72
1000
0000
0000
0000
,  // measure 73
1001
0000
0000
0000
,  // measure 74
0001
0000
0000
0000
,  // measure 75
0010
0000
0000
0000
,  // measure 76
0100
0000
0000
0000
,  // measure 77
1100
0000
0000
0000
,  // measure 78
1000
0000
0000
0000
,  // measure 79
0001
0000
0000
0000
,  // measure 80
0100
0000
0000
0000
,  // measure 81
0101
0000
0000
0000
,  // measure 82
0001
0000
0000
0000
,  // measure 83
1000
0000
0000
0000
,  // measure 84
0010
0000
0000
0000
,  // measure 85
1010
0000
0000
0000
,  // measure 86
1000
0000
0000
0000
,  // measure 87
0100
0000
0000
0000
,  // measure 88
0020
0000
0000
0000
,  // measure 89
0031
0000
0000
0000
;

//---------------dance-single - Benpai----------------
#NOTES:
     dance-single:
     Benpai SM:
     Medium:
     7:
     0.421105,0.501760,0.128863,0.442966,0.032216,366.000000,350.000000,16.000000,55.000000,10.000000,0.000000,0.421105,0.501760,0.128863,0.442966,0.032216,366.000000,350.000000,16.000000,55.000000,10.000000,0.000000:
// measure 0
0000
0000
0000
0000
,  // measure 1
0000
0000
0000
0000
,  // measure 2
0000
0000
0000
0000
,  // measure 3
0000
0000
0000
0000
,  // measure 4
0000
0000
0000
0000
,  // measure 5
0000
0000
0000
0000
,  // measure 6
0000
0000
0000
0000
,  // measure 7
0000
0000
0000
0000
,  // measure 8
0000
0000
0000
0000
,  // measure 9
1002
0000
0013
0000
0100
0010
0001
1000
,  // measure 10
0000
0010
0100
0010
1000
0000
0001
0010
,  // measure 11
0000
0000
0100
0000
0010
0001
0000
0100
,  // measure 12
0000
0000
0001
0000
1000
0000
0001
0000
0010
0000
0000
0100
0000
0000
1000
0000
,  // measure 13
0001
0000
0100
0000
0010
1000
0000
0001
,  // measure 14
0000
0010
0100
1000
0010
0000
0100
0001
,  // measure 15
1000
0000
0010
0000
0100
0001
0000
1000
,  // measure 16
0000
0000
0100
0000
0010
0000
0100
0000
1000
0000
0000
0001
0000
0000
0100
0000
,  // measure 17
0010
1000
0010
0100
,  // measure 18
0001
1000
0001
0010
,  // measure 19
0110
0100
1000
0001
,  // measure 20
0100
0000
0000
0010
0000
0000
1010
0000
0000
0M00
000M
0M00
,  // measure 21
1001
1000
0100
0100
,  // measure 22
0110
0010
0001
0001
,  // measure 23
1000
0010
1000
0001
0010
0100
1000
0001
,  // measure 24
0200
0000
0310
2000
,  // measure 25
3001
0000
1000
0000
0100
0010
0001
0000
,  // measure 26
0000
1000
0010
0000
0100
0010
1000
0000
,  // measure 27
0200
0000
0310
0000
0001
1000
0010
0000
,  // measure 28
0000
0100
0001
0000
1000
0001
0010
0000
,  // measure 29
0100
1000
0001
0000
0100
0010
1000
0000
,  // measure 30
0000
0001
1000
0000
0100
0010
0001
0000
,  // measure 31
0200
0000
0340
0030
4000
3100
4000
3001
,  // measure 32
0400
0300
0040
0130
0001
1000
0100
0000
,  // measure 33
2000
0000
3001
0000
0010
0100
1000
0000
,  // measure 34
0000
0001
0100
2000
0000
3200
0000
0320
,  // measure 35
2030
0000
3001
0000
0010
0100
1000
0000
,  // measure 36
0000
0001
0100
0000
0001
1000
0100
0000
,  // measure 37
0010
0001
0010
0000
0100
1000
0010
0000
,  // measure 38
0000
1000
0001
0000
1000
0010
0100
0000
,  // measure 39
0002
0000
0043
0030
0400
0310
0004
0003
,  // measure 40
4000
3010
4000
3000
0001
0010
0100
1000
,  // measure 41
0002
0000
0203
0000
0301
1000
0001
0000
,  // measure 42
0020
0000
0130
1000
0001
1000
0020
0000
,  // measure 43
0230
0000
0302
0000
1003
0001
1000
0000
,  // measure 44
0200
0000
0000
0000
0310
0000
0100
0000
4000
3000
0040
0030
0400
0300
0004
0003
,  // measure 45
2000
0000
3100
0000
1000
0001
0100
0000
,  // measure 46
0000
0001
1000
0000
0100
0010
0001
0000
,  // measure 47
0200
0000
0301
0000
0010
0100
1000
0000
,  // measure 48
0002
0000
0000
0203
0000
0000
0320
0000
,  // measure 49
2030
0000
0000
0000
,  // measure 50
3002
0000
0000
0000
0000
0000
0000
0000
2003
0000
0000
0000
0000
0000
0000
3000
,  // measure 51
1200
0000
0000
0000
,  // measure 52
1300
0001
0100
0010
,  // measure 53
0120
0000
0000
0000
,  // measure 54
0000
0000
0000
0000
0000
0000
0000
0030
,  // measure 55
1002
0000
0000
0000
,  // measure 56
0023
0000
0230
0000
,  // measure 57
1300
0100
1000
0001
,  // measure 58
0100
0010
0100
0001
,  // measure 59
2000
3000
0100
0000
1000
0000
0001
0000
,  // measure 60
1000
0010
0100
0001
,  // measure 61
1002
0003
1000
0000
0100
0000
1000
0000
,  // measure 62
0001
0010
0100
1000
,  // measure 63
1100
0000
1001
0000
0001
0100
0010
1000
,  // measure 64
0001
0000
0000
0000
0000
0000
0000
0000
0000
0000
0000
0000
00M0
00M0
00M0
00M0
00M0
00M0
00M0
0000
0000
0000
0000
0000
,  // measure 65
1002
0000
0003
0200
0000
0310
0000
0010
,  // measure 66
2000
0000
3000
0002
0000
0023
0000
0130
,  // measure 67
2000
0000
3001
0000
0010
0010
0000
0000
,  // measure 68
0100
0100
0000
0000
1000
1000
0000
0010
,  // measure 69
0200
0000
0300
0001
0000
0001
0000
1000
,  // measure 70
0002
0000
0003
0020
0000
0230
0000
1300
,  // measure 71
0020
0000
0030
0100
0000
0100
0000
0001
,  // measure 72
2000
0000
3100
0000
0010
0100
1000
0000
,  // measure 73
2001
0000
3000
0010
0000
0100
0000
0001
,  // measure 74
2000
0000
3000
0100
0000
0010
0100
1000
,  // measure 75
0002
0000
0103
0000
0010
0010
0000
0000
,  // measure 76
1000
1000
0000
0000
0001
0001
0000
0000
,  // measure 77
0012
0000
0003
0100
0000
0100
0000
0010
,  // measure 78
2000
0000
3000
0100
0000
0100
0000
0010
,  // measure 79
0002
0000
0003
1000
0000
1000
0010
0100
,  // measure 80
0002
0000
0023
0000
0130
1000
0001
0000
,  // measure 81
1001
0000
1000
0000
0000
0001
0100
0000
,  // measure 82
0001
0000
1000
0000
0000
0100
0010
0000
,  // measure 83
0100
0000
1000
0000
0000
0001
1000
0000
,  // measure 84
0001
0000
0100
0000
0000
0010
0100
0000
,  // measure 85
0101
0000
0001
0000
0000
1000
0100
0000
,  // measure 86
0010
0000
0100
0000
0000
1000
0100
0000
,  // measure 87
1000
0000
0001
0000
0000
0100
0001
0000
,  // measure 88
2000
0000
0000
3200
0000
0000
0310
0001
,  // measure 89
0100
0000
0000
0000
;
