#VERSION:0.83;
#TITLE:Monkey Dance;
#SUBTITLE:;
#ARTIST:Y&Co.;
#TITLETRANSLIT:;
#SUBTITLETRANSLIT:;
#ARTISTTRANSLIT:;
#GENRE:;
#ORIGIN:;
#CREDIT:;
#BANNER:Monkey Dance-bn.png;
#BACKGROUND:Monkey Dance-bg-wide.png;
#PREVIEWVID:;
#JACKET:Monkey Dance-jacket.png;
#CDIMAGE:;
#DISCIMAGE:;
#LYRICSPATH:;
#CDTITLE:;
#MUSIC:Monkey Dance.ogg;
#OFFSET:0.142000;
#SAMPLESTART:66.921997;
#SAMPLELENGTH:12.387000;
#SELECTABLE:YES;
#BPMS:0.000=155.000;
#STOPS:;
#DELAYS:;
#WARPS:;
#TIMESIGNATURES:0.000=4=4;
#TICKCOUNTS:0.000=4;
#COMBOS:0.000=1;
#SPEEDS:0.000=1.000=0.000=0;
#SCROLLS:0.000=1.000;
#FAKES:;
#LABELS:0.000=Song Start;
#BGCHANGES:;
#KEYSOUNDS:;
#ATTACKS:
;

//---------------dance-single - Maxx----------------
#NOTEDATA:;
#CHARTNAME:Maxx;
#STEPSTYPE:dance-single;
#DESCRIPTION:Maxx;
#CHARTSTYLE:;
#DIFFICULTY:Challenge;
#METER:10;
#RADARVALUES:0.687519,0.817730,0.175644,0.430327,0.570841,548.000000,528.000000,20.000000,49.000000,0.000000,14.000000,0.000000,0.000000,0.000000,0.687519,0.817730,0.175644,0.430327,0.570841,548.000000,528.000000,20.000000,49.000000,0.000000,14.000000,0.000000,0.000000,0.000000;
#CREDIT:Maxx;
#NOTES:
// measure 0
0000
0000
0000
0000
,  // measure 1
0000
0000
0000
0000
,  // measure 2
0000
0000
0000
0000
,  // measure 3
0000
0000
0000
0000
,  // measure 4
0000
0000
0000
0000
,  // measure 5
2000
0000
0000
3000
1010
0000
0000
0001
0000
0000
0001
0000
0020
0000
0030
0000
,  // measure 6
0200
0000
0000
0300
1100
0000
0000
1000
0000
0000
1000
0000
0001
0100
0000
0000
,  // measure 7
0020
0000
0000
0030
0110
0000
0000
1000
0000
0000
1000
0000
0002
0000
0003
0000
,  // measure 8
0010
0000
0200
0000
0000
0000
2300
0000
0000
0000
3001
0100
0001
1000
0100
0010
,  // measure 9
0001
0000
1000
0000
0010
0000
1000
0000
0002
0000
0003
0001
1000
0000
0001
0000
,  // measure 10
0100
0000
0001
0000
1000
0000
0100
0000
0020
0000
0030
0002
0000
0003
1000
0010
,  // measure 11
0100
0000
0001
0000
0010
0000
0001
0000
2000
0000
3000
1000
0001
0000
1000
0000
,  // measure 12
0010
0000
1000
0000
0100
0000
0010
0000
0001
0000
0001
1000
0000
0001
1000
0001
,  // measure 13
0100
0000
0010
0000
1000
0000
0001
0000
0020
0000
0030
0010
0100
0000
1000
0000
,  // measure 14
0010
0000
0100
0000
0010
0000
1000
0000
0002
0000
0003
2000
0000
3000
0001
1000
,  // measure 15
0100
0000
0010
0000
0001
0000
1000
0000
0020
0000
0030
0010
0100
0000
0001
0000
,  // measure 16
2002
0000
0000
0000
3003
0000
0000
0000
0000
0000
0001
1000
0100
0010
0001
0000
,  // measure 17
0010
0100
0000
0010
0000
0100
0001
0100
0010
0000
0001
0000
1000
0000
0010
0000
,  // measure 18
0100
0010
0000
0100
0000
0010
0001
0010
0100
0000
0001
0000
1000
0000
0000
0000
,  // measure 19
0100
0010
0000
0100
0000
0010
1000
0010
0100
0000
1000
0000
0001
0000
0100
0000
,  // measure 20
0010
1000
0000
1000
0000
0001
1000
0001
0010
0100
1000
0002
0000
0000
1003
0000
,  // measure 21
0010
0100
0000
0010
0000
0100
1000
0100
0010
0000
1000
0000
0001
0000
0010
0000
,  // measure 22
0100
0010
0000
0100
0000
0001
0100
0010
0100
0000
1000
0000
0001
0000
0000
0000
,  // measure 23
0100
0010
0000
0100
0000
0010
0001
0010
0100
0000
0001
0000
1000
0000
0100
0000
,  // measure 24
0010
0001
1000
0000
1000
0001
0100
0000
0100
0010
1000
0002
0000
1003
0100
0010
,  // measure 25
0001
0000
1000
0000
0010
0000
0000
0000
1010
0000
0000
1000
0001
0000
0001
1000
,  // measure 26
0100
0000
1000
0001
1000
0100
0010
0001
0010
0100
1000
0001
0100
0010
1000
0001
,  // measure 27
0100
0001
1000
0001
0010
0001
1000
0010
,  // measure 28
1000
0001
1000
0100
1000
0010
0100
0001
,  // measure 29
0020
0000
0000
0030
0001
0000
1000
0000
0001
0000
0100
0000
0010
0000
1000
0000
,  // measure 30
0000
0000
1010
0000
0000
0000
1001
0000
1000
0000
0001
0000
0010
0001
0010
0001
,  // measure 31
0100
0010
1000
0001
0010
0100
0010
0001
,  // measure 32
0100
0010
1000
0001
1000
0100
1000
0010
,  // measure 33
0200
0000
0310
1000
0010
1000
0001
1000
,  // measure 34
0200
0000
0000
0000
0310
0000
0000
0000
1001
0000
0001
1000
0001
0010
0100
1000
,  // measure 35
0001
0100
0001
1000
0100
1000
0010
0100
,  // measure 36
0001
1000
0100
0010
0001
1000
0001
0100
,  // measure 37
0020
0000
1030
0000
1010
1000
0000
0002
,  // measure 38
0000
0003
0010
0000
0001
0000
0100
0000
0010
0000
1010
0000
1000
0001
0100
0001
,  // measure 39
0100
0001
1000
0100
0010
0001
0100
0010
,  // measure 40
1000
0001
1000
0100
1000
0010
0100
0001
,  // measure 41
0000
0010
0001
1000
0001
0010
0000
0200
,  // measure 42
0000
0000
1300
0000
0001
0000
1000
0010
0100
0000
0000
0110
0000
0000
1001
0000
,  // measure 43
0000
0000
0000
2000
0000
3000
0002
0000
,  // measure 44
1003
0001
0100
0001
0010
0100
1000
0010
,  // measure 45
0100
0001
1000
0100
0000
0020
0000
0030
,  // measure 46
0000
0022
0000
1000
0100
1000
0000
1100
,  // measure 47
0000
0000
0000
0000
0100
0000
1000
0000
0133
0000
1000
0001
0100
0000
0010
0000
,  // measure 48
2010
0000
3001
0000
0010
0001
1000
0001
,  // measure 49
0201
0000
0310
1000
0001
0010
0000
0002
,  // measure 50
0000
1003
0010
0100
0001
1000
0000
1001
,  // measure 51
0000
0001
1000
0001
0100
0000
0001
0000
1000
0001
0010
0100
1000
0001
0100
0010
,  // measure 52
1000
0001
0010
0001
1000
0100
0010
0001
,  // measure 53
0200
0000
0310
1000
0000
0002
0000
0003
,  // measure 54
0000
2020
0000
0100
0001
0100
0000
0101
,  // measure 55
0000
0000
0000
0000
0001
0000
0100
0000
3031
0000
0100
0001
1000
0000
0100
0000
,  // measure 56
0010
0000
0002
0000
1003
0020
0000
0230
,  // measure 57
0000
0300
0001
0000
1000
0000
0001
0000
0010
0000
0100
0000
0000
0000
2000
0000
,  // measure 58
0000
3000
0002
0000
0100
0000
0003
0000
2000
0000
0010
0000
3000
0000
0002
0000
,  // measure 59
0010
0000
2003
0000
0000
0000
3200
0000
0000
0000
1300
0001
0010
0100
1000
0001
,  // measure 60
0100
0010
0000
0100
0000
0010
0001
0010
0100
0000
0001
0000
1000
0000
0100
0000
,  // measure 61
0010
0100
0000
0010
0000
0100
0001
0100
0010
0000
0001
0000
1000
0000
0000
0000
,  // measure 62
0010
0100
0000
0010
0000
0100
1000
0100
0010
0000
1000
0000
0001
0000
0010
0000
,  // measure 63
0100
1000
0000
1000
0000
0001
1000
0001
0010
0100
1000
0002
0000
0000
1003
0000
,  // measure 64
0100
0010
0000
0100
0000
0010
1000
0010
0100
0000
1000
0000
0001
0000
0100
0000
,  // measure 65
0010
0100
0000
0010
0000
0001
0010
0100
0010
0000
1000
0000
0001
0000
0000
0000
,  // measure 66
0010
0100
0000
0010
0000
0100
0001
0100
0010
0000
0001
0000
1000
0000
0010
0000
,  // measure 67
1000
0100
0010
0000
0010
0001
1000
0000
1000
0010
0100
0002
0000
1003
0100
0010
,  // measure 68
0001
0000
0100
0000
0010
0000
0000
0000
1010
0000
0000
1000
0001
0000
0010
0000
,  // measure 69
0000
0001
0100
0001
1000
0100
0010
0001
1000
0010
1000
0001
0010
0100
1000
0001
,  // measure 70
0200
0000
0000
0000
,  // measure 71
0000
0000
0000
0000
0000
0300
0000
0000
;

//---------------dance-single - Feraligatr----------------
#NOTEDATA:;
#CHARTNAME:Feraligatr SH;
#STEPSTYPE:dance-single;
#DESCRIPTION:Feraligatr;
#CHARTSTYLE:;
#DIFFICULTY:Hard;
#METER:9;
#RADARVALUES:0.678737,0.754828,0.140515,0.052693,0.443500,541.000000,525.000000,16.000000,6.000000,0.000000,0.000000,0.000000,0.000000,0.000000,0.678737,0.754828,0.140515,0.052693,0.443500,541.000000,525.000000,16.000000,6.000000,0.000000,0.000000,0.000000,0.000000,0.000000;
#CREDIT:Feraligatr;
#NOTES:
0000
0000
0000
0000
,
0000
0000
0000
0000
,
0000
0000
0000
0000
,
0000
0000
0000
0000
,
0000
0000
0000
0000
,
1000
0000
0000
0000
1010
0000
0000
0001
0000
0000
0001
0000
0011
0000
0000
0000
,
1000
0000
0000
0000
1100
0000
0000
0001
0000
0000
0001
0000
0101
0100
0000
0000
,
0010
0000
0000
0000
1010
0000
0000
1000
0000
0000
1000
0000
1100
0000
0000
0000
,
0001
0000
0001
0000
0000
0000
0001
0000
0000
0000
1000
0100
1000
0001
0100
0001
,
0010
0100
1000
0001
1000
0010
0100
0001
,
1000
0100
1000
0001
0100
0010
1000
0001
,
0010
0100
1000
0001
0100
0001
1000
0100
,
0010
0001
1000
0010
0100
0001
1000
0001
,
0010
0100
1000
0001
1000
0010
0100
0001
,
1000
0100
1000
0001
0100
0010
1000
0001
,
0010
0100
1000
0001
1000
0010
0100
0001
,
0020
0000
0000
0000
0030
0000
0000
0000
0000
0000
0001
0100
0010
1000
0100
0000
,
0010
0001
0000
1000
0000
0010
0100
0001
1000
0000
0100
0000
0010
0000
0001
0000
,
1000
0010
0000
0100
0000
0001
1000
0001
0010
0000
0100
0000
0010
0000
0000
0000
,
0001
1000
0000
0010
0000
0100
0001
1000
0100
0000
0010
0000
0001
0000
1000
0000
,
0010
0100
0000
0001
0000
1000
0100
1000
0010
0100
0001
2000
0000
0000
3010
0000
,
0100
0001
0000
1000
0000
0100
0010
0001
1000
0000
0010
0000
0100
0000
0001
0000
,
1000
0100
0000
0010
0000
0100
1000
0001
0100
0000
0010
0000
0100
0000
0000
0000
,
0001
1000
0000
0100
0000
0010
0001
1000
0010
0000
0100
0000
0001
0000
1000
0000
,
0100
0010
0001
0000
1000
0010
0100
0000
0001
0100
0001
0020
0000
0130
1000
0001
,
0100
0000
0010
0000
1000
0000
0000
0000
0001
0000
0000
0010
0000
0000
0001
0000
,
1000
0000
0010
0000
0100
0000
0000
0000
0001
1000
0000
0001
0010
0100
0010
0001
,
0100
0000
0010
1000
0001
0010
0100
1000
,
0000
0000
0001
0100
0010
1000
0100
0010
,
0001
0000
1000
0001
1000
0010
0100
0001
,
0010
0000
0100
0000
1000
0000
0010
0000
0100
0000
0001
0000
1000
0100
1000
0001
,
0100
0000
0010
1000
0001
0010
0100
1000
,
0010
0000
0100
0000
0001
1000
0100
1000
,
0001
0000
1000
0100
0001
0100
1000
0001
,
0100
0000
0110
0000
1010
1001
0000
0000
,
0011
0000
0010
0100
1000
0001
0100
1000
,
0100
0001
1000
0100
0010
0001
0100
0010
,
1000
0000
0001
0010
0100
1000
0001
0100
,
0010
0000
1000
0000
0100
0000
0010
0000
0001
0000
0000
0000
1000
0001
0100
0001
,
1000
0000
0100
1000
0001
0100
0001
0010
,
0100
1000
0001
0100
0010
1000
0100
0010
,
0001
1000
0010
0100
0001
1000
0100
0010
,
0001
0000
1000
0001
0100
0000
0000
0000
0110
0000
0000
0110
0000
0000
0110
0000
,
0000
0000
0000
0000
,
0001
0010
0001
0100
0010
0100
0001
0010
,
0100
1000
0001
0100
0010
1000
0100
0010
,
0001
1000
0100
0001
0010
0001
0100
1000
,
0001
0010
0001
0100
1000
0010
1000
0100
,
0001
0000
1000
0100
1000
0001
0100
0010
,
1000
0001
0010
0100
1000
0001
0100
0001
,
1000
0100
1000
0001
0100
0010
1000
0001
,
0010
0000
0100
0000
1000
0000
0001
0000
0100
0000
0010
0000
1000
0001
0010
0001
,
1000
0100
1000
0010
0100
0010
1000
0100
,
0010
0001
1000
0010
0100
0001
0010
0100
,
1000
0001
0010
1000
0100
1000
0010
0001
,
1000
0100
1000
0010
0001
0100
0001
0010
,
1000
0000
0001
0010
0001
1000
0010
0100
,
0001
1000
0100
0010
0001
1000
0010
1000
,
0001
0010
1000
0010
0001
0100
1000
1100
,
0000
0000
0110
0000
0000
0000
1001
0000
0000
0000
0000
0000
0001
1000
0100
1000
,
0001
0100
0000
0001
0000
0100
0010
1000
0001
0000
0010
0000
0100
0000
1000
0000
,
0001
0100
0000
0010
0000
1000
0001
1000
0100
0000
0010
0000
0100
0000
0000
0000
,
1000
0001
0000
0100
0000
0010
1000
0001
0010
0000
0100
0000
1000
0000
0001
0000
,
0100
0010
0000
1000
0000
0001
0010
0001
0100
0010
1000
0002
0000
0000
0103
0000
,
0010
1000
0000
0001
0000
0010
0100
1000
0001
0000
0100
0000
0010
0000
1000
0000
,
0001
0010
0000
0100
0000
0010
0001
1000
0010
0000
0100
0000
0010
0000
0000
0000
,
1000
0001
0000
0010
0000
0100
1000
0001
0100
0000
0010
0000
1000
0000
0001
0000
,
0010
0100
1000
0000
0001
0100
0010
0000
1000
0010
1000
0200
0000
0310
0001
1000
,
0010
0000
0100
0000
0001
0000
0000
0000
1000
0000
0000
0100
0000
0000
1000
0000
,
0001
0000
0100
0000
0010
0000
0000
0000
1000
0001
0000
1000
0100
0010
0100
1000
,
0002
0000
0000
0000
,
0000
0000
0000
0000
0000
0003
0000
0000
;

//---------------dance-single - Feraligatr----------------
#NOTEDATA:;
#CHARTNAME:Feraligatr SM;
#STEPSTYPE:dance-single;
#DESCRIPTION:Feraligatr;
#CHARTSTYLE:;
#DIFFICULTY:Medium;
#METER:7;
#RADARVALUES:0.465455,0.534670,0.026347,0.087822,0.039520,371.000000,368.000000,3.000000,10.000000,0.000000,0.000000,0.000000,0.000000,0.000000,0.465455,0.534670,0.026347,0.087822,0.039520,371.000000,368.000000,3.000000,10.000000,0.000000,0.000000,0.000000,0.000000,0.000000;
#CREDIT:Feraligatr;
#NOTES:
0000
0000
0000
0000
,
0000
0000
0000
0000
,
0000
0000
0000
0000
,
0000
0000
0000
0000
,
0000
0000
0000
0000
,
1000
0000
0000
0000
0001
0000
0000
0010
0000
0000
0100
0000
1000
0000
0000
0000
,
0001
0000
0000
0000
0100
0000
0000
0010
0000
0000
1000
0000
0001
0010
0000
0000
,
0100
0000
0000
0000
1000
0000
0000
0001
0000
0000
0100
0000
0010
0000
0000
0000
,
1000
0001
0000
0001
0000
1000
0100
0010
,
0001
0000
1000
0000
0001
0100
0010
0000
,
1000
0000
0001
0000
0010
0100
1000
0001
,
0100
0000
0010
0000
1000
0001
0010
0000
,
0100
0000
1000
0000
0001
0100
0001
1000
,
0100
0000
0010
0000
0001
1000
0010
0000
,
0100
0000
0001
0000
1000
0100
1000
0001
,
0100
0000
0010
0000
1000
0001
0010
0000
,
0200
0300
0000
0000
,
1000
0100
1000
0001
0100
0010
1000
0001
,
0010
0100
0010
0001
1000
0010
1000
0000
,
0001
0010
0100
1000
0001
0100
0001
1000
,
0100
0010
0100
1000
0010
0100
0001
1000
,
0100
0010
0001
1000
0010
0100
0001
1000
,
0100
1000
0001
0100
0010
1000
0010
0000
,
0100
0001
1000
0100
1000
0001
0100
0010
,
1000
0001
0010
0100
0010
0001
0100
0010
,
1000
0000
0001
0000
1000
0000
0000
0000
0100
0000
0000
0100
0000
0000
0100
0000
,
0010
0000
0001
0000
0010
0000
0000
0000
0100
0000
0000
0100
0000
0000
0100
0000
,
1000
0000
0001
0100
0010
1000
0001
0010
,
0000
0000
0100
2000
0000
0000
3001
0100
,
0000
0000
0010
1000
0001
0010
0100
2000
,
0000
3002
0000
0203
0000
0300
0010
1000
,
0001
0000
0010
0100
1000
0001
0000
0200
,
0000
0000
0310
0000
1000
0001
0000
0000
,
0010
0000
0100
1000
0001
1000
0010
0100
,
0001
0000
1000
0000
0100
0010
0001
1000
,
0010
0000
0100
0000
0001
1000
0000
0100
,
0000
0010
0000
0001
0000
1000
0000
0010
,
0100
0000
0001
0000
1000
0100
0000
0010
,
0000
0001
1000
0010
0100
0002
0000
0003
,
1000
0000
0100
0000
0010
0001
0000
0100
,
0000
0010
0000
1000
0000
0001
0010
0100
,
0000
1000
0001
0100
0010
1000
0000
0002
,
0000
0000
0000
0000
1000
0000
0000
0000
1000
0000
0000
1000
0000
0000
1003
0000
,
0000
0000
0000
0000
,
0011
0000
0010
0100
0000
1000
0000
0001
,
0000
0000
0100
0010
0000
1000
0001
0000
,
0000
1000
0000
0100
0001
0100
0000
1000
,
0000
1000
0001
0100
1000
0100
0000
0001
,
0000
0000
1000
0000
0100
0010
0001
1000
,
0000
0000
0010
0100
0001
1000
0000
0100
,
0000
0010
0001
0000
1000
0001
0000
0100
,
0000
0100
0000
0010
1000
0001
0010
0000
,
1100
0000
0100
0010
0000
0001
0000
1000
,
0000
0000
0010
0100
0000
0001
1000
0000
,
0000
0001
0000
0010
1000
0010
0000
0001
,
0000
0001
1000
0010
0001
0010
0000
1000
,
0000
0000
0001
0000
0010
0100
0000
1000
,
0000
0000
0001
0100
0010
1000
0000
0001
,
0000
0010
2000
0000
0010
0000
0000
0010
,
0000
0010
0000
0010
0000
0000
0010
3000
,
0110
1000
0001
1000
0010
0100
0001
1000
,
0100
0010
0100
1000
0001
0100
0001
0000
,
1000
0100
0010
0001
1000
0010
1000
0001
,
0010
0100
0010
0001
0100
0010
1000
0001
,
0010
0100
1000
0001
0100
0010
1000
0001
,
0010
0001
1000
0010
0100
0001
0100
0000
,
0010
1000
0001
0010
0001
1000
0010
0100
,
0001
1000
0100
0010
0100
1000
0010
0100
,
0001
0000
1000
0000
0001
0000
0000
0000
0010
0000
0000
0010
0000
0000
0010
0000
,
0100
0000
1000
0000
0100
0000
0000
0000
0010
0000
0000
0010
0000
0000
0010
0000
,
0002
0000
0000
0000
,
0000
0000
0000
0000
0000
0003
0000
0000
;

//---------------dance-single - Feraligatr----------------
#NOTEDATA:;
#CHARTNAME:Feraligatr SE;
#STEPSTYPE:dance-single;
#DESCRIPTION:Feraligatr;
#CHARTSTYLE:;
#DIFFICULTY:Easy;
#METER:4;
#RADARVALUES:0.313649,0.345963,0.017564,0.035129,0.000000,250.000000,248.000000,2.000000,4.000000,0.000000,0.000000,0.000000,0.000000,0.000000,0.313649,0.345963,0.017564,0.035129,0.000000,250.000000,248.000000,2.000000,4.000000,0.000000,0.000000,0.000000,0.000000,0.000000;
#CREDIT:Feraligatr;
#NOTES:
0000
0000
0000
0000
,
0000
0000
0000
0000
,
0000
0000
0000
0000
,
0000
0000
0000
0000
,
0000
0000
0000
0000
,
1000
0000
0010
0000
0100
0001
0100
0000
,
0010
0000
1000
0000
0001
0010
0001
0000
,
1000
0000
0010
0000
0100
0001
0100
0000
,
0010
1000
0000
1000
0000
1000
0000
0000
,
0001
0010
0100
1000
,
0001
0100
0001
1000
,
0100
0010
0100
1000
,
0001
0100
0010
1000
,
0001
0010
0100
1000
,
0001
0100
0010
0100
,
0001
1000
0100
0010
,
0002
0003
0000
0000
,
1000
0000
0001
0000
0100
0010
0100
0000
,
0001
0000
1000
0000
0100
0010
0100
0000
,
1000
0000
0001
0000
0100
0010
0100
0000
,
0001
0000
1000
0000
0100
0010
0100
0000
,
1000
0000
0001
0000
0010
0100
0010
0000
,
0001
0000
1000
0000
0010
0100
0010
0000
,
1000
0000
0001
0000
0010
0100
0010
0000
,
0001
0000
1000
0000
0010
0100
0010
0000
,
1000
1000
0001
0001
,
0010
0010
0100
0100
,
1100
0001
0100
0010
,
0100
0001
1000
0100
,
0010
0100
1000
0001
,
0100
0010
1000
0001
,
0010
0001
1000
0010
,
0100
0001
1000
0100
,
1000
0001
0100
0010
,
0100
0001
1000
0100
,
0110
0100
1000
0001
,
0100
0010
1000
0001
,
0010
0001
1000
0010
,
0100
0001
1000
0100
,
0010
0100
1000
0001
,
0100
0010
0100
0001
,
1000
0100
1000
0001
,
0100
0010
1000
0001
,
0000
0000
0000
0000
,
1000
1000
1000
0000
,
0001
0001
0001
0000
,
0100
0010
0100
0000
,
0010
0100
0010
0000
,
1000
1000
1000
0000
,
0001
0001
0001
0000
,
0020
0000
0000
0000
,
0130
1000
0001
0100
,
0001
0001
0001
0000
,
1000
1000
1000
0000
,
0010
0100
0010
0000
,
0100
0010
0100
0000
,
0001
0001
0001
0000
,
1000
1000
1000
0000
,
0100
0020
0000
0000
,
0031
0001
0001
0001
,
1000
0010
0100
0001
,
1000
0100
1000
0001
,
0100
0010
1000
0001
,
0010
0100
0010
0001
,
1000
0010
0100
0001
,
1000
0100
1000
0001
,
0100
0010
1000
0001
,
0010
0100
1000
0001
,
0100
0001
1000
0100
,
0010
0001
1000
0010
,
0200
0000
0000
0000
,
0000
0000
0000
0000
0000
0300
0000
0000
;

//---------------dance-single - Feraligatr----------------
#NOTEDATA:;
#CHARTNAME:Feraligatr SN;
#STEPSTYPE:dance-single;
#DESCRIPTION:Feraligatr;
#CHARTSTYLE:;
#DIFFICULTY:Beginner;
#METER:1;
#RADARVALUES:0.102877,0.188707,0.043911,0.017564,0.000000,82.000000,77.000000,5.000000,2.000000,0.000000,0.000000,0.000000,0.000000,0.000000,0.102877,0.188707,0.043911,0.017564,0.000000,82.000000,77.000000,5.000000,2.000000,0.000000,0.000000,0.000000,0.000000,0.000000;
#CREDIT:Feraligatr;
#NOTES:
0000
0000
0000
0000
,
0000
0000
0000
0000
,
0000
0000
0000
0000
,
0000
0000
0000
0000
,
0000
0000
0000
0000
,
1000
0000
0000
0000
,
0001
0000
0000
0000
,
0010
0000
0000
0000
,
0100
0000
0000
0000
,
1001
0000
1000
0000
,
0010
0000
0100
0000
,
0001
0000
1000
0000
,
0100
0000
0010
0000
,
0001
0000
1000
0000
,
0010
0000
0100
0000
,
0001
0000
0010
0000
,
0200
0300
0000
0000
,
1000
0000
0000
0000
,
0001
0000
0000
0000
,
0100
0000
0000
0000
,
0010
0000
0010
0000
,
1000
0000
0000
0000
,
0001
0000
0000
0000
,
0010
0000
0000
0000
,
0100
0000
0100
0000
,
1000
0000
0000
0000
,
0001
0000
0000
0000
,
0110
0000
0000
0000
,
1000
0000
0000
0000
,
0001
0000
0000
0000
,
0010
0000
0000
0000
,
0100
0000
0000
0000
,
1000
0000
0000
0000
,
0001
0000
0000
0000
,
0100
0000
0000
0000
,
1001
0000
0000
0000
,
1000
0000
0000
0000
,
0100
0000
0000
0000
,
0010
0000
0000
0000
,
0001
0000
0000
0000
,
1000
0000
0000
0000
,
0010
0000
0000
0000
,
0100
0000
0100
0000
,
0000
0000
0000
0000
,
1001
0000
0000
0000
,
1000
0000
0000
0000
,
0001
0000
0000
0000
,
0010
0000
0000
0000
,
0100
0000
0000
0000
,
1000
0000
0000
0000
,
0001
0000
0000
0000
,
0100
0000
0000
0000
,
0110
0000
0000
0000
,
1000
0000
0000
0000
,
0001
0000
0000
0000
,
0010
0000
0000
0000
,
0100
0000
0000
0000
,
1000
0000
0000
0000
,
0001
0000
0000
0000
,
0100
0000
0000
0000
,
0001
0000
0000
0000
,
1000
0000
0000
0000
,
0100
0000
0000
0000
,
0010
0000
0010
0000
,
0001
0000
0000
0000
,
1000
0000
0000
0000
,
0010
0000
0000
0000
,
0100
0000
0100
0000
,
0001
0000
0000
0000
,
1000
0000
0000
0000
,
0200
0000
0000
0000
,
0000
0000
0000
0000
0000
0300
0000
0000
;
