#VERSION:0.83;
#TITLE:Metamorphosis;
#SUBTITLE:;
#ARTIST:Darby;
#TITLETRANSLIT:;
#SUBTITLETRANSLIT:;
#ARTISTTRANSLIT:;
#GENRE:Electro;
#ORIGIN:;
#CREDIT:;
#BANNER:Metamorphosis-bn.png;
#BACKGROUND:Metamorphosis-bg-wide.png;
#PREVIEWVID:;
#JACKET:Metamorphosis-jacket.png;
#CDIMAGE:;
#DISCIMAGE:Metamorphosis-bg.png;
#LYRICSPATH:;
#CDTITLE:cd-title-Benpai.png;
#MUSIC:Metamorphosis.ogg;
#OFFSET:0.009000;
#SAMPLESTART:38.389000;
#SAMPLELENGTH:15.360000;
#SELECTABLE:YES;
#DISPLAYBPM:125.000000:155.000000;
#BPMS:0.000=125.000,
176.000=124.500,
180.000=124.900,
181.500=125.300,
183.000=124.500,
184.500=125.800,
187.500=121.500,
188.000=125.000,
188.500=128.000,
189.000=125.000,
189.500=125.700,
190.000=120.000,
190.500=130.300,
191.000=120.000,
191.500=126.700,
192.000=125.200,
192.500=128.200,
193.000=124.900,
193.500=125.000,
195.500=124.500,
196.500=125.000,
197.000=125.500,
198.000=125.000,
198.500=124.000,
200.000=121.400,
200.500=127.500,
201.000=125.000,
201.500=129.500,
202.000=123.000,
202.500=128.000,
203.000=124.500,
204.000=125.000,
206.000=121.300,
206.500=128.000,
207.000=125.000,
207.500=125.800,
208.000=125.000,
208.500=126.200,
209.000=126.400,
210.000=126.200,
211.000=129.000,
211.500=130.000,
212.000=127.000,
213.000=129.650,
214.000=130.900,
215.000=132.000,
216.000=134.600,
217.000=132.500,
218.000=133.000,
219.000=136.700,
220.000=140.900,
221.000=138.620,
224.000=141.900,
228.000=145.550,
232.000=148.500,
234.000=150.250,
236.000=151.750,
237.000=152.650,
238.000=230.400,
238.500=230.700,
239.000=231.450,
239.500=232.250,
240.000=155.000;
#STOPS:238.000=0.065,
238.500=0.065,
239.000=0.065,
239.500=0.064;
#DELAYS:;
#WARPS:;
#TIMESIGNATURES:0.000=4=4;
#TICKCOUNTS:0.000=4;
#COMBOS:0.000=1;
#SPEEDS:0.000=1.000=0.000=0;
#SCROLLS:0.000=1.000,
96.000=1.500,
96.500=0.750,
97.000=1.000,
100.000=1.500,
100.500=0.750,
101.000=1.000,
104.000=1.500,
104.500=0.750,
105.000=1.000,
108.000=1.500,
108.500=0.750,
109.000=1.000,
112.000=1.500,
112.500=0.750,
113.000=1.000,
116.000=1.500,
116.500=0.750,
117.000=1.000,
120.000=1.500,
120.500=0.750,
121.000=1.000,
124.000=1.500,
124.500=0.750,
125.000=1.000;
#FAKES:;
#LABELS:0.000=Song Start;
#BGCHANGES:;
#KEYSOUNDS:;
#ATTACKS:
;

//---------------dance-single - Benpai----------------
#NOTEDATA:;
#CHARTNAME:Benpai;
#STEPSTYPE:dance-single;
#DESCRIPTION:Benpai;
#CHARTSTYLE:;
#DIFFICULTY:Challenge;
#METER:12;
#RADARVALUES:0.822697,0.911165,0.315555,0.407592,1.140599,876.000000,828.000000,48.000000,62.000000,30.000000,0.000000,1.000000,0.000000,0.000000,0.822697,0.911165,0.315555,0.407592,1.140599,876.000000,828.000000,48.000000,62.000000,30.000000,0.000000,1.000000,0.000000,0.000000;
#CREDIT:Benpai;
#DISPLAYBPM:125.000000:155.000000;
#NOTES:
0000
0000
0000
0000
,
0000
0000
0000
0000
,
0000
0000
0000
0000
,
0000
0000
0000
0000
,
0001
0000
0000
0002
1003
0000
0200
0300
,
0000
0000
2000
3001
0100
0000
0020
2030
,
3002
0003
0000
0001
1000
0000
0000
0000
,
0000
0000
0000
0001
1000
0000
0000
0000
,
0001
1000
0100
0010
0000
0001
0100
0010
0000
1000
0001
0010
0000
0100
1000
0001
,
0000
0100
0010
1000
0000
0001
1000
0010
0000
0100
0001
1000
0000
0100
0010
0001
,
1000
0001
0100
0010
0000
0100
0001
1000
0000
0100
0010
0001
0000
1000
0001
0100
,
0000
0001
1000
0100
0000
0010
0100
1000
0000
0001
1000
0010
0000
0100
0010
1000
,
0001
1000
0100
0010
0100
1000
0001
0100
,
0010
1000
0100
0010
0001
0100
0001
0010
,
0100
1000
0001
1000
0010
0100
0001
1000
0001
0010
0100
1000
0001
0100
0010
0100
,
0001
0010
0100
1000
0010
0100
0001
1000
00M0
0000
00M0
0000
0001
0010
0001
1000
,
1001
0000
0000
0000
0001
0000
0100
0001
0100
0000
0010
0000
1000
0000
0100
0000
1000
0000
0010
0000
0M00
0000
0010
0000
0001
0000
0000
0000
0100
0000
0000
0000
,
0120
0000
1030
0000
1002
0000
0013
0100
2000
0000
0000
3000
1200
0000
0310
0000
,
0012
0000
1003
0000
0010
0000
0100
0010
0000
0000
0010
0000
1000
0100
0100
0100
,
0020
0000
0031
0000
2000
0000
3001
0000
0000
0000
0200
0000
0310
1000
0010
0100
,
0001
0000
0000
0000
0001
0000
1000
0100
1000
0000
0010
0000
0100
0000
0001
0000
1000
0000
0010
0000
0M00
0000
0010
0000
0001
0000
0000
0000
1000
0000
0000
0000
,
2100
0000
3001
0000
0021
0000
0430
0300
2100
0000
3002
0000
0203
0000
0320
0030
,
2010
0000
3001
0000
0020
0000
0130
1000
0000
0000
1000
0000
0001
0100
0100
0100
,
0020
0000
1030
0000
0002
0000
1003
0000
0010
0100
0001
0010
0100
0001
0100
1000
,
2001
0000
0000
0000
3100
0010
0000
0010
0000
0000
0100
0000
1000
0000
0001
0000
,
0201
0000
0000
0000
0301
1000
0000
1000
0000
0000
0100
0000
0002
0000
0103
0000
,
0210
0000
0000
0000
1300
0001
0000
0001
0000
0000
0100
0000
0010
0000
1000
0000
,
1020
0000
0000
0000
0130
0001
0000
0001
0010
0000
0100
0010
1000
0010
0001
1000
,
2010
0000
0000
0000
3001
0100
0000
0100
0000
0000
0010
0000
0100
0000
0001
0000
,
1002
0000
0000
0000
0013
0100
0000
0100
0000
0000
0010
0000
2000
0000
3010
0000
,
0012
0000
0000
0000
1003
0001
0000
0001
0000
0000
0100
0000
0010
0000
1000
0000
,
2100
0000
0000
0000
3001
0100
0000
0100
0010
0000
1000
0000
0100
0000
0010
0000
,
0001
0000
0100
0000
0010
1000
0010
1000
0001
0000
0010
0000
0100
1000
0100
1000
,
0010
0000
0100
0000
0001
0010
0001
0010
0100
0000
1000
0000
0001
0100
0001
0100
,
0010
0000
1000
0000
0001
0010
0001
1000
0010
0000
0100
0000
0001
0010
0100
1000
,
0001
0100
0010
1000
0001
1000
0100
0010
0001
0100
0001
0010
0000
0100
0100
0100
,
1000
0000
0000
0000
0010
0000
0100
0000
0000
0000
0010
0000
1000
0000
0100
M000
0100
0000
0000
0000
0001
0000
0010
0000
0000
0000
0100
0000
0100
0000
0100
0000
,
1000
0000
0000
0000
0001
0000
1000
0000
0000
0000
0010
0000
0100
00M0
0100
0000
1000
0000
0000
0000
0001
0000
0010
0000
0000
0000
0001
0000
0000
000M
0000
0000
,
1010
0000
0000
0000
1000
0000
0100
0000
0000
0000
1000
0000
0001
0000
0100
000M
0100
0000
0000
0000
1000
0000
0001
0000
0000
0000
0100
000M
0100
0000
1000
0000
,
1010
0000
0000
0110
0000
0000
0101
0000
0000
0011
0000
0000
1100
0000
1001
0000
,
0001
0000
0000
0000
0010
0000
0100
0000
0000
0000
1000
0000
0001
0000
0010
000M
0010
0000
0000
0000
1000
0000
0001
0000
0000
0000
0100
0000
0100
0000
0100
0000
,
0010
0000
0000
0000
1000
0000
0001
0000
0000
0000
0100
0000
0010
0M00
0010
0000
0001
0000
0000
0000
1000
0000
0100
0000
0000
0000
0010
0000
0000
00M0
0000
0000
,
1100
0000
0000
0000
0001
0000
1000
0000
0000
0000
0100
0000
1000
0000
0010
M000
0010
0000
0000
0000
0001
0000
1000
0000
0000
0000
0100
0000
0100
0000
0100
0000
,
1000
0000
0000
0000
0100
M000
0100
0000
0000
0000
0001
0000
0000
0000
0010
000M
0010
0000
0000
0000
1000
0000
0010
0000
0000
0000
0100
0000
0100
0000
0100
0000
,
0002
0000
0000
0000
,
1003
0010
0000
0100
0000
0001
1000
0100
,
0000
0000
0010
0000
0001
0000
1000
0000
0010
0100
0001
1000
0001
0000
0010
0000
,
0100
0000
1000
0000
0001
0000
0100
0010
1000
0010
0100
0000
0001
0000
1000
0000
,
0100
0000
0100
0000
0010
0000
0001
1000
0010
1000
0001
0000
0010
0000
0100
0000
,
0010
0000
0001
0000
0100
0000
0001
1000
0100
1000
0001
0000
0100
0000
0010
0000
,
1000
0000
0001
0000
1000
0000
0100
0010
0100
1000
0001
0000
0100
0000
0010
0000
,
0100
0000
0001
0000
1000
0000
0100
0010
0001
0010
0100
0000
1000
0000
0001
0000
,
0100
0001
1000
0100
0010
0100
1000
0001
0100
0010
1000
0001
0010
0100
1000
0001
,
0100
0010
1000
0001
0010
0001
1000
0010
0100
0001
1000
0100
1000
0001
1000
0010
,
0100
0001
1000
0100
1000
0001
0010
0100
1000
0010
0100
0001
0010
0001
0100
0010
,
1000
0001
1000
0100
0010
0100
1000
0010
0100
0001
1000
0100
0010
0001
0010
0100
,
1000
0001
1000
0010
0100
0001
1000
0100
1000
0010
0100
0001
0010
0100
1000
0010
,
0100
0001
1000
0100
0010
0100
1000
0010
0100
0001
1000
0100
1000
0010
0100
0001
,
0010
0100
0010
0001
1000
0010
0100
0001
1000
0100
1000
0001
0100
0010
1000
0001
,
0010
0100
1000
0010
0100
0001
1000
0001
0010
0000
0010
0000
0100
0000
0100
0000
,
2002
0000
0000
3003
0001
0010
0100
0010
0001
1000
0010
1000
0001
0100
0001
0010
,
0100
1000
0010
0100
0010
1000
0001
0010
0100
0010
0001
1000
0010
0100
0001
1000
,
0200
0000
0000
0000
0310
0100
1000
0001
0100
0010
0100
0001
1000
0100
0010
0001
,
1000
0010
0100
0001
1000
0001
0010
0100
2200
0000
0000
3300
2002
0000
0000
3003
,
0102
0000
0000
0000
1003
0100
1000
0001
0100
0010
0100
0001
0010
0001
0100
0010
,
1000
0010
0100
0001
1000
0100
1000
0010
0100
0001
0010
0001
1000
0100
1000
0001
,
0200
0000
0000
0000
0310
1000
0001
0010
0100
1000
0010
0100
0001
0010
0100
0010
,
0001
1000
0010
1000
0001
0010
0100
1000
0010
0000
0010
0000
0100
0000
0100
0000
,
0001
1000
0001
1000
0100
0010
0001
0100
0010
0100
0001
1000
0100
1000
0010
0100
,
0001
0010
0100
0010
0001
1000
0001
0100
0010
1000
0010
1000
0001
0010
0100
0000
,
2100
0000
0000
0000
0000
0000
0000
0000
3100
00M0
0100
0000
0001
0000
1000
0000
0100
0000
0010
0M00
0010
0000
1000
0000
0010
0M00
0010
0000
0001
0000
1000
0000
,
0010
0000
0100
00M0
0100
0000
1000
0000
0001
0000
0010
0000
0100
0000
1000
0000
1001
0000
0000
0000
0000
0000
0000
0000
0101
0000
0000
0000
0000
0000
0000
0000
,
0110
0000
0000
0000
0000
0000
0000
0000
0010
0M00
0010
0000
0001
0000
1000
0000
0010
0000
0100
00M0
0100
0000
1000
0000
0100
00M0
0100
0000
0001
0000
1000
0000
,
0100
0000
0010
0M00
0010
0000
1000
0000
0001
0000
0100
0000
0010
0000
1000
0000
0100
00M0
0100
0000
0001
0000
0100
00M0
0100
0000
1000
0000
0010
0000
0100
0000
,
0101
0000
0000
0000
0000
0000
0000
0000
0100
00M0
0100
0000
1000
0000
0001
0000
0010
0000
0100
00M0
0100
0000
0001
0000
0100
00M0
0100
0000
1000
0000
0001
0000
,
1000
0000
0010
0M00
0010
0000
0001
0000
0010
0M00
0010
0000
1000
0000
0100
0000
2100
0000
0000
0000
3001
0000
0000
0000
0102
0000
0000
0000
1003
0000
0000
0000
,
2001
0000
0000
3100
0120
0000
0000
0000
,
0031
0200
0000
0310
1010
1000
0100
0010
,
0021
0001
0000
0130
1200
0000
0000
2300
,
0001
0000
0000
0000
3000
0000
0010
0000
0120
0000
0000
0000
0000
0000
0000
0030
,
2001
0000
0000
3001
0012
0000
0000
0000
,
1003
0020
0000
0130
0101
0001
1000
0100
,
0110
0020
0000
0031
1002
0000
0000
2003
,
0010
0000
0000
3100
0220
0000
0000
0000
,
0330
0000
0000
0000
;

//---------------dance-single - Benpai----------------
#NOTEDATA:;
#CHARTNAME:Benpai SH;
#STEPSTYPE:dance-single;
#DESCRIPTION:Benpai;
#CHARTSTYLE:;
#DIFFICULTY:Hard;
#METER:10;
#RADARVALUES:0.585091,0.800720,0.170926,0.414166,0.486480,623.000000,597.000000,26.000000,63.000000,2.000000,0.000000,21.000000,0.000000,0.000000,0.585091,0.800720,0.170926,0.414166,0.486480,623.000000,597.000000,26.000000,63.000000,2.000000,0.000000,21.000000,0.000000,0.000000;
#CREDIT:Benpai;
#DISPLAYBPM:125.000000:155.000000;
#NOTES:
0000
0000
0000
0000
,
0000
0000
0000
0000
,
0000
0000
0000
0000
,
0000
0000
0000
0000
,
0001
0000
0000
0002
1003
0000
0200
0300
,
0000
0000
2000
3001
0100
0000
0020
2030
,
3002
0003
0000
0001
1000
0000
0000
0000
,
0000
0000
0000
0001
1000
0000
0000
0000
,
0200
0000
0300
2000
0000
3000
0020
0000
,
0030
0200
0000
0300
0002
0000
0003
0000
,
2001
3000
0000
0000
,
0000
0000
0200
0320
,
0130
1000
0001
0100
0010
1000
0001
0010
,
0100
1000
0001
0100
0010
1000
0100
0010
,
0100
1000
0100
1000
0001
0100
0001
0100
0010
1000
0010
1000
0001
0010
0001
0010
,
0100
1000
0100
1000
0001
0100
0001
0100
0000
0000
0000
0000
0010
1000
0010
1000
,
0001
0000
0040
0030
0100
1000
0001
1000
0010
0100
0000
0001
0000
0000
1000
0000
,
1100
0000
1001
0000
0012
0000
1003
0010
,
0200
0000
0000
0000
0310
0000
1000
0001
0000
0000
0001
0000
0010
0100
0010
0100
,
2000
0000
3000
0000
2000
0000
3000
0000
0000
0000
0010
0000
0100
0001
0100
0001
,
1000
0000
0400
0300
0010
0001
1000
0001
0100
0010
0000
1000
0000
0000
0001
0000
,
0011
0000
0110
1000
1001
0002
0203
0320
,
2030
0000
0000
0000
3001
0000
0010
0100
0000
0000
0100
0000
1000
0001
1000
0001
,
0200
0000
03M0
0000
0200
0000
0300
0000
0010
0000
1000
0000
0001
0010
0001
0010
,
0200
0000
0000
0000
1300
0001
0000
1000
0000
0000
0010
0000
0010
0000
0100
0000
,
0002
0000
0000
0000
1003
0001
0000
1000
0000
0000
0100
0000
0001
0000
0100
0000
,
2000
0000
0000
0000
3001
1000
0000
0001
0000
0000
0100
0000
0100
0000
0010
0000
,
2000
0000
0000
0000
3001
1000
0000
0001
0000
0000
0010
0100
1000
0000
0001
0000
,
0102
0000
0000
0000
1003
0001
0000
1000
0000
0000
0100
0000
0100
0000
0010
0000
,
0002
0000
0000
0000
1003
0001
0000
1000
0000
0000
0010
0000
0001
0000
0010
0000
,
2000
0000
0000
0000
3001
1000
0000
0001
0000
0000
0010
0000
0010
0000
0100
0000
,
2000
0000
0000
0000
3001
1000
0000
0001
0000
0000
0100
0000
0010
0000
1000
0000
,
0100
0000
0010
0000
0001
0000
1000
0010
0100
0000
0001
0000
1000
0000
0100
0010
,
0001
0000
1000
0000
0010
0000
0100
0001
0010
0000
0100
0000
1000
0000
0001
0100
,
0010
0000
1000
0000
0100
0000
0010
0001
0100
0000
0010
0000
1000
0000
0001
0000
,
0010
0000
0100
0000
1000
0000
0010
0000
0100
0000
0001
1000
0000
0001
0010
0001
,
1000
0000
0010
0100
0000
0001
0000
1000
0001
0000
1000
0001
0000
0100
0010
0100
,
0001
0000
1000
0001
0000
1000
0100
1000
0001
0000
1000
0001
0000
0100
0000
0000
,
M010
0000
1000
0001
0000
1000
0000
0001
0010
0000
0100
0010
0000
0001
1000
0001
,
0200
0000
0000
0320
0000
0000
2030
0000
0000
3002
0000
0000
0023
0000
0230
0000
,
1300
0000
0001
0100
0000
0001
1000
0010
1000
0000
0001
1000
0000
0100
0010
0100
,
1000
0000
0001
1000
0000
0001
0100
0001
1000
0000
0001
1000
0000
0100
0000
0000
,
0010
0000
0100
1000
0000
0001
1000
0001
0100
0000
0010
1000
0000
0001
0100
0001
,
1000
0000
0100
1000
0000
0001
0000
0100
0010
0000
1000
0001
0000
0010
0100
0010
,
0002
0000
0000
0000
,
1003
0010
0000
0100
0000
0001
1000
0100
,
0000
0010
0001
1000
0010
1000
0001
0010
,
0100
1000
0001
0100
0010
0100
0001
1000
,
0100
0100
0010
0001
1000
0010
0100
0001
,
1000
0100
1000
0010
0100
0001
0010
0100
,
1000
0001
1000
0010
0100
0001
1000
0100
,
0010
0100
1000
0001
0100
0010
1000
0001
,
0010
0100
1000
0010
,
0100
0000
0001
0000
1000
0000
0100
0010
,
0100
1000
0001
0100
,
0010
0000
1000
0000
0001
0000
0010
0100
,
1100
1000
0001
0100
0010
1000
0001
0010
,
0011
0001
1000
0010
0100
0001
1000
0100
,
0110
0010
0001
1000
1001
0001
0100
0010
,
1010
1000
1001
0001
0010
0010
0100
0100
,
2000
0000
0000
0000
3001
0100
0001
1000
0000
0010
0100
0010
0000
1000
0001
1000
,
0000
0100
0010
0001
0000
1000
0001
0100
0000
0010
0100
0010
1000
0000
0001
0000
,
0020
0000
0000
0000
0130
1000
0001
1000
0000
0010
0100
0010
0000
1000
0001
1000
,
0000
0100
0010
0001
0000
1000
0001
0100
0020
0000
0000
0000
2030
0000
0000
0000
,
3002
0000
0000
0000
0013
0100
0010
0001
0000
1000
0010
0100
0000
0001
0100
0001
,
0000
1000
0100
0010
0000
0100
1000
0001
0000
1000
0010
1000
0001
0000
0100
0000
,
0020
0000
0000
0000
1030
0001
0010
0001
0000
1000
0010
1000
0000
0010
0100
0001
,
0000
1000
0100
1000
0000
0001
0100
0010
1000
0000
0010
0000
1000
0000
0001
0000
,
0010
0100
1000
0010
0100
0001
0100
0010
,
1000
0000
0001
0000
0010
0000
0100
0000
1000
0000
0001
0000
0100
0010
1000
0000
,
2001
0000
0000
0000
3100
0000
0010
0001
1000
0000
0040
0000
0430
0000
0304
0000
,
1003
0000
0400
0000
0340
0000
0031
1000
0020
0000
0000
0000
0230
0000
0000
0000
,
0302
0000
0000
0000
0013
0000
0100
1000
0001
0000
0400
0000
0340
0000
4030
0000
,
3001
0000
0040
0000
0430
0000
1300
0000
0004
0000
0403
0000
0340
0000
4030
3000
,
1002
0000
0000
0000
0103
0000
0010
1000
0001
0000
0040
0000
0430
0000
4300
0000
,
3001
0400
0340
1030
1001
0001
0101
0100
,
0120
0000
0000
1030
2001
0000
0000
0000
,
3100
0020
0000
0031
1000
0010
0100
0001
,
1000
0200
0000
1300
2001
0000
0000
0000
,
3100
0000
0000
0000
0000
0000
0010
0000
0120
0000
0000
0000
0000
0000
0000
0030
,
2001
0000
0000
3001
0012
0000
0000
0000
,
1003
0020
0000
0130
0001
1000
0100
0010
,
0001
2000
0000
3010
1020
0000
0000
0130
,
0001
0000
0000
1000
2002
0000
0000
0000
,
3003
0000
0000
0000
;

//---------------dance-single - Benpai----------------
#NOTEDATA:;
#CHARTNAME:Benpai SN;
#STEPSTYPE:dance-single;
#DESCRIPTION:Benpai;
#CHARTSTYLE:;
#DIFFICULTY:Beginner;
#METER:1;
#RADARVALUES:0.078889,0.165666,0.006574,0.039444,0.000000,84.000000,83.000000,1.000000,6.000000,0.000000,0.000000,0.000000,0.000000,0.000000,0.078889,0.165666,0.006574,0.039444,0.000000,84.000000,83.000000,1.000000,6.000000,0.000000,0.000000,0.000000,0.000000,0.000000;
#CREDIT:Benpai;
#DISPLAYBPM:125.000000:155.000000;
#NOTES:
0000
0000
0000
0000
,
0000
0000
0000
0000
,
0000
0000
0000
0000
,
0000
0000
0000
0000
,
0001
0000
0000
0000
,
0000
0000
0000
0000
,
0001
0000
0000
0000
,
0000
0000
0000
0000
,
0100
0000
0000
0000
,
0000
0000
0000
0000
,
0100
0000
0000
0000
,
0000
0000
0000
0000
,
0010
0000
0010
0000
,
1000
0000
1000
0000
,
0200
0000
0000
0000
,
0000
0000
0300
0000
,
1000
0000
0000
0000
,
0010
0000
0000
0000
,
0100
0000
0000
0000
,
0100
0000
0000
0000
,
0001
0000
0000
0000
,
0010
0000
0000
0000
,
0100
0000
0000
0000
,
0100
0000
0000
0000
,
1000
0000
0000
0000
,
1000
0000
0000
0000
,
0001
0000
0000
0000
,
0001
0000
0000
0000
,
0100
0000
0000
0000
,
0100
0000
0000
0000
,
0010
0000
0000
0000
,
0010
0000
0000
0000
,
1000
0000
1000
0000
,
0100
0000
0100
0000
,
0010
0000
0010
0000
,
0001
0000
0001
0000
,
0001
0000
0000
0000
,
0100
0000
0000
0000
,
0010
0000
0000
0000
,
1000
0000
0000
0000
,
0100
0000
0000
0000
,
1000
0000
0000
0000
,
0010
0000
0000
0000
,
0100
0000
0000
0000
,
0001
0000
0000
0000
,
0000
0000
0000
0000
,
1000
0000
0000
0000
,
0100
0000
0000
0000
,
1000
0000
0000
0000
,
0001
0000
0000
0000
,
0100
0000
0000
0000
,
0010
0000
0000
0000
,
1000
0000
0000
0000
,
1000
0000
0000
0000
,
0010
0000
0000
0000
,
0010
0000
0000
0000
,
0200
0000
0000
0000
,
0302
0000
0000
0000
,
0023
0000
0230
0000
,
1300
0000
0001
0001
,
0001
0000
0000
0000
,
0001
0000
0000
0000
,
0100
0000
0000
0000
,
0100
0000
0010
0000
,
0010
0000
0000
0000
,
1000
0000
0000
0000
,
0100
0000
0000
0000
,
0010
0000
0000
0000
,
0001
0000
0000
0000
,
0000
0000
0000
0000
,
1001
0000
0000
0000
,
1000
0000
0000
0000
,
0100
0000
0000
0000
,
0010
0000
0000
0000
,
0100
0000
0000
0000
,
1000
0000
0000
0000
,
0001
0000
0000
0000
,
0100
0000
0000
0000
,
0010
0000
0000
0000
,
1000
0000
0000
0000
,
0001
0000
0000
0000
,
0010
0000
0000
0000
,
0100
0000
0000
0000
,
2000
0000
0000
0000
,
3000
0000
0000
0000
;

//---------------dance-single - Benpai----------------
#NOTEDATA:;
#CHARTNAME:Benpai SE;
#STEPSTYPE:dance-single;
#DESCRIPTION:Benpai;
#CHARTSTYLE:;
#DIFFICULTY:Easy;
#METER:4;
#RADARVALUES:0.229153,0.303722,0.065741,0.190648,0.000000,244.000000,234.000000,10.000000,29.000000,0.000000,0.000000,0.000000,0.000000,0.000000,0.229153,0.303722,0.065741,0.190648,0.000000,244.000000,234.000000,10.000000,29.000000,0.000000,0.000000,0.000000,0.000000,0.000000;
#CREDIT:Benpai;
#DISPLAYBPM:125.000000:155.000000;
#NOTES:
0000
0000
0000
0000
,
0000
0000
0000
0000
,
0000
0000
0000
0000
,
0000
0000
0000
0000
,
0001
0000
1000
0000
,
0000
0000
1000
0000
,
0010
0000
0100
0000
,
0000
0000
0100
0000
,
0002
0000
0000
0000
,
0000
0000
0000
0000
,
2003
0000
0000
0000
,
0000
0000
3100
0010
,
0001
1000
0010
0100
,
0001
1000
0100
0010
,
0200
0000
2300
0000
,
3002
0000
0003
0000
,
1001
0000
0001
0010
,
0100
0100
2000
3020
,
0130
0001
0000
1000
,
0100
0000
0100
0000
0000
0000
0020
0030
,
1001
0000
0001
0100
,
0010
0010
1000
0100
,
0100
0010
0001
1000
,
0010
0010
0200
0000
,
0301
0001
0000
0010
,
0100
0100
0000
1000
,
0001
0001
0000
0100
,
0010
0010
0000
1000
,
0100
0100
0000
1000
,
0010
0010
0000
0100
,
0001
0001
0000
1000
,
0100
0100
0000
0010
,
0002
0000
0203
0000
,
0320
0000
2030
0000
,
3200
0000
0320
0000
,
0032
0000
0203
0310
,
1000
0100
1000
0001
,
0001
0010
0100
1000
,
0001
0100
0001
1000
,
0200
0000
0000
0320
0000
0000
0031
0000
,
0001
0100
0001
1000
,
0010
0100
0001
1000
,
0100
0010
0100
1000
,
0001
0100
0010
1000
,
0002
0000
0000
0000
,
0003
0000
0000
0000
,
1000
0100
1000
0001
,
0100
0010
0100
0001
,
1000
0010
1000
0001
,
0010
0100
1000
0001
,
0100
0010
1000
0001
,
1000
0100
0010
0001
,
1000
0010
0100
0001
,
1000
0100
0010
0001
,
1000
0010
0100
0001
,
1000
0100
0010
0001
,
0200
0000
0000
0000
,
0320
0000
0000
0000
,
2030
0000
3200
0000
,
1300
1000
0010
0010
,
0110
0100
0001
1000
,
0100
1000
0001
0100
,
0101
0001
1000
0010
,
1000
0100
0020
0032
,
0103
0100
0010
1000
,
0100
0010
0001
0100
,
0101
0001
0010
0100
,
1000
0010
0100
0100
,
0002
0000
0000
0000
,
0000
0000
0003
0000
,
1001
1000
0100
1000
,
0010
0100
0001
0010
,
0100
1000
0001
0100
,
0010
0100
0001
1000
,
0100
1000
0001
1000
,
0010
0100
0001
0001
,
0002
0000
1003
0000
,
0100
0000
0110
0000
,
0001
0000
1000
0000
,
0010
0000
1010
0000
,
1000
0000
0001
0000
,
0010
0000
0011
0000
,
0010
0000
0100
0000
,
1000
0000
2001
0000
,
3000
0000
0000
0000
;

//---------------dance-single - Benpai----------------
#NOTEDATA:;
#CHARTNAME:Benpai SM;
#STEPSTYPE:dance-single;
#DESCRIPTION:Benpai;
#CHARTSTYLE:;
#DIFFICULTY:Medium;
#METER:7;
#RADARVALUES:0.358756,0.441777,0.032870,0.276111,0.019722,382.000000,377.000000,5.000000,42.000000,0.000000,0.000000,7.000000,0.000000,0.000000,0.358756,0.441777,0.032870,0.276111,0.019722,382.000000,377.000000,5.000000,42.000000,0.000000,0.000000,7.000000,0.000000,0.000000;
#CREDIT:Benpai;
#DISPLAYBPM:125.000000:155.000000;
#NOTES:
// measure 0
0000
0000
0000
0000
,  // measure 1
0000
0000
0000
0000
,  // measure 2
0000
0000
0000
0000
,  // measure 3
0000
0000
0000
0000
,  // measure 4
0001
0000
1000
0000
,  // measure 5
0000
0000
0000
0100
1000
0000
0000
0000
,  // measure 6
0010
0000
0100
0000
,  // measure 7
0000
0000
0000
0010
0100
0000
0000
0000
,  // measure 8
0002
0000
0003
2000
0000
3000
0020
0000
,  // measure 9
0030
0200
0000
0300
0002
0000
0003
0000
,  // measure 10
2001
3000
0000
0000
,  // measure 11
0000
0000
0200
0320
,  // measure 12
0031
0000
1000
0010
0100
0000
0001
0000
,  // measure 13
1000
0000
0100
0000
0010
0000
0001
1000
,  // measure 14
0040
0430
0304
4003
,  // measure 15
3400
0340
0031
0100
,  // measure 16
1001
0000
0000
0000
1000
0000
0001
0000
0100
0000
0000
0010
0000
0000
1000
0000
,  // measure 17
0001
0010
0001
0010
0200
0000
2300
0000
,  // measure 18
3001
0000
0000
0000
0100
0000
0000
0010
0000
0000
0010
0000
1000
0000
0001
0000
,  // measure 19
1000
0000
1000
0000
0000
0100
0040
0000
,  // measure 20
0031
0000
0000
0000
1000
0000
0010
0000
0100
0000
0000
0001
0000
0000
1000
0000
,  // measure 21
0100
0010
0100
0010
0001
1000
0010
0100
,  // measure 22
0001
0000
0000
0000
1000
0000
0000
0100
0000
0000
0100
0000
0010
0000
0001
0000
,  // measure 23
0010
0000
0010
0000
0100
1000
0010
0100
,  // measure 24
0002
0000
1003
0000
0100
0010
0010
0001
,  // measure 25
2000
0000
3010
0000
0100
0001
0010
0001
,  // measure 26
2000
0000
3100
0000
0010
0100
0100
1000
,  // measure 27
0002
0000
0103
0000
0010
0100
0001
0010
,  // measure 28
0200
0000
1300
0000
0001
0100
0100
0010
,  // measure 29
2000
0000
3001
0000
1000
0100
0010
0100
,  // measure 30
2000
0000
3001
0000
0100
0010
0010
1000
,  // measure 31
0002
0000
0013
0000
0100
0010
0001
0100
,  // measure 32
0020
0000
1030
0001
0020
0000
0130
1000
,  // measure 33
0002
0000
0103
0010
2000
0000
3001
0010
,  // measure 34
0100
1000
0010
0100
0001
1000
0100
0010
,  // measure 35
0001
1000
0001
1000
0010
0100
0000
0001
,  // measure 36
1000
0000
0100
1000
1000
0000
0001
0100
,  // measure 37
0100
0000
0010
1000
1000
0000
0001
0010
,  // measure 38
0100
0000
1000
0001
0001
0000
0100
0010
,  // measure 39
2000
0000
0000
3002
0000
0000
0023
0000
0000
0230
0000
0000
1300
0000
0001
0000
,  // measure 40
1000
0000
0010
0100
0100
0000
0001
1000
,  // measure 41
1000
0000
0100
0010
0010
0000
0001
1000
,  // measure 42
0010
0000
0100
0001
0001
0000
1000
0100
,  // measure 43
0100
0000
0010
0001
0001
0000
1000
0010
,  // measure 44
0200
0000
0000
0000
,  // measure 45
0301
1000
0000
0100
0000
0010
0100
1000
,  // measure 46
0000
0001
0000
1000
0010
1000
0000
0100
,  // measure 47
0010
0100
0000
1000
0001
1000
0000
0000
,  // measure 48
0010
0010
0100
0000
0001
1000
0100
0000
,  // measure 49
0010
0001
0000
0100
0000
0010
1000
0001
,  // measure 50
0000
0010
0000
0100
1000
0100
0000
0010
,  // measure 51
0001
0010
0000
0001
1000
0010
0100
0000
,  // measure 52
0001
1000
0100
0010
,  // measure 53
0001
0000
0100
0000
0010
0000
1000
0001
,  // measure 54
1000
0010
0100
0001
,  // measure 55
1000
0100
0010
0001
,  // measure 56
0200
0000
0000
0000
,  // measure 57
0320
0000
0000
0000
,  // measure 58
2030
0000
3200
0000
,  // measure 59
1300
0000
1000
0000
0010
0100
0010
0100
,  // measure 60
0002
0000
1003
0000
0100
1000
0001
0000
,  // measure 61
0100
0010
1000
0000
0001
0010
0100
0000
,  // measure 62
0110
0000
0010
0000
0001
1000
0010
0000
,  // measure 63
0100
0001
1000
0000
0200
0000
0320
0000
,  // measure 64
0032
0000
1003
0000
0010
0100
0001
0000
,  // measure 65
1000
0100
0010
0000
0100
1000
0001
0000
,  // measure 66
1001
0000
1000
0000
0010
0100
0001
0000
,  // measure 67
1000
0100
0010
0000
0100
1000
0100
1000
,  // measure 68
0002
0000
0000
0000
,  // measure 69
0000
0000
0003
0000
,  // measure 70
1001
0000
1000
0010
0100
0000
0001
0000
,  // measure 71
1000
0000
0100
0010
0002
0000
0203
0000
,  // measure 72
0320
0000
1030
0001
1000
0000
0100
0000
,  // measure 73
0010
0000
0001
0100
0010
0000
0100
0001
,  // measure 74
1000
0000
0100
0010
0001
0000
1000
0000
,  // measure 75
0001
0000
0100
0010
1000
0001
1000
0001
,  // measure 76
0020
0000
0130
0000
,  // measure 77
1000
0001
0000
0100
0000
0010
0100
0001
,  // measure 78
0000
0010
0000
0000
0100
0000
0000
1000
,  // measure 79
0100
0000
0010
0000
,  // measure 80
0002
0000
1003
0000
,  // measure 81
0010
1000
0000
0100
0000
0010
0001
1000
,  // measure 82
0000
0010
0000
0000
0100
0000
0000
0001
,  // measure 83
1000
0000
0000
0100
0020
0000
0000
0000
,  // measure 84
0030
0000
0000
0000
;
