#TITLE:Llego El Pavo;
#SUBTITLE:(Rathero Remix);
#ARTIST:Silvio Mora;
#TITLETRANSLIT:;
#SUBTITLETRANSLIT:;
#ARTISTTRANSLIT:;
#GENRE:Bass;
#CREDIT:Feraligatr & Maxx;
#BANNER:Llego El Pavo (Rathero Remix)-bn.png;
#BACKGROUND:Llego El Pavo (Rathero Remix)-bg.png;
#LYRICSPATH:;
#CDTITLE:feraligatr-maxx-cdtitle.png;
#MUSIC:Llego El Pavo.ogg;
#OFFSET:-0.109000;
#SAMPLESTART:75.940010;
#SAMPLELENGTH:19.635000;
#SELECTABLE:YES;
#DISPLAYBPM:78.000000:155.000000;
#BPMS:0.000000=155.000000
,199.000000=232.500000
,199.750000=77.500000
,200.000000=155.000000
,224.000000=77.500000
,228.000000=155.000000
;
#STOPS:
;
#BGCHANGES:;
#KEYSOUNDS:;
#ATTACKS:;

//---------------dance-single - Feraligatr & Maxx----------------
#NOTES:
     dance-single:
     Feraligatr & Maxx:
     Challenge:
     11:
     0.831281,1.045474,0.137931,0.482759,1.163793,675.000000,659.000000,16.000000,56.000000,58.000000,7.000000,0.831281,1.045474,0.137931,0.482759,1.163793,675.000000,659.000000,16.000000,56.000000,58.000000,7.000000:
// measure 0
0000
0000
0000
0000
,  // measure 1
0000
0000
0000
0000
,  // measure 2
1000
0100
1000
0001
0100
0010
0100
0001
1000
0100
1000
0001
0100
0010
0100
0001
,  // measure 3
1000
0100
0000
0100
0010
0000
0001
0000
0200
0000
0000
0000
0302
0000
0000
0000
,  // measure 4
1003
0010
1000
0001
0010
0100
0010
0001
1000
0010
1000
0001
0010
0100
0010
0001
,  // measure 5
1000
0010
0000
0010
0100
0000
0001
0000
0020
0000
0031
1000
0001
0000
1000
0000
,  // measure 6
0001
0100
0001
1000
0100
0010
0100
1000
0001
0100
0001
1000
0100
0010
0100
1000
,  // measure 7
0001
0100
0000
0100
0010
0000
1000
0000
0200
0000
0000
0000
2300
0000
0000
0000
,  // measure 8
3001
0010
0001
1000
0010
0100
0010
1000
0001
0010
0001
1000
0010
0100
0010
1000
,  // measure 9
0002
2003
3200
0320
,  // measure 10
0031
0000
0000
0000
1000
0000
0000
0001
0100
0000
0001
0000
1000
0000
0000
0000
,  // measure 11
0100
0000
0000
0000
0010
0000
0000
0001
1000
0000
0001
0000
0100
0000
0010
0000
,  // measure 12
0010
0000
0000
0000
1000
0000
0000
0001
0010
0000
0001
0000
1000
0000
0000
0000
,  // measure 13
0100
0000
0000
0000
0010
0000
0000
0001
1000
0000
0001
0000
0100
0000
0010
0000
,  // measure 14
1000
1000
0100
0100
0010
0010
0001
0001
,  // measure 15
1000
1000
0010
0010
0100
0100
0001
0001
,  // measure 16
1000
0100
1000
0001
0100
0010
0100
0001
1000
0100
1000
0001
0100
0010
1000
0001
,  // measure 17
0M10
0000
0000
0000
0000
0000
0000
0000
0M00
M000
0000
0000
0000
0000
0000
0000
0M00
M000
0M00
0000
0000
0000
0000
0000
0M00
M000
0M00
M000
0000
0000
0000
0000
,  // measure 18
1001
0000
1000
0001
0100
00M0
0100
0000
1000
0000
0100
0000
0010
000M
0010
0000
,  // measure 19
1000
0000
0001
1000
0100
00M0
0100
0000
0010
0000
1000
0001
2200
0010
3300
0010
,  // measure 20
0100
0000
0001
1000
0100
0000
0010
000M
0010
0000
1000
0000
0100
00M0
0100
0000
,  // measure 21
0002
0000
0000
0000
2003
0000
0000
0000
3200
0000
0000
0000
0320
0000
0000
0030
,  // measure 22
0011
0000
1000
0001
0100
00M0
0100
0000
0010
0000
0001
0000
0100
00M0
0100
0000
,  // measure 23
1000
0000
0001
1000
0100
00M0
0100
0000
0010
0000
1000
0001
2020
0100
3030
0000
,  // measure 24
1100
0000
0001
1000
0100
00M0
0100
0000
0010
0000
1000
0000
0100
00M0
0100
0000
,  // measure 25
0002
0000
0000
0000
2003
0000
0000
0000
3020
0000
0000
0000
0230
0000
0000
0300
,  // measure 26
0101
0000
1000
0001
0100
00M0
0100
0000
1000
0000
0001
0000
1000
0010
0100
M000
,  // measure 27
0100
0000
1000
0001
0010
0M00
0010
0000
0100
0000
0001
1000
0022
0100
0033
0100
,  // measure 28
0010
0000
1000
0001
0010
0M00
0010
0000
1000
0000
0001
0000
0100
00M0
0100
0000
,  // measure 29
2000
0000
0000
0000
3002
0000
0000
0000
0023
0000
0000
0000
0230
0000
0000
0300
,  // measure 30
1100
0000
0001
1000
0010
0M00
0010
0000
0001
0000
1000
0000
0100
00M0
0100
0000
,  // measure 31
0001
0000
1000
0001
0100
M000
0100
0000
0010
0000
0001
1000
0202
0010
0303
0000
,  // measure 32
0011
0000
1000
0001
0010
0M00
0010
0000
1000
0000
0001
0000
0100
00M0
0100
0000
,  // measure 33
2020
0000
0000
3130
1000
0001
1000
0010
,  // measure 34
0100
0000
0000
0001
0000
0000
1000
0000
0000
0001
0000
0000
0100
0000
0000
0000
0000
0000
0010
0000
0000
0000
0000
0000
1000
0000
0000
0000
0001
0000
0000
0000
1000
0000
0000
0000
0100
0000
0000
0000
0010
0000
0000
0000
0100
0000
0000
0000
,  // measure 35
1000
0000
0000
0001
0000
0000
0010
0000
0000
0001
0000
0000
1000
0000
0000
0000
0000
0000
0010
0000
0000
0000
0000
0000
0100
0000
0000
0000
0001
0000
0000
0000
1000
0000
0000
0000
0001
0000
0000
0000
0010
0000
0000
0000
0100
0000
0000
0000
,  // measure 36
0010
0000
0000
0001
0000
0000
1000
0000
0000
0001
0000
0000
0100
0000
0000
0000
0000
0000
0010
0000
0000
0000
0000
0000
1000
0000
0000
0000
0001
0000
0000
0000
0010
0000
0000
0000
0001
0000
0000
0000
1000
0000
0000
0000
0010
0000
0000
0000
,  // measure 37
0000
0000
0100
0000
0001
0000
0100
0000
0010
0000
1000
0000
0004
0000
0000
0000
0000
0000
0043
0000
0000
0130
0000
0000
,  // measure 38
1000
0000
0000
0001
0000
0000
0010
0000
0000
0001
0000
0000
1000
0000
0000
0000
0000
0000
0010
0000
0000
0000
0000
0000
0100
0000
0000
0000
0001
0000
0000
0000
1000
0000
0000
0000
0001
0000
0000
0000
0010
0000
0000
0000
0100
0000
0000
0000
,  // measure 39
0010
0000
0000
0001
0000
0000
1000
0000
0000
0001
0000
0000
0100
0000
0000
0000
0000
0000
0010
0000
0000
0000
0000
0000
1000
0000
0000
0000
0001
0000
0000
0000
0010
0000
0000
0000
0100
0000
0000
0000
0010
0000
0000
0000
0001
0000
0000
0000
,  // measure 40
1000
0000
0000
0010
0000
0000
0100
0000
0000
0010
0000
0000
1000
0000
0000
0000
0000
0000
0001
0000
0000
0000
0000
0000
1000
0000
0000
0000
0100
0000
0000
0000
0010
0000
0000
0000
0001
0000
0000
0000
1000
0000
0000
0000
0010
0000
0000
0000
,  // measure 41
0200
0320
2030
3002
,  // measure 42
1003
0100
1000
0001
0100
0000
0010
0000
1000
0001
1000
0100
0010
0000
0100
0000
,  // measure 43
1000
0001
1000
0010
0100
0000
0001
0000
1000
0010
1000
0001
0010
0000
0100
0000
,  // measure 44
1000
0001
1000
0010
0100
0000
0001
0000
1000
0100
1000
0001
0100
0000
0010
0000
,  // measure 45
1000
0001
1000
0100
0010
0000
0001
0000
1000
0010
1000
0001
0010
0000
0001
0000
,  // measure 46
0100
0010
0100
0001
1000
0100
1000
0001
0100
0010
0100
0001
1000
0100
1000
0001
,  // measure 47
0010
0100
0010
0001
1000
0010
1000
0001
0010
0100
0010
0001
1000
0010
1000
0001
,  // measure 48
0020
0230
2300
3002
,  // measure 49
00M3
0000
0000
0000
0000
0000
0000
0000
00M0
0M00
0000
0000
0000
0000
0000
0000
00M0
0M00
00M0
0000
0000
0000
0000
0000
0MM0
0000
0000
0000
0000
0000
0000
0000
,  // measure 50
1001
0000
1000
0001
0100
M000
0100
0000
0010
0000
0001
0000
1000
0001
0100
00M0
,  // measure 51
0100
0000
1000
0001
0010
0M00
0010
0000
0100
0000
0001
1000
0202
1303
0100
0010
,  // measure 52
0001
0000
1000
0001
0100
00M0
0100
0000
1000
0000
0001
0000
0010
0M00
0010
0000
,  // measure 53
2000
0000
0000
0000
3002
0000
0000
0000
0203
0000
0000
0000
0320
0000
0000
0030
,  // measure 54
1010
0000
0001
1000
0100
00M0
0100
0000
0001
0000
1000
0000
0010
0M00
0010
0000
,  // measure 55
0001
0000
1000
0001
0100
00M0
0100
0000
1000
0000
0001
1000
0022
0100
0033
0000
,  // measure 56
1MM1
0000
0000
0000
1000
0000
0001
0010
0000
0010
0100
0000
0100
0000
0000
0000
1000
0000
0000
0000
1000
0000
0001
0100
0000
0100
0010
0000
0000
0000
0000
0000
,  // measure 57
M10M
0001
1000
0001
0000
0001
0010
0100
1000
0000
0001
1000
0100
00M0
0100
0000
,  // measure 58
0000
0001
1000
0010
0000
0010
0100
0001
1000
0000
0001
1000
0100
00M0
0100
0000
,  // measure 59
0001
1000
0010
0100
0000
0100
0001
1000
0100
0000
1000
0001
0100
00M0
0100
0000
,  // measure 60
0010
0001
1000
0100
0000
0100
1000
0001
0100
0000
0001
1000
0010
0M00
0010
0000
,  // measure 61
0100
1000
0001
0010
0000
0010
0001
1000
0010
0000
1000
0001
0100
00M0
0100
0000
,  // measure 62
0000
1000
0001
0010
0000
0010
0100
1000
0001
0000
1000
0001
0100
00M0
0100
0000
,  // measure 63
1000
0001
0100
0010
0000
0010
0100
0001
1000
0000
0001
1000
0100
00M0
0100
0000
,  // measure 64
0000
0001
1000
0010
0000
0010
0100
0001
1000
0000
0001
1000
0100
00M0
0100
0000
,  // measure 65
0010
1000
0000
0000
0010
1000
0000
0000
0001
0100
0000
0000
0001
1000
0000
0000
,  // measure 66
0200
0000
0000
0000
0000
0000
0000
0320
0000
0000
0031
0000
0000
1000
0000
0000
,  // measure 67
0001
0100
0000
0000
0010
0000
0000
0000
1000
0100
0000
0000
1000
0100
0000
0000
,  // measure 68
0020
0000
0000
0000
0030
0000
0000
0002
0000
0000
0000
0000
1000
0000
0003
0000
,  // measure 69
0001
0100
0000
0000
0001
0100
0000
0000
0010
1000
0000
0000
0010
1000
0000
0000
,  // measure 70
0002
0000
0000
0000
1000
0000
0000
0203
0000
0000
0310
0000
0000
1000
0001
0000
,  // measure 71
1000
0100
0000
0000
0010
0000
0000
0000
0001
1000
0000
0000
0001
1000
0000
0000
,  // measure 72
0020
0000
0000
0000
0030
0000
0000
0200
0000
0000
0000
0000
0301
0000
2000
0000
,  // measure 73
0000
0000
3000
0000
;

//---------------dance-single - Feraligatr----------------
#NOTES:
     dance-single:
     Feraligatr SH:
     Hard:
     9:
     0.651478,0.785291,0.025862,0.612069,0.431034,529.000000,526.000000,3.000000,71.000000,1.000000,0.000000,0.651478,0.785291,0.025862,0.612069,0.431034,529.000000,526.000000,3.000000,71.000000,1.000000,0.000000:
0000
0000
0000
0000
,
0000
0000
0000
0000
,
0001
0010
0001
0000
1000
0010
1000
0000
0001
0100
0001
0000
1000
0100
1000
0000
,
0001
0000
0100
0010
2000
0000
3002
0000
,
1003
0010
1000
0000
0001
0010
0001
0000
1000
0100
1000
0000
0001
0100
0001
0000
,
1000
0000
0001
0010
0200
0000
2300
0000
,
3001
0010
0001
0000
1000
0010
1000
0000
0001
0100
0001
0000
1000
0100
1000
0000
,
0001
0000
0100
0010
2000
0000
3002
0000
,
1003
0010
1000
0000
0001
0010
0001
0000
1000
0100
1000
0000
0001
0100
0001
0000
,
0020
0230
2300
3002
,
0103
0000
0000
0000
0010
0000
0000
1000
0001
0000
0010
0000
0100
0000
0000
0000
,
1000
0000
0000
0000
0001
0000
0000
1000
0010
0000
0100
0000
0010
0000
1000
0000
,
1000
0000
0000
0000
0001
0000
0000
0100
0001
0000
1000
0000
0100
0000
0000
0000
,
0010
0000
0000
0000
0001
0000
0000
1000
0010
0000
0100
0000
0010
0000
1000
0000
,
0001
0100
0001
0100
0010
1000
0010
1000
,
0001
0010
0001
0010
0100
1000
0100
1000
,
0002
0203
0320
2030
,
3001
0000
0000
0000
,
1100
0000
1000
0001
0100
0000
0100
0000
0100
0000
0010
0000
1000
0000
1000
0000
,
1000
0000
0001
0000
0010
0000
0010
0000
0010
0000
0100
1000
0002
0100
0003
0001
,
1000
0000
0010
1000
0001
0000
0001
0000
0001
0000
0010
0000
0100
0000
0100
0000
,
2000
3020
0230
0302
,
1003
0000
0001
0010
0100
0000
0100
0000
0100
0000
1000
0000
0001
0000
0001
0000
,
0001
0000
0100
0000
0010
0000
0010
0000
0010
0000
1000
0001
2000
0100
3000
0000
,
1000
0000
0001
0100
0010
0000
0010
0000
0010
0000
0100
0000
0001
0000
0001
0000
,
0020
0230
2300
3002
,
0103
0000
0010
1000
0001
0000
0001
0000
0001
0000
0010
0000
0000
0100
1000
0000
,
1000
0000
0001
0000
0100
0000
0100
0000
0100
0000
0010
1000
0002
0010
0003
0001
,
1000
0000
0010
1000
0001
0000
0001
0000
0001
0000
0010
0000
0100
0000
0100
0000
,
2000
3020
0230
0302
,
1003
0000
0001
0010
0100
0000
0100
0000
0100
0000
1000
0000
0001
0000
0001
0000
,
0001
0000
0100
0000
0010
0000
0010
0000
0010
0000
0100
0001
2000
0000
3000
0000
,
0001
0000
1000
0100
0010
0000
0010
0000
0010
0000
0001
0000
0100
0000
0100
0000
,
2000
0000
0000
3100
0010
1000
0001
0010
,
0100
0000
1000
0001
0100
0000
0010
0000
0100
0000
0001
0000
1000
0000
0100
0000
,
0010
0000
0001
1000
0010
0000
0100
0000
0001
0000
1000
0000
0100
0000
0010
0000
,
0001
0000
1000
0001
0100
0000
0010
0000
0100
0000
0001
0000
1000
0000
0100
0000
,
0010
0001
0010
0100
4000
0000
3010
0100
,
0001
0000
1000
0100
0010
0000
0001
0000
1000
0000
0010
0000
0100
0000
0001
0000
,
1000
0000
0100
1000
0001
0000
0100
0000
0010
0000
0100
0000
0001
0000
1000
0000
,
0100
0000
0010
0001
1000
0000
0010
0000
0100
0000
0010
0000
1000
0000
0001
0000
,
2000
3020
0230
0302
,
1003
0000
0001
0010
0100
0000
1000
0000
0001
0000
0100
0010
1000
0000
0001
0000
,
0010
0000
0100
1000
0001
0000
0100
0000
0010
0000
0100
0001
1000
0000
0100
0000
,
0010
0000
0001
1000
0010
0000
0100
0000
0010
0000
1000
0001
0010
0000
0100
0000
,
1000
0000
0001
1000
0010
0000
0100
0000
0001
0000
1000
0100
0010
0000
0001
0000
,
4000
3040
0430
0304
,
0043
0430
4300
3004
,
0203
0320
2030
3002
,
0003
0000
0000
00M0
,
1001
0000
1000
0001
0100
0000
0100
0000
0100
0000
0010
0000
0000
1000
0001
0000
,
0001
0000
0010
0000
0100
0000
0100
0000
0100
0000
1000
0001
0200
0301
1000
0100
,
0010
0000
0001
1000
0010
0000
0010
0000
0010
0000
0100
0000
0001
0000
0001
0000
,
2000
3200
0320
0032
,
1003
0000
0001
0100
0010
0000
0010
0000
0010
0000
1000
0000
0001
0000
0001
0000
,
0001
0000
0010
0000
0100
0000
0100
0000
0100
0000
1000
0001
0200
0000
0300
0000
,
2020
0000
0000
3030
,
1000
0001
1000
0100
0000
0100
0010
0001
1000
0000
0001
0100
0010
0000
0010
0000
,
0000
1000
0001
0100
0000
0100
0010
1000
0001
0000
1000
0100
0010
0000
0010
0000
,
0001
1000
0001
0100
0000
0100
0010
1000
0001
0000
1000
0100
0010
0000
0010
0000
,
0001
1000
0001
0100
0000
0100
0010
1000
0001
0000
1000
0100
0010
0000
0010
0000
,
0100
1000
0001
0100
0000
0100
0010
1000
0001
0000
0010
0001
1000
0000
1000
0000
,
0000
0001
1000
0100
0000
0100
0010
0001
1000
0000
0001
0100
0010
0000
0010
0000
,
1000
0001
1000
0100
0000
0100
0010
0001
1000
0000
0001
0100
0010
0000
0010
0000
,
0000
1000
0001
0010
0000
0010
0100
1000
0001
0000
1000
0010
0100
0000
0100
0000
,
0002
0003
0000
0020
0030
0000
0200
0300
,
2000
3000
0000
0002
0003
0000
0200
0300
,
0020
0030
0000
2000
3000
0000
0002
0003
,
0020
0030
0000
0200
0300
0000
2000
3000
,
0002
0003
0000
0200
0300
0000
0020
0030
,
2000
3000
0000
0002
0003
0000
0020
0030
,
0200
0300
0000
0020
0030
0000
0002
0003
,
2000
3000
0000
0020
0030
0000
0200
0300
;

//---------------dance-single - Feraligatr----------------
#NOTES:
     dance-single:
     Feraligatr SM:
     Medium:
     7:
     0.495074,0.564440,0.034483,0.603448,0.000000,402.000000,398.000000,4.000000,70.000000,0.000000,0.000000,0.495074,0.564440,0.034483,0.603448,0.000000,402.000000,398.000000,4.000000,70.000000,0.000000,0.000000:
0000
0000
0000
0000
,
0000
0000
0000
0000
,
1000
1000
0010
0010
0100
0100
0001
0001
,
1000
0000
0100
0010
0002
0000
2003
0000
,
3010
0010
0100
0100
0001
0001
1000
1000
,
0100
0000
0010
0001
2000
0000
3002
0000
,
0103
0100
0010
0010
1000
1000
0001
0001
,
0010
0000
0100
1000
0002
0000
0203
0000
,
0310
0010
1000
1000
0001
0001
0010
0010
,
0002
0203
0320
2030
,
3001
0000
0010
0000
0001
1000
0001
0000
,
0100
0000
0010
0000
1000
0001
1000
0100
,
0100
0000
0010
0000
0001
1000
0001
0000
,
0100
0000
0010
0000
1000
0001
1000
0100
,
0020
0032
0023
0032
,
2003
3200
2300
3200
,
0320
0032
2003
3020
,
0130
0000
0000
0000
,
1001
0001
1000
0100
1000
0001
0100
0010
,
0100
0001
1000
0100
1000
0001
0200
0300
,
0010
1000
0001
0010
0001
1000
0010
0100
,
0002
0023
0230
2300
,
3001
0100
0010
1000
0010
0100
0001
1000
,
0001
0010
0100
1000
0100
0010
0002
0003
,
1000
0010
0100
0001
0100
0010
1000
0001
,
2000
3200
0320
0032
,
0103
0001
1000
0100
1000
0001
0100
0010
,
0100
0001
1000
0100
1000
0001
0200
0300
,
0010
1000
0001
0010
0001
1000
0010
0100
,
0002
0023
0230
2300
,
3001
1000
0100
0010
0100
1000
0001
0100
,
0001
1000
0100
0010
0100
1000
0002
0003
,
0100
0010
1000
0001
1000
0100
0010
0001
,
0200
0000
0000
0310
1000
0001
0010
0100
,
2000
0000
3100
0000
1000
0010
0100
0001
,
2000
0000
3100
0000
1000
0010
0100
0001
,
2000
0000
3100
0000
1000
0010
0100
0001
,
0000
0001
0100
0010
2000
0000
0000
3000
,
0002
0000
0103
0000
0001
0010
0100
1000
,
0002
0000
0103
0000
0001
0010
0100
1000
,
0002
0000
0103
0000
0001
0010
0100
1000
,
0002
0203
0320
2030
,
3200
0000
1300
0001
0200
0000
0301
1000
,
0200
0000
1300
0001
0200
0000
0301
1000
,
0020
0000
1030
0001
0020
0000
0031
1000
,
0020
0000
1030
0001
0020
0000
0031
1000
,
0100
0100
0100
0100
,
0010
0010
0010
0010
,
0002
0203
0320
2030
,
3000
0000
0000
0000
,
1001
1000
0010
0100
0010
1000
0001
0010
,
0001
1000
0010
0100
0010
1000
0002
0013
,
0100
1000
0001
0100
0001
1000
0100
0010
,
0002
0203
0320
2030
,
3001
1000
0100
0010
0100
1000
0001
0100
,
0001
1000
0100
0010
0100
1000
0002
0003
,
2002
0000
0000
3003
,
1010
1000
0001
0010
0100
0000
1000
1000
,
0000
0001
0100
0010
1000
0000
0001
0001
,
0010
0100
0010
0001
1000
0000
0010
0010
,
0100
0001
1000
0100
0010
0000
0001
0001
,
1000
0010
0100
0001
1000
0000
0100
0100
,
0000
1000
0001
0100
0010
0000
1000
1000
,
0001
0010
0100
0010
0001
0000
1000
1000
,
0010
0100
0001
1000
0100
0000
0010
0010
,
0001
0000
0000
0001
0000
0000
1000
0000
,
0010
0000
0000
0010
0000
0000
0100
0000
,
0001
0000
0000
0001
0000
0000
1000
0000
,
0100
0000
0000
0100
0000
0000
0010
0000
,
0001
0000
0000
0001
0000
0000
1000
0000
,
0010
0000
0000
0010
0000
0000
0100
0000
,
0001
0000
0000
0001
0000
0000
1000
0000
,
0100
0000
0000
0100
0000
0000
0010
0000
;

//---------------dance-single - Feraligatr----------------
#NOTES:
     dance-single:
     Feraligatr SE:
     Easy:
     4:
     0.305419,0.344935,0.068966,0.560345,0.000000,248.000000,240.000000,8.000000,65.000000,0.000000,0.000000,0.305419,0.344935,0.068966,0.560345,0.000000,248.000000,240.000000,8.000000,65.000000,0.000000,0.000000:
0000
0000
0000
0000
,
0000
0000
0000
0000
,
1000
1000
0010
0010
,
0100
0000
0000
0000
,
0001
0001
0010
0010
,
0100
0000
0000
0000
,
1000
1000
0010
0010
,
0100
0000
0000
0000
,
0001
0001
0010
0010
,
0002
0203
0320
2030
,
3001
0000
0001
0000
0001
1000
0001
0000
,
0100
0000
0100
0000
0100
0010
0100
0000
,
0001
0000
0001
0000
0001
1000
0001
0000
,
0010
0000
0010
0000
0010
0100
0010
0000
,
0002
2003
3002
2003
,
3020
0230
0320
0230
,
0302
0023
0230
2300
,
3001
0000
0000
0000
,
1000
0010
1000
0001
,
0010
0000
0100
0000
1000
0000
0020
0030
,
1000
0100
0010
0001
,
2000
3020
0230
0302
,
1003
0100
1000
0001
,
0100
0000
0010
0000
1000
0000
0200
0300
,
0010
0001
1000
0010
,
2000
3200
0320
0032
,
1003
0010
0100
0010
,
1000
0000
0001
0000
0010
0000
0200
0300
,
1000
0001
0100
0010
,
2000
3200
0320
0032
,
1003
0010
0100
0010
,
1000
0000
0001
0000
0010
0000
0200
0300
,
1000
0001
0100
0001
,
0020
0030
0000
0000
,
0011
1000
0000
0000
,
1010
0001
0000
0000
,
0011
1000
0000
0000
,
1000
0000
0001
0000
0200
0000
0000
0300
,
0101
1000
0000
0000
,
1100
0001
0000
0000
,
0101
1000
0000
0000
,
0002
0203
0320
2030
,
3001
0010
0001
0010
,
0100
1000
0100
1000
,
0001
0100
0001
0100
,
0010
1000
0010
1000
,
0001
0001
0001
0001
,
1000
1000
1000
1000
,
0002
0023
0230
2300
,
3000
0000
0000
0000
,
1000
0001
0100
0010
,
0100
0000
0001
0000
1000
0000
0200
0300
,
1000
0001
0100
0010
,
2000
3200
0320
0032
,
1003
0001
0100
0010
,
0100
0000
0001
0000
1000
0000
0200
0300
,
0120
0000
0000
0030
,
2001
0000
3010
0200
,
0000
0301
0200
0000
0310
2000
0000
0000
,
3002
0000
0013
0200
,
2300
0000
3001
0200
,
0320
0000
1030
0002
,
0000
0013
0002
0000
2003
0010
0000
3000
,
2000
0000
3001
2000
,
0000
3100
0020
0000
0031
2000
0000
0000
,
3010
0000
0000
0010
0000
0000
0010
0000
,
0100
0000
0000
0100
0000
0000
0100
0000
,
0001
0000
0000
0001
0000
0000
0001
0000
,
1000
0000
0000
1000
0000
0000
1000
0000
,
0100
0000
0000
0100
0000
0000
0100
0000
,
0010
0000
0000
0010
0000
0000
0010
0000
,
0001
0000
0000
0001
0000
0000
0001
0000
,
1000
0000
0000
1000
0000
0000
1000
0000
;

//---------------dance-single - Feraligatr----------------
#NOTES:
     dance-single:
     Feraligatr SB:
     Beginner:
     3:
     0.221675,0.282220,0.077586,0.008621,0.000000,180.000000,171.000000,9.000000,1.000000,0.000000,0.000000,0.221675,0.282220,0.077586,0.008621,0.000000,180.000000,171.000000,9.000000,1.000000,0.000000,0.000000:
0000
0000
0000
0000
,
0000
0000
0000
0000
,
1000
0000
0100
0000
,
0010
0000
0000
0000
,
0001
0000
0100
0000
,
0010
0000
0000
0000
,
1000
0000
0100
0000
,
0010
0000
0000
0000
,
0001
0000
0100
0000
,
0001
0001
1000
1000
,
0100
0100
0100
0000
,
0010
0010
0010
0000
,
0001
0001
0001
0000
,
1000
1000
1000
0000
,
0001
0001
0100
0100
,
0001
0001
0100
0100
,
0010
0000
0000
0000
,
0000
0000
0000
0000
,
1001
0000
1000
0000
,
0100
0000
0010
0010
,
0010
0000
0001
0000
,
1000
1000
0001
0001
,
0100
0000
0010
0000
,
1000
0000
0001
0001
,
0001
0000
1000
0000
,
0100
0100
0010
0010
,
0001
0000
1000
0000
,
0010
0000
0100
0100
,
0100
0000
0001
0000
,
1000
1000
0100
0100
,
0010
0000
0100
0000
,
1000
0000
0001
0001
,
0001
0000
0100
0000
,
0020
0000
0000
0030
0000
0000
0000
0000
,
1001
1000
0000
0000
,
0110
0010
0000
0000
,
1001
0001
0000
0000
,
0100
0100
0100
0000
,
1001
1000
0000
0000
,
0110
0010
0000
0000
,
1001
0001
0000
0000
,
1000
1000
0001
0001
,
0100
0000
0010
0000
,
1000
0000
0001
0000
,
0010
0000
0100
0000
,
1000
0000
0001
0000
,
1000
1000
0001
0001
,
1000
1000
0001
0001
,
0100
0100
0010
0010
,
0000
0000
0000
0000
,
1001
0000
1000
0000
,
0100
0000
0010
0010
,
0010
0000
0001
0000
,
1000
1000
0010
0010
,
0100
0000
0001
0000
,
1000
0000
0100
0100
,
0100
0000
0000
0000
,
1001
0000
1000
0010
,
0000
0010
0100
0000
,
0001
0000
1000
0100
,
0100
0000
0010
0001
,
0001
0000
1000
0010
,
0000
0100
0001
0000
,
1000
0000
0100
0010
,
0000
0001
1000
1000
,
0010
0000
0000
0010
,
0100
0000
0000
0100
,
0001
0000
0000
0001
,
1000
0000
0000
1000
,
0100
0000
0000
0100
,
0010
0000
0000
0010
,
0001
0000
0000
0001
,
1000
0000
0000
1000
;
