#TITLE:Like a Lady;
#SUBTITLE:;
#ARTIST:Pa’s Lam System;
#TITLETRANSLIT:;
#SUBTITLETRANSLIT:;
#ARTISTTRANSLIT:;
#GENRE:;
#CREDIT:;
#BANNER:Like a Lady-bn.png;
#BACKGROUND:Like a Lady-bg.png;
#LYRICSPATH:;
#CDTITLE:cd-title-Benpai.png;
#MUSIC:Like a Lady.ogg;
#OFFSET:0.009000;
#SAMPLESTART:73.591003;
#SAMPLELENGTH:12.800000;
#SELECTABLE:YES;
#DISPLAYBPM:150.000000;
#BPMS:0.000000=150.000000
,55.000000=225.000000
,55.750000=75.000000
,56.000000=150.000000
,201.500000=100.000000
,202.500000=300.000000
,203.500000=150.000000
,234.000000=225.000000
,234.750000=75.000000
,235.000000=300.000000
,235.250000=150.000000
,235.375000=75.000000
,235.500000=150.000000
,246.000000=225.000000
,246.500000=112.500000
,247.000000=150.000000
;
#STOPS:
;
#BGCHANGES:;
#KEYSOUNDS:;
#ATTACKS:;

//---------------dance-single - Benpai----------------
#NOTES:
     dance-single:
     Benpai SX:
     Challenge:
     11:
     0.785053,0.893178,0.323257,0.639331,0.890753,765.000000,720.000000,45.000000,89.000000,6.000000,0.000000,0.785053,0.893178,0.323257,0.639331,0.890753,765.000000,720.000000,45.000000,89.000000,6.000000,0.000000:
0000
0000
0000
0000
,
0000
0000
0000
0000
,
0000
0000
0000
0000
,
0000
0000
0000
0000
,
0000
0000
0000
0000
,
0000
0000
0000
0000
,
1000
0000
0000
0000
0001
0000
0000
0000
1000
0000
0000
0100
1000
0000
0020
0000
,
0000
0000
0130
0000
0002
0000
0000
0000
1003
0000
0100
1000
0001
0000
0001
0000
,
0100
0000
0000
0000
0001
0000
0000
0000
0100
0000
0001
1000
0100
0000
0020
0000
,
0000
0000
0130
0000
2000
0000
0000
0000
3001
0000
1000
0010
0100
0000
0100
0000
,
0010
0000
0100
0000
0001
0000
1000
0000
0100
0000
1000
0001
0100
0000
0200
0000
,
0000
0000
0310
0000
0020
0000
0000
0000
1030
0000
0001
0010
0100
0000
0100
0000
,
0010
0100
1000
0000
0001
0100
0010
0000
0100
0000
0010
1000
0001
0000
0020
0000
,
0000
0000
0130
0000
0200
0000
0000
0000
1300
0000
0001
0100
0010
0000
0000
0000
,
1001
0000
0000
0000
1000
0000
0100
0010
0001
0000
0000
0001
0000
0100
0010
0000
,
0000
0100
0001
0000
1000
0000
0100
0010
0001
0000
1000
0010
0100
0000
0001
0000
,
1001
0000
0000
0000
1000
0000
0001
0010
0100
0000
0000
0100
0000
0010
0001
0000
,
0000
1000
0001
0000
0100
0000
0010
1000
0100
0000
0010
0100
1000
0000
0001
0000
,
0101
0000
0000
0000
0100
0000
0001
0010
0100
0000
0000
0100
0000
1000
0001
0000
,
0000
0100
0010
0000
0100
0000
0001
1000
0100
0000
1000
0010
0100
0000
0010
0000
,
0110
0000
0000
0000
0100
0000
0001
1000
0100
0000
0000
0100
0000
1000
0020
0000
,
0000
0130
0001
1000
0001
0000
0010
0100
1000
0000
0001
1000
0010
0000
0100
0000
,
0101
0000
0001
0000
1000
0000
0100
0010
0100
0000
1000
0010
0100
0001
2100
0000
,
0000
0000
3010
0100
0001
1000
0001
0010
0100
0000
1000
0000
2100
0000
0000
3000
,
0101
0000
0100
0010
1000
0000
0001
0010
0200
0000
0000
1300
0001
0100
0012
0000
,
0000
0000
0103
0000
0010
0100
0001
1000
0100
0000
0100
0020
0000
0000
0031
0000
,
1001
0000
1000
0010
0100
0000
0010
0100
0001
0000
0010
0100
1000
0000
0102
0000
,
0000
0000
0013
0100
1000
0000
0001
0100
0001
0000
0010
0000
0100
1000
0001
0000
,
0201
0000
0000
0320
0000
0000
0230
0000
0301
0000
1000
0100
0010
0000
0102
0000
,
1003
0001
1000
0000
0001
0100
0010
1000
0100
0000
0100
1000
00M1
0000
0000
0000
,
0100
0000
0100
0000
0010
0000
1000
0001
1000
0010
0100
0001
1000
0000
0001
0000
,
0010
0001
1000
0001
0100
0010
1000
0100
0010
0001
1000
0001
0100
0000
0010
0000
,
1000
0000
1000
0100
0010
0001
1000
0010
0100
0010
1000
0001
0010
0000
0100
0000
,
1000
0000
1000
0001
0100
0001
1000
0100
0010
0100
1000
0001
0100
0000
0010
0000
,
0100
0000
0100
0000
0001
1000
0100
0010
0001
1000
0010
1000
0001
0000
0001
0000
,
0010
0100
0010
0001
0100
0010
1000
0001
0100
0001
1000
0100
0010
0000
0001
0000
,
1000
0000
1000
0001
0100
0010
1000
0001
0010
0100
0010
0001
1000
0000
0010
0000
,
0100
0000
0100
0010
1000
0001
0010
0100
1000
0001
0200
0000
0000
0000
0000
0300
,
1002
0000
0000
0000
0010
0000
0000
0203
,
0000
0000
0000
0000
0310
1000
0001
1000
0100
0000
0000
0000
0010
0000
0100
0000
,
2000
0000
3001
1000
0020
0000
0130
0002
,
0000
0000
0000
0000
1003
0000
0100
0000
0010
0000
0200
0000
0000
0000
0000
0300
,
0120
0000
0000
0000
0032
0000
0000
0203
,
0000
0000
0320
0000
,
2030
0000
0000
0000
0000
0000
0000
0000
3002
0000
0000
0000
0000
0003
2001
0000
,
0000
0000
0000
0000
0000
0000
0000
0000
0000
0000
0000
0000
3100
0010
0001
1000
,
1001
0000
0000
1010
0000
0000
0101
0000
0001
0010
0100
1000
0001
0100
0022
0000
,
0033
0000
1000
0001
4000
3000
0400
0310
0001
0000
1000
0010
0100
0000
0001
0000
,
0101
0000
0000
0000
0000
0000
0000
0000
0000
1001
0000
0000
0000
0000
0000
0000
0000
0000
1100
0000
0000
0000
0000
0000
0001
0000
0000
0100
0000
0000
0010
0000
1000
0000
0010
0000
1000
0000
0000
0001
0000
0000
2200
0000
0000
0000
0000
0000
,
3300
0001
1000
0001
0040
0030
0040
0030
0100
0000
1000
0001
0100
0000
0010
0000
,
0110
0000
0000
0101
0000
0000
20M2
0000
0000
0000
30M3
0000
0000
0000
2100
0000
,
0000
3001
0010
0001
4000
3000
0040
0130
0001
0000
0010
0100
1000
0000
0001
0000
,
0011
0000
0000
0000
0000
0000
0000
0000
0000
1100
0000
0000
0000
0000
0000
0000
0000
0000
1001
0000
0000
0000
0000
0000
0001
0000
0000
0100
0000
0000
0010
0000
1000
0000
0010
0000
1000
0000
0000
0001
0000
0000
2200
0000
0000
0000
0000
0000
,
3300
0000
0010
0100
0040
0030
4000
3001
0020
0000
0130
1000
0001
0000
0100
0000
,
0101
0000
0000
1001
0000
0000
1100
0000
0100
0010
0000
0100
1000
0001
2020
0000
,
3030
0000
0100
0010
0004
0003
4000
3010
0200
0000
0301
1000
0010
0000
0100
0000
,
0101
0000
0000
0001
1000
0000
0100
0000
0010
0100
1000
0001
0000
0100
0022
0000
,
0033
0000
1000
0010
4000
3000
0004
0013
0100
0000
1000
0010
0100
0000
0010
0000
,
2010
0000
0000
0001
0000
0000
3100
0000
M210
0000
0000
0000
030M
0000
2100
0000
,
0000
0000
3001
0100
0004
0003
4000
3100
0010
0000
0001
1000
0010
0100
0001
0000
,
0101
0000
0000
1100
0000
0000
0110
0000
0001
0000
0010
0100
0000
0010
0202
0000
,
0303
0000
0000
0000
0000
0000
1000
0000
0000
0010
0000
0000
0400
0000
0000
0304
0000
0000
4003
0000
0000
3100
0000
0000
0020
0000
0000
0000
0000
0000
0000
0000
0000
0000
0000
0000
0130
0000
1000
0000
0001
0000
1000
0000
0010
0000
0100
0000
,
0002
0000
0000
0000
0000
0000
0000
0000
1003
0100
0010
0001
0100
0001
2000
0000
,
0000
0000
3010
1000
0200
0000
1300
0001
1000
0010
0100
0001
1000
0100
1000
0001
,
0100
0010
0100
0001
1000
0100
1000
0001
0020
0000
0000
0000
0031
1000
0200
0000
,
0000
0000
0310
0001
1000
0000
1000
0000
0001
0100
0001
1000
0100
1000
0010
0100
,
0002
0000
0000
0000
0103
0010
1000
0100
0010
0001
1000
0100
0020
0000
0000
0000
,
0130
1000
0020
0000
0000
0000
0130
0001
1000
0001
0100
0010
0100
0001
1000
0100
,
0020
0000
0130
1000
0002
0000
0103
0010
1000
0100
0010
0100
1000
0001
0200
0000
,
0000
0301
1000
0001
0020
0000
0130
1000
0001
0100
0010
0100
0001
0000
1000
0100
,
0020
0000
0000
0100
0000
0000
0100
0000
0031
1000
0100
0010
1000
0010
0002
0000
,
0000
0000
0103
0001
0020
0000
0130
1000
0001
1000
0001
0100
0010
0100
0001
1000
,
0200
0000
0000
0000
1300
0001
0200
0000
0000
0000
0310
0100
0001
1000
0200
0000
,
0000
1300
0010
1000
0001
0010
0100
1000
0100
1000
0001
0100
0010
0100
0001
1000
,
0200
0000
1300
0200
0000
0310
1000
0020
0000
0000
0031
1000
0001
0100
2000
0000
,
0000
0000
3100
0010
1000
0001
1000
0100
0020
0000
1030
0010
0100
1000
0001
1000
,
0020
0000
0130
0002
0000
1003
0010
0200
0000
0000
0301
1000
0100
1000
0001
0100
,
0001
0100
0010
1000
0001
1000
0100
1000
0010
0100
0001
0010
0100
0001
0100
1000
,
0002
0000
0000
0000
0010
0000
0000
0203
,
0000
0000
0000
0000
0000
0000
0000
0000
0310
0000
0000
1000
0010
0000
0100
0000
,
0002
0000
0013
0100
2000
0000
3010
2000
,
0000
0000
0000
0000
3001
0000
0100
0000
0010
0000
1000
0001
0000
0000
0001
0000
,
0020
0000
0000
0000
0100
0000
0000
0032
,
0000
0000
0000
0000
0000
0000
0000
0000
2003
0000
0000
0100
0000
0000
0100
0000
,
3001
0000
0100
0002
0000
0000
0013
0100
,
0000
0000
0000
M000
;

//---------------dance-single - Extra 16ths----------------
#NOTES:
     dance-single:
     Extra 16ths:
     Edit:
     11:
     0.808656,0.897084,0.323257,0.639331,0.930263,788.000000,743.000000,45.000000,89.000000,5.000000,0.000000,0.808656,0.897084,0.323257,0.639331,0.930263,788.000000,743.000000,45.000000,89.000000,5.000000,0.000000:
0000
0000
0000
0000
,
0000
0000
0000
0000
,
0000
0000
0000
0000
,
0000
0000
0000
0000
,
0000
0000
0000
0000
,
0000
0000
0000
0000
,
1000
0000
0000
0000
0001
0000
0000
0000
1000
0000
0000
0100
1000
0000
0020
0000
,
0000
0000
0130
0000
0002
0000
0000
0000
1003
0000
0100
1000
0001
0000
0001
0000
,
0100
0000
0000
0000
0001
0000
0000
0000
0100
0000
0001
1000
0100
0000
0020
0000
,
0000
0000
0130
0000
2000
0000
0000
0000
3001
0000
1000
0010
0100
0000
0100
0000
,
0010
0000
0100
0000
0001
0000
1000
0000
0100
0000
1000
0001
0100
0000
0200
0000
,
0000
0000
0310
0000
0020
0000
0000
0000
1030
0000
0001
0010
0100
0000
0100
0000
,
0010
0100
1000
0000
0001
0100
0010
0000
0100
0000
0010
1000
0001
0000
0020
0000
,
0000
0000
0130
0000
0200
0000
0000
0000
1300
0000
0001
0100
0010
0000
0000
0000
,
1001
0000
0000
0000
1000
0000
0100
0010
0001
0000
0000
0001
0000
0100
0010
0000
,
0000
0100
0001
0000
1000
0000
0100
0010
0001
0000
1000
0010
0100
0000
0001
0000
,
1001
0000
0000
0000
1000
0000
0001
0010
0100
0000
0000
0100
0000
0010
0001
0000
,
0000
1000
0001
0000
0100
0000
0010
1000
0100
0000
0010
0100
1000
0000
0001
0000
,
0101
0000
0000
0000
0100
0000
0001
0010
0100
0000
0000
0100
0000
1000
0001
0000
,
0000
0100
0010
0000
0100
0000
0001
1000
0100
0000
1000
0010
0100
0000
0010
0000
,
0110
0000
0000
0000
0100
0000
0001
1000
0100
0000
0000
0100
0000
1000
0020
0000
,
0000
0130
0001
1000
0001
0000
0010
0100
1000
0000
0001
1000
0010
0000
0100
0000
,
0101
0000
0001
0000
1000
0000
0100
0010
0100
0000
1000
0010
0100
0001
2100
0000
,
0000
0000
3010
0100
0001
1000
0001
0010
0100
0000
1000
0000
2100
0000
0000
3000
,
0101
0000
0100
0010
1000
0000
0001
0010
0200
0000
0000
1300
0001
0100
0012
0000
,
0000
0000
0103
0000
0010
0100
0001
1000
0100
0000
0100
0020
0000
0000
0031
0000
,
1001
0000
1000
0010
0100
0000
0010
0100
0001
0000
0010
0100
1000
0000
0102
0000
,
0000
0000
0013
0100
1000
0000
0001
0100
0001
0000
0010
0000
0100
1000
0001
0000
,
0201
0000
0000
0320
0000
0000
0230
0000
0301
0000
1000
0100
0010
0000
0102
0000
,
1003
0001
1000
0000
0001
0100
0010
1000
0100
0000
0100
1000
00M1
0000
0000
0000
,
0100
0000
0100
0000
0010
0000
1000
0001
1000
0010
0100
0001
1000
0000
0001
0000
,
0010
0001
1000
0001
0100
0010
1000
0100
0010
0001
1000
0001
0100
0000
0010
0000
,
1000
0000
1000
0100
0010
0001
1000
0010
0100
0010
1000
0001
0010
0000
0100
0000
,
1000
0000
1000
0001
0100
0001
1000
0100
0010
0100
1000
0001
0100
0000
0010
0000
,
0100
0000
0100
0000
0001
1000
0100
0010
0001
1000
0010
1000
0001
0000
0001
0000
,
0010
0100
0010
0001
0100
0010
1000
0001
0100
0001
1000
0100
0010
0000
0001
0000
,
1000
0000
1000
0001
0100
0010
1000
0001
0010
0100
0010
0001
1000
0000
0010
0000
,
0100
0000
0100
0010
1000
0001
0010
0100
1000
0001
0200
0000
0000
0000
0000
0300
,
1002
0000
0000
0000
0000
0000
0000
0000
0103
0000
0010
0000
1000
0000
0100
0010
,
0001
1000
0010
0100
0001
1000
0100
1000
0001
0000
0000
0000
0010
0000
0100
0000
,
2000
0000
3001
1000
0020
0000
0130
0002
,
0000
0000
0000
0000
1003
0000
0100
0000
0010
0000
0200
0000
0000
0000
0000
0300
,
0120
0000
0000
0000
0032
0000
0000
0203
,
0000
0000
0320
0000
,
2030
0000
0000
0000
0000
0000
0000
0000
3002
0000
0000
0000
0000
0003
2001
0000
,
0000
0000
0000
0000
0000
0000
0000
0000
0000
0000
0000
0000
3100
0010
0001
1000
,
1001
0000
0000
1010
0000
0000
0101
0000
0001
0010
0100
1000
0001
0100
0022
0000
,
0033
0000
1000
0001
4000
3000
0400
0310
0001
0000
1000
0010
0100
0000
0001
0000
,
0101
0000
0000
0000
0000
0000
0000
0000
0000
1001
0000
0000
0000
0000
0000
0000
0000
0000
1100
0000
0000
0000
0000
0000
0001
0000
0000
0100
0000
0000
0010
0000
1000
0000
0010
0000
1000
0000
0000
0001
0000
0000
2200
0000
0000
0000
0000
0000
,
3300
0001
1000
0001
0040
0030
0040
0030
0100
0000
1000
0001
0100
0000
0010
0000
,
0110
0000
0000
0101
0000
0000
20M2
0000
0000
0000
30M3
0000
0000
0000
2100
0000
,
0000
3001
0010
0001
4000
3000
0040
0130
0001
0000
0010
0100
1000
0000
0001
0000
,
0011
0000
0000
0000
0000
0000
0000
0000
0000
1100
0000
0000
0000
0000
0000
0000
0000
0000
1001
0000
0000
0000
0000
0000
0001
0000
0000
0100
0000
0000
0010
0000
1000
0000
0010
0000
1000
0000
0000
0001
0000
0000
2200
0000
0000
0000
0000
0000
,
3300
0000
0010
0100
0040
0030
4000
3001
0020
0000
0130
1000
0001
0000
0100
0000
,
0101
0000
0000
1001
0000
0000
1100
0000
0100
0010
0000
0100
1000
0001
2020
0000
,
3030
0000
0100
0010
0004
0003
4000
3010
0200
0000
0301
1000
0010
0000
0100
0000
,
0101
0000
0000
0001
1000
0000
0100
0000
0010
0100
1000
0001
0000
0100
0022
0000
,
0033
0000
1000
0010
4000
3000
0004
0013
0100
0000
1000
0010
0100
0000
0010
0000
,
2010
0000
0000
0001
0000
0000
3100
0000
M210
0000
0000
0000
030M
0000
2100
0000
,
0000
0000
3001
0100
0004
0003
4000
3100
0010
0000
0001
1000
0010
0100
0001
0000
,
0101
0000
0000
1100
0000
0000
0110
0000
0001
0000
0010
0100
0000
0010
0202
0000
,
0303
0000
0000
0000
0000
0000
1000
0000
0000
0010
0000
0000
0400
0000
0000
0304
0000
0000
4003
0000
0000
3100
0000
0000
0020
0000
0000
0000
0000
0000
0000
0000
0000
0000
0000
0000
0130
0000
1000
0000
0001
0000
1000
0000
0010
0000
0100
0000
,
0002
0000
0000
0000
0000
0000
0000
0000
1003
0100
0010
0001
0100
0001
2000
0000
,
0000
0000
3010
1000
0200
0000
1300
0001
1000
0010
0100
0001
1000
0100
1000
0001
,
0100
0010
0100
0001
1000
0100
1000
0001
0020
0000
0000
0000
0031
1000
0200
0000
,
0000
0000
0310
0001
1000
0000
1000
0000
0001
0100
0001
1000
0100
1000
0010
0100
,
0002
0000
0000
0000
0103
0010
1000
0100
0010
0001
1000
0100
0020
0000
0000
0000
,
0130
1000
0020
0000
0000
0000
0130
0001
1000
0001
0100
0010
0100
0001
1000
0100
,
0020
0000
0130
1000
0002
0000
0103
0010
1000
0100
0010
0100
1000
0001
0200
0000
,
0000
0301
1000
0001
0020
0000
0130
1000
0001
0100
0010
0100
0001
0000
1000
0100
,
0020
0000
0000
0100
0000
0000
0100
0000
0031
1000
0100
0010
1000
0010
0002
0000
,
0000
0000
0103
0001
0020
0000
0130
1000
0001
1000
0001
0100
0010
0100
0001
1000
,
0200
0000
0000
0000
1300
0001
0200
0000
0000
0000
0310
0100
0001
1000
0200
0000
,
0000
1300
0010
1000
0001
0010
0100
1000
0100
1000
0001
0100
0010
0100
0001
1000
,
0200
0000
1300
0200
0000
0310
1000
0020
0000
0000
0031
1000
0001
0100
2000
0000
,
0000
0000
3100
0010
1000
0001
1000
0100
0020
0000
1030
0010
0100
1000
0001
1000
,
0020
0000
0130
0002
0000
1003
0010
0200
0000
0000
0301
1000
0100
1000
0001
0100
,
0001
0100
0010
1000
0001
1000
0100
1000
0010
0100
0001
0010
0100
0001
0100
1000
,
0002
0000
0000
0000
0010
0000
0000
0203
,
0000
0000
0000
0000
0000
0000
0000
0000
0310
0000
0000
1000
0010
0000
0100
0000
,
0002
0000
0013
0100
2000
0000
3010
2000
,
0000
0000
0000
0000
3001
0000
0100
0000
0010
0000
1000
0001
0000
0000
0001
0000
,
0020
0000
0000
0000
0100
0000
0000
0032
,
0000
0000
0000
0000
0000
0000
0000
0000
2003
0000
0000
0100
0000
0000
0100
0000
,
3001
0000
0000
0000
0100
0000
0002
0000
0000
0000
0000
0000
0013
0000
0100
1000
,
0001
0100
0010
1000
0001
1000
0100
0010
0001
1000
0010
0100
0001
0010
0200
0000
,
0000
0300
0000
0000
0000
0000
0000
0000
;

//---------------dance-single - Benpai----------------
#NOTES:
     dance-single:
     Benpai SH:
     Hard:
     8:
     0.500792,0.580920,0.129303,0.495661,0.186771,488.000000,470.000000,18.000000,69.000000,2.000000,0.000000,0.500792,0.580920,0.129303,0.495661,0.186771,488.000000,470.000000,18.000000,69.000000,2.000000,0.000000:
0000
0000
0000
0000
,
0000
0000
0000
0000
,
0000
0000
0000
0000
,
0000
0000
0000
0000
,
0000
0000
0000
0000
,
0000
0000
0000
0000
,
0001
0000
0000
0000
1000
0000
0000
0000
0100
0000
0000
0100
0000
0000
0020
0000
,
0000
0000
0031
0000
2000
0000
0000
0000
3010
0000
0000
0100
0000
0000
0100
0000
,
0001
0000
1000
0000
0100
0010
0001
0200
,
0000
0000
0301
0000
2000
0000
0000
0000
3001
0000
0000
0010
0000
0000
0010
0000
,
0001
0000
1000
0000
0001
0000
0100
0000
0010
0000
0000
0010
0000
0000
2000
0000
,
0000
0000
3001
0000
0001
0000
0000
0000
0010
0000
0000
0010
0000
0000
0100
0000
,
1000
0001
1000
0000
0010
0100
0001
0200
,
0000
0310
1000
0000
0001
0010
0100
0000
,
1100
0000
0000
0000
1000
0000
0001
0000
0100
0000
0000
0010
0000
1000
0001
0000
,
0000
1000
0001
0000
1000
0000
0100
0000
0010
0000
0100
0000
1000
0000
0001
0000
,
0100
0000
0000
0000
0010
0000
0100
0000
0001
0000
0000
1000
0000
0001
0010
0000
,
0000
0001
0010
0000
0001
0000
1000
0000
0010
0000
0100
0000
0001
0000
0010
0000
,
0100
0000
0000
0000
0010
0000
0001
0000
1000
0000
0000
0010
0000
0100
0001
0000
,
0000
0100
0001
0000
1000
0000
0100
0000
0010
0000
0001
0000
1000
0000
0010
0000
,
0100
0000
0000
0000
0010
0000
1000
0000
0001
0000
0000
0100
0000
0001
0020
0000
,
0000
0031
0000
0000
1000
0000
0010
0000
0100
0000
0001
0000
1000
0000
0001
0000
,
1001
1000
0100
0010
0100
1000
0001
0101
,
0000
0100
0010
0100
0001
1000
1100
0000
,
1001
0000
0001
0000
0100
0000
0010
0000
1000
0000
0000
0100
0000
0000
0110
0000
,
0000
0000
0010
0000
0001
0000
1000
0000
0010
0000
0000
0100
0000
0000
0001
0000
,
1001
0000
1000
0000
0100
0000
1000
0001
0100
0000
0000
0010
0000
0000
1010
0000
,
0000
1000
0001
0010
0100
0010
0001
0100
,
0020
0000
0000
0230
0000
0000
0302
0000
2003
0000
0000
3200
0000
0000
2300
0000
,
3010
0100
0001
1000
0100
0000
0000
0000
,
1000
0000
0001
0000
0100
0010
0100
0000
,
0001
0000
0010
0000
0100
1000
0001
0000
,
0100
0000
0010
0000
1000
0001
1000
0000
,
0100
0000
0010
0000
0001
0100
0010
0000
,
0100
0000
0001
0000
1000
0100
1000
0000
,
0001
0000
0100
0000
0010
1000
0001
0000
,
0010
0000
0100
0000
1000
0001
1000
0000
,
0010
0000
0000
0000
0100
0000
0000
0000
0001
0000
2000
0000
0000
0000
0000
3000
,
1002
0000
0000
0000
0010
0000
0000
0203
,
0000
0000
0310
1000
0001
0000
0010
0100
,
2000
0000
3001
1000
0020
0000
0130
0002
,
0000
0000
0000
0000
1003
0000
0100
0000
0010
0000
0200
0000
0000
0000
0000
0300
,
0120
0000
0000
0000
0032
0000
0000
0203
,
0000
0000
0320
0000
,
2030
0000
0000
0000
0000
0000
0000
0000
3002
0000
0000
0000
0000
0003
2001
0000
,
0000
0000
0000
0000
0000
0000
0000
0000
0000
0000
0000
0000
3100
0000
0010
0001
,
1000
0000
0000
1000
0000
0000
1000
0000
0010
0000
0100
0000
0001
0000
0022
0000
,
0033
1000
0001
0100
0100
0010
1000
0001
,
0010
0000
0000
0010
0000
0000
0010
0000
0200
0000
0000
0000
0300
0000
1002
0000
,
0000
0103
0010
0010
1000
0100
0010
0100
,
1000
0000
0000
1000
0000
0000
2000
0000
0000
0000
30M0
0000
0000
0000
0002
0000
,
0000
1003
0100
0100
0010
0001
1000
0001
,
0100
0000
0000
0100
0000
0000
0100
0000
0010
0000
0000
1000
0000
0000
2200
0000
,
3300
0000
0001
0000
0100
0000
0100
0000
0010
0000
0000
1000
0000
0000
0001
0000
,
0011
0000
0000
0010
0000
0000
0010
0000
0100
1000
0000
0001
0100
0000
0220
0000
,
0330
0010
1000
1000
0001
1000
0100
0010
,
0001
0000
0000
0001
1000
0000
0001
0000
0100
0000
0000
0010
0000
0000
2020
0000
,
3030
1000
0001
0001
0010
0100
0010
0001
,
1000
0000
0000
1000
0000
0000
1000
0000
0020
0000
0000
0000
003M
0000
0220
0000
,
0330
0000
1000
0000
0001
0000
0010
0100
0010
0000
0001
0000
1000
0000
0010
0000
,
0100
0000
0000
0100
0000
0000
0100
0000
0001
0000
1000
0001
0000
0000
0020
0000
,
0000
0130
0010
0001
2000
0000
3400
0000
,
0320
0000
0000
0000
0031
1000
0010
0200
,
0000
0000
0301
0000
0020
0000
0000
0130
1000
0000
0001
0000
1000
0000
0010
0000
,
0100
0000
0001
1000
0100
0000
0010
0100
2000
0000
0000
0000
3001
0000
0200
0000
,
0000
0310
1000
0001
0010
0100
0010
0001
,
0200
0000
0310
1000
0001
1000
0200
0000
,
0310
0000
0002
0000
0000
0000
1003
0000
0010
0000
0100
0010
0000
0000
1000
0000
,
0100
0010
0001
0100
0010
0100
0001
2000
,
0000
0000
3100
0010
0100
0000
1000
0001
1000
0000
0010
0000
0100
0000
0001
0000
,
0010
0000
0000
0010
0000
0000
0010
0000
0100
0000
1000
0000
0010
0000
0200
0000
,
0000
0301
1000
0001
0010
0100
0010
0001
,
2000
0000
3001
0200
0000
0310
1000
0200
,
0000
0310
0001
0000
1000
0000
0010
0000
0100
0000
0001
0000
0010
0000
0001
0000
,
1000
0000
0000
1000
0000
0000
1000
0020
0000
0000
0130
0000
0001
0000
0020
0000
,
0000
0130
0010
0001
1000
0010
0100
0001
,
1000
0100
1000
0010
0200
0000
0301
1000
,
0001
0010
0100
0010
0001
0100
0010
1000
,
0002
0000
0000
0000
0010
0000
0000
2003
,
0000
0000
0000
0000
0000
0000
0000
0000
3010
0000
0000
0100
0001
0000
2000
0000
,
0000
0000
3100
0020
0000
0000
0130
0020
,
0000
0000
0000
0000
0031
0000
1000
0000
0010
0000
1000
0001
0000
0000
0001
0000
,
0020
0000
0000
0000
0100
0000
0000
0032
,
0000
0000
0000
0000
0000
0000
0000
0000
1003
0000
0000
0010
0000
0000
0010
0000
,
0100
0000
0001
2000
0000
0000
3100
0020
,
0000
0030
0000
0000
0000
0000
0000
0000
;

//---------------dance-single - Benpai----------------
#NOTES:
     dance-single:
     Benpai SN:
     Beginner:
     1:
     0.090307,0.152425,0.028734,0.014367,0.000000,88.000000,84.000000,4.000000,2.000000,1.000000,0.000000,0.090307,0.152425,0.028734,0.014367,0.000000,88.000000,84.000000,4.000000,2.000000,1.000000,0.000000:
0000
0000
0000
0000
,
0000
0000
0000
0000
,
0000
0000
0000
0000
,
0000
0000
0000
0000
,
0000
0000
0000
0000
,
0000
0000
0000
0000
,
0001
0000
0000
0000
,
0010
0000
0000
0000
,
0100
0000
0000
0000
,
1000
0000
0000
0000
,
0001
0000
0001
0000
,
1000
0000
1000
0000
,
0010
0000
0000
0000
,
0010
0000
0000
0000
,
0100
0000
0000
0000
0000
0000
0000
0100
,
0000
0000
0000
0000
,
0001
0000
0000
0000
0000
0000
0000
0001
,
0000
0000
0000
0000
,
0010
0000
0000
0000
0000
0000
0000
0010
,
0000
0000
0000
0000
,
0100
0000
0000
0000
0000
0000
0000
0100
,
0000
0000
0000
0000
,
1001
0000
0000
0000
0000
0000
0000
1000
,
0000
0000
0000
0000
,
0100
0000
0000
0000
0000
0000
0000
0100
,
0000
0000
0000
0000
,
0010
0000
0000
0000
0000
0000
0000
0010
,
0000
0000
0000
0000
,
0001
0000
0000
0000
,
0001
0000
0000
0000
,
0100
0000
0000
0000
0000
0000
0000
0001
,
0000
0000
0000
0000
,
1000
0000
0000
0000
0000
0000
0000
0100
,
0000
0000
0000
0000
,
1000
0000
0000
0000
0000
0000
0000
0001
,
0000
0000
0000
0000
,
0100
0000
0000
0000
0000
0000
0000
0010
,
0000
0000
0000
0000
,
0110
0000
0000
0000
0000
0000
0000
0100
,
0000
0000
0000
0000
,
0001
0000
0000
0000
0000
0000
0000
1000
,
0000
0000
0000
0000
,
0010
0000
0000
0000
0000
0000
0000
1000
,
0000
0000
0000
0000
,
0100
0000
0000
0000
0000
0000
0000
1001
,
0000
0000
0000
0000
,
1001
0000
0000
0000
0000
0000
0000
1000
,
0000
0000
0000
0000
,
0010
0000
0000
0000
0000
0000
0000
0100
,
0000
0000
0000
0000
,
0001
0000
0000
0000
0000
00M0
0000
1000
,
0000
0000
0000
0000
,
0100
0000
0000
0000
0000
0000
0000
1000
,
0000
0000
0000
0000
,
0001
0000
0000
0000
0000
0000
0000
0100
,
0000
0000
0000
0000
,
0010
0000
0000
0000
0000
0000
0000
1000
,
0000
0000
0000
0000
,
0001
0000
0000
0000
1000
0000
0000
1000
,
0000
0000
0000
0000
,
0100
0000
0000
0000
0000
0000
0000
0010
,
0000
0000
0000
0000
0002
0003
0000
0000
,
0010
0000
0000
0000
0000
0000
0000
0100
,
0000
0000
0000
0000
,
1000
0000
0000
0000
0000
0000
0000
0001
,
0000
0000
0000
0000
,
0100
0000
0000
0000
0000
0000
0000
0010
,
0000
0000
0000
0000
,
0100
0000
0000
0000
0000
0000
0000
0001
,
0000
0000
0000
0000
,
0010
0000
0000
0000
0000
0000
0000
0100
,
0000
0000
0000
0000
,
1000
0000
0000
0000
0000
0000
0000
0001
,
0000
0000
0000
0000
,
0100
0000
0000
0000
0000
0000
0000
0010
,
0000
0000
0000
0000
,
0100
0000
0000
0000
0000
0000
0000
0001
,
0000
0000
0010
0000
,
0100
0000
0000
0000
0000
0000
0000
1000
,
0000
0000
0000
0000
,
0001
0000
0000
0000
0000
0000
0000
1000
,
0000
0000
0000
0000
,
0010
0000
0000
0000
0000
0000
0000
0100
,
0000
0000
0000
0000
,
0002
0000
0000
0000
0000
0000
0000
0003
;

//---------------dance-single - Benpai----------------
#NOTES:
     dance-single:
     Benpai SE:
     Easy:
     4:
     0.231924,0.271536,0.122119,0.064651,0.000000,226.000000,209.000000,17.000000,9.000000,1.000000,0.000000,0.231924,0.271536,0.122119,0.064651,0.000000,226.000000,209.000000,17.000000,9.000000,1.000000,0.000000:
0000
0000
0000
0000
,
0000
0000
0000
0000
,
0000
0000
0000
0000
,
0000
0000
0000
0000
,
0000
0000
0000
0000
,
0000
0000
0000
0000
,
0001
0000
0000
0000
1000
0000
0000
0020
,
0000
0130
0001
0001
,
1000
0000
0000
0000
0100
0000
0000
0020
,
0000
0130
1000
1000
,
0001
0000
0000
0000
0001
0000
0000
0100
,
0000
0100
0010
0000
,
1000
0000
0000
0000
0001
0000
0000
1000
,
0000
0000
0000
0010
,
0010
0000
0000
0000
0100
0000
0000
0001
,
0000
0001
0010
0000
,
0100
0000
0000
0000
1000
0000
0000
0001
,
0000
0001
0100
0000
,
0010
0000
0000
0000
1000
0000
0000
0001
,
0000
0001
0010
0000
,
0100
0000
0000
0000
1000
0000
0000
0010
,
0000
0010
0100
0000
,
1001
0000
0000
0000
0001
0000
0000
0101
,
0000
0000
0100
0000
,
0110
0000
0000
0000
1000
0000
0000
1001
,
0000
0000
0001
0000
,
0011
0000
0000
0000
0100
0000
0000
1100
,
0000
0000
1000
0000
,
1001
0000
0000
0000
0001
0000
0000
0011
,
0000
0000
0020
0000
,
0130
0000
0000
0000
1000
0000
0000
0001
,
0000
0000
0100
0000
,
0010
0000
0000
0000
0100
0000
0000
0001
,
0000
0000
1000
0000
,
0100
0000
0000
0000
1000
0000
0000
0001
,
0000
0000
0100
0000
,
0010
0000
0000
0000
0100
0000
0000
0001
,
0000
0000
0010
0000
,
0110
0000
0000
0000
0100
0000
0000
1000
,
0000
0000
0001
0100
,
0010
0000
0000
0000
1000
0000
0000
0010
,
0000
0100
0001
0000
,
0020
0000
0000
0000
0130
0000
0000
1000
,
0000
0001
0100
0000
,
0020
0000
0000
0000
1030
0000
0000
1001
,
0000
0000
0000
0001
,
0010
0000
0000
0000
0100
0000
1000
0001
,
0000
0001
0100
0010
,
1000
0000
0000
0000
0100
0000
0000
1100
,
0000
1000
0001
0100
,
0010
0000
0000
1000
0000
000M
0000
1000
,
0000
0100
0010
0100
,
1000
0000
0000
0000
0001
0000
0000
0101
,
0000
0100
0010
1000
,
0001
0000
0000
0000
0020
0000
0030
0110
,
0000
0100
1000
0001
,
0100
0000
0000
0000
0010
0000
0000
1010
,
0000
1000
0001
0010
,
0001
0000
0000
0000
0100
0000
0000
0101
,
0000
0001
1000
0000
,
0100
0000
0000
0000
0010
0000
0000
0011
,
0000
0001
2000
3000
,
1020
0000
0000
0000
0130
0000
0001
1000
,
0000
0100
1000
0001
,
0100
0000
0010
0000
0100
0000
0000
0001
,
0000
1000
0100
1000
,
0001
0000
0000
0000
0100
0000
0000
0010
,
0000
0100
0001
1000
,
0100
0000
1000
0000
0010
0000
0100
0001
,
0000
0001
0010
0100
,
0200
0000
0000
0000
1300
0000
0000
0001
,
0000
0001
0100
0010
,
1000
0000
0000
0000
0001
0000
0000
0100
,
0000
0100
0010
1000
,
0100
0000
0000
0000
1000
0000
0000
0010
,
0000
0100
0001
0010
,
0100
0000
0000
0000
0010
0000
0000
0001
,
0000
1000
0010
0100
,
0001
0000
0000
0000
1000
0000
0000
0100
,
0000
0100
0010
0100
,
1000
0000
0000
0000
0001
0000
0000
0100
,
0000
0010
1000
0001
,
0001
0000
0000
0000
1000
0000
0000
0100
,
0000
0000
0010
0001
,
0100
0000
0000
0000
;

//---------------dance-single - Benpai----------------
#NOTES:
     dance-single:
     Benpai SM:
     Medium:
     6:
     0.375594,0.428047,0.021550,0.337624,0.003592,366.000000,363.000000,3.000000,47.000000,2.000000,0.000000,0.375594,0.428047,0.021550,0.337624,0.003592,366.000000,363.000000,3.000000,47.000000,2.000000,0.000000:
// measure 0
0000
0000
0000
0000
,  // measure 1
0000
0000
0000
0000
,  // measure 2
0000
0000
0000
0000
,  // measure 3
0000
0000
0000
0000
,  // measure 4
0000
0000
0000
0000
,  // measure 5
0000
0000
0000
0000
,  // measure 6
0001
1000
0100
1000
,  // measure 7
0010
0100
0001
1000
,  // measure 8
0100
1000
0001
0100
,  // measure 9
0010
1000
0001
1000
,  // measure 10
0100
1000
0001
0000
0100
0010
1000
0010
,  // measure 11
0000
0100
0001
0000
1000
0100
1000
0000
,  // measure 12
0001
0100
0001
0000
1000
0010
1000
0100
,  // measure 13
0000
0010
0100
0000
1000
0001
0100
0000
,  // measure 14
0010
0000
0010
0100
0001
0000
0000
1000
,  // measure 15
0000
1000
0001
0000
0010
0000
0100
1000
,  // measure 16
0001
0000
0001
0100
0010
0000
0000
1000
,  // measure 17
0000
1000
0100
0000
0010
0000
0001
1000
,  // measure 18
0010
0000
0010
0100
0001
0000
0000
1000
,  // measure 19
0000
1000
0100
0000
0010
0000
0100
1000
,  // measure 20
0010
0000
0010
0100
0001
0000
0000
0010
,  // measure 21
0000
0010
0100
0000
1000
0000
0001
0000
,  // measure 22
0101
0000
0100
0010
0100
0000
0001
1000
,  // measure 23
0000
0100
0010
0100
1000
0000
0001
0000
,  // measure 24
0100
0000
0010
0100
0001
0000
0000
1000
,  // measure 25
0000
0100
1000
0010
0100
0000
0001
0000
,  // measure 26
1000
0000
0001
1000
0100
0000
0000
0010
,  // measure 27
0000
0100
1000
0001
0100
0000
0001
0000
,  // measure 28
1000
0000
0100
0000
0010
0000
0000
0100
,  // measure 29
1000
0000
0001
0100
0010
0000
0000
0000
,  // measure 30
1000
0000
0001
0000
0010
0100
0010
0000
,  // measure 31
0001
0000
1000
0000
0010
0100
0001
0000
,  // measure 32
1000
0000
0100
0000
1000
0001
0100
0000
,  // measure 33
0010
0000
0100
0000
0001
1000
0100
0000
,  // measure 34
1000
0000
0001
0000
0100
0010
1000
0000
,  // measure 35
0001
0000
0010
0000
0100
1000
0001
0000
,  // measure 36
0100
0000
0010
0000
1000
0001
0010
0000
,  // measure 37
0001
0000
1000
0000
0010
0100
0000
0000
,  // measure 38
0002
0000
0000
0000
0010
0000
0000
2003
,  // measure 39
0000
0000
3010
0000
0100
0000
0001
0020
,  // measure 40
0000
0000
0130
2000
0000
0000
3010
0200
,  // measure 41
0000
0000
0301
2000
0000
3200
0000
0000
,  // measure 42
0320
0000
0000
0000
0032
0000
0000
0203
,  // measure 43
0000
0000
0320
0000
,  // measure 44
2030
0000
0000
0000
0000
0000
0000
0000
3002
0000
0000
0000
0000
0003
2001
0000
,  // measure 45
0000
0000
0000
0000
0000
0000
3100
0010
,  // measure 46
0001
0000
0000
0001
0200
0000
0000
0310
,  // measure 47
0000
0000
0100
0010
1000
0000
0100
1000
,  // measure 48
0001
0000
0000
0001
0100
0000
0000
0110
,  // measure 49
0000
0000
0010
0000
1000
0001
1000
0000
,  // measure 50
0100
0000
0000
0100
0000
00M0
0000
0010
,  // measure 51
0000
0000
0100
0000
1000
0001
0100
0001
,  // measure 52
1000
0000
0000
1000
0200
0000
0000
0310
,  // measure 53
0000
0000
0001
1000
0001
0000
0100
0000
,  // measure 54
0010
0000
0000
0010
0200
0000
0000
0301
,  // measure 55
0000
0000
1000
0001
0010
0000
0100
0010
,  // measure 56
0001
0000
0000
0001
2000
0000
0000
3100
,  // measure 57
0000
0000
0100
0010
0001
0000
1000
0010
,  // measure 58
0200
0000
0000
0301
2000
0000
00M0
3100
,  // measure 59
0000
0000
0100
0010
0001
0000
1000
0000
,  // measure 60
0010
0000
0000
0010
0200
0000
0000
0301
,  // measure 61
0000
0000
0001
0010
0200
0000
2300
0000
,  // measure 62
3020
0000
0000
0000
0130
0001
1000
0200
,  // measure 63
0000
0300
0020
0000
0031
1000
0001
0100
,  // measure 64
0010
0000
1000
0001
0020
0000
0130
2000
,  // measure 65
0000
3001
0100
0000
0001
0010
0100
1000
,  // measure 66
0002
0000
0103
0010
1000
0010
0200
0000
,  // measure 67
0300
0020
0000
1030
0001
0000
0010
0100
,  // measure 68
1000
0000
0010
0000
0100
0001
1000
0100
,  // measure 69
0000
0010
0001
1000
0010
0000
0100
0001
,  // measure 70
0020
0000
0000
0000
0130
1000
0010
0200
,  // measure 71
0000
0301
1000
0000
0100
0000
0010
0001
,  // measure 72
2000
0000
3001
0200
0000
0310
1000
0200
,  // measure 73
0000
1300
0001
0100
0010
1000
0001
1000
,  // measure 74
0100
0000
0000
0010
0100
0000
1000
0020
,  // measure 75
0000
0130
0001
1000
0100
0000
0010
0001
,  // measure 76
1000
0000
0010
0100
0002
0000
1003
0100
,  // measure 77
1000
0000
0010
0000
0100
0000
0001
1000
,  // measure 78
0002
0000
0000
0000
0010
0000
0000
2003
,  // measure 79
0000
0000
0000
0000
3010
0000
0100
0002
,  // measure 80
0000
0000
1003
0200
0000
0000
1300
0020
,  // measure 81
0000
0000
0130
0001
1000
0000
0100
1000
,  // measure 82
0002
0000
0000
0000
0100
0000
0003
0002
,  // measure 83
0000
0000
0000
0000
0000
0000
0000
0000
1003
0000
0000
0010
0000
0000
0010
0000
,  // measure 84
0100
0000
0001
2000
0000
0000
3100
0020
,  // measure 85
0000
0030
0000
0000
0000
0000
0000
0000
;
