#VERSION:0.83;
#TITLE:Like I Do;
#SUBTITLE:(Wave Remix);
#ARTIST:David Guetta, Martin Garrix & Brooks;
#TITLETRANSLIT:;
#SUBTITLETRANSLIT:;
#ARTISTTRANSLIT:;
#GENRE:;
#ORIGIN:;
#CREDIT:;
#BANNER:Like I Do-bn.png;
#BACKGROUND:Like I Do-bg-wide.png;
#PREVIEWVID:;
#JACKET:Like I Do-jacket.png;
#CDIMAGE:;
#DISCIMAGE:;
#LYRICSPATH:;
#CDTITLE:cd-title-Benpai.png;
#MUSIC:Like I Do.ogg;
#OFFSET:0.009000;
#SAMPLESTART:32.532879;
#SAMPLELENGTH:16.271187;
#SELECTABLE:YES;
#DISPLAYBPM:59.000000:118.000000;
#BPMS:0.000=118.000,
63.000=177.000,
64.000=118.000,
71.500=177.000,
71.750=88.500,
72.000=118.000,
87.500=177.000,
87.750=88.500,
88.000=118.000,
192.000=59.000,
194.000=118.000,
197.500=177.000,
197.750=88.500,
198.000=118.000,
213.500=177.000,
213.750=88.500,
214.000=118.000,
229.500=177.000,
229.750=88.500,
230.000=118.000,
245.500=177.000,
245.750=88.500,
246.000=118.000;
#STOPS:63.000=0.085,
63.500=0.084;
#DELAYS:;
#WARPS:;
#TIMESIGNATURES:0.000=4=4;
#TICKCOUNTS:0.000=4;
#COMBOS:0.000=1;
#SPEEDS:0.000=1.000=0.000=0;
#SCROLLS:0.000=1.000;
#FAKES:;
#LABELS:0.000=Song Start;
#BGCHANGES:;
#KEYSOUNDS:;
#ATTACKS:
;

//---------------dance-single - Benpai----------------
#NOTEDATA:;
#CHARTNAME:Benpai SX;
#STEPSTYPE:dance-single;
#DESCRIPTION:Benpai;
#CHARTSTYLE:;
#DIFFICULTY:Challenge;
#METER:10;
#RADARVALUES:0.699289,0.885593,0.007451,0.536441,1.061706,657.000000,656.000000,1.000000,72.000000,24.000000,0.000000,0.000000,0.000000,0.000000,0.699289,0.885593,0.007451,0.536441,1.061706,657.000000,656.000000,1.000000,72.000000,24.000000,0.000000,0.000000,0.000000,0.000000;
#CREDIT:Benpai;
#DISPLAYBPM:59.000000:118.000000;
#NOTES:
0000
0000
0000
0000
,
0000
0000
0000
0000
,
0000
0000
0000
0000
,
0000
0000
0000
0000
,
1000
0000
1000
0000
0010
0000
0100
0000
0002
0000
0000
0000
0013
0000
0100
1000
,
0001
0000
0000
0001
0000
0000
0001
0000
0100
0000
0001
0000
0010
0000
0100
0000
,
2000
0000
0000
0000
3002
0000
0000
0000
0023
0000
0000
0000
0230
0000
0000
1300
,
0001
0000
0000
0100
0000
0000
0000
0000
0000
0100
0000
0000
0020
0000
0000
0000
0000
0000
1030
0001
1000
0100
0000
0000
,
0010
0000
0010
0001
1000
0000
0001
0000
0100
0001
1000
0001
0020
0000
0130
1000
,
0001
0000
0000
1000
0001
0100
0010
0000
0200
0000
0302
0000
0023
0000
0230
0000
,
2300
0000
3001
1000
0100
0000
1000
0000
0020
0000
0130
0001
1000
0000
0100
1000
,
0001
0000
0000
1000
0001
0100
0020
0000
0230
0000
0000
0000
0302
0000
1003
0100
,
0010
0000
0000
0000
0000
0000
0100
0000
1000
0000
0000
0000
0001
0000
0000
0000
0000
0000
0100
0000
0010
0000
0000
0000
0100
0000
0000
0000
0001
0000
1000
0001
,
1000
0000
0000
0000
0001
0000
0010
0000
0000
0000
0000
0000
0100
0000
0000
0000
0000
0000
1000
0000
0001
0000
0000
0000
0100
0000
0000
0000
0010
0000
1000
0001
,
1000
0000
0100
0000
0010
0000
0100
0000
1000
0000
0001
0000
0100
0000
0010
1000
0010
0000
1000
0000
0001
0000
0010
0000
0100
0000
0010
0000
0001
0000
1000
0000
,
0010
0100
0010
0000
1000
0000
0001
0000
0010
0000
0100
0000
1000
0000
0010
0000
1000
0000
0001
0000
0100
0000
0001
0000
0010
0000
0000
0000
0100
0000
0000
0000
,
1000
0001
1000
0100
00M0
0100
0001
0000
0010
0001
1000
0100
00M0
0100
0001
1000
,
0100
1000
0001
0100
0020
0000
0000
0030
1000
0001
0010
0000
0010
0000
0200
0300
,
1000
0001
1000
0010
0M00
0010
0001
0000
0100
0001
1000
0010
0M00
0010
0001
1000
,
0010
0000
0010
0100
0001
0000
1000
0000
0200
0010
0000
0000
2300
0000
3001
0010
,
0100
1000
0001
0100
00M0
0100
1000
0000
0010
1000
0001
0100
00M0
0100
1000
0001
,
0010
0001
1000
0010
0200
0000
0000
0300
0001
1000
0100
0000
0100
0000
0020
0030
,
0001
1000
0001
0010
0M00
0010
1000
0000
0100
1000
0001
0010
0M00
0010
1000
0001
,
0100
0000
0020
0030
0100
0000
0002
0003
0010
0100
1000
0001
0200
0000
0310
1000
,
0001
0000
0000
0001
0000
0000
0001
0000
0000
1000
0000
0000
0100
0000
0000
1000
,
0001
0000
0000
0001
0000
0000
0001
0000
0000
0100
0000
0000
0010
0000
0000
1000
,
0100
0000
0000
0100
0000
0000
0100
0000
0000
1000
0000
0000
0001
0000
0000
0100
,
0010
0000
0000
0010
0000
0000
0010
0000
0000
1000
0000
0000
0001
0000
0000
0010
,
0100
0000
0000
0100
0000
0000
0100
0000
0000
1000
0000
0000
0010
0000
0000
1000
,
0001
0000
0000
0001
0000
0000
0001
0000
0000
1000
0000
0000
0100
0000
0000
0010
,
0001
0000
0000
0001
0000
0000
0001
0000
0000
1000
0000
0000
0010
0000
0000
0100
,
0001
1000
0001
0000
0100
0000
0010
0000
1000
0000
0001
0000
0100
0000
0001
0000
0010
0000
0100
0000
1000
0000
0001
0000
0010
0000
0001
0000
1000
0000
0010
0000
,
0200
0000
0301
1000
0001
0010
0200
0000
0000
1300
0001
1000
0200
0000
0310
0001
,
2000
0000
0000
3001
0100
0001
2000
0000
0000
3100
1000
0001
0100
0010
0100
0001
,
0020
0000
0000
0130
1000
0001
0020
0000
0000
0130
0010
0001
2000
0000
3010
0100
,
0002
0000
0000
1003
0100
1000
0002
0000
0000
0103
0010
1000
0001
0010
0001
1000
,
0020
0000
0000
0130
0001
1000
0020
0000
0000
1030
0100
0010
0002
0000
0103
0001
,
2000
0000
0000
3100
0010
0100
2000
0000
0000
3001
0100
0001
0010
0100
1000
0001
,
0200
0000
0000
0301
1000
0010
0200
0000
0000
0301
0010
0001
2000
0000
0000
3100
,
1000
0001
1000
0000
0010
0000
0100
0000
0001
0000
1000
0000
0100
0000
1000
0000
0010
0000
0100
0000
0001
0000
0010
0000
0100
0000
1000
0000
0001
0000
0100
0000
,
0020
0000
0000
1030
0002
0000
1003
0100
0020
0000
0000
0031
0200
0000
0310
1000
,
0002
0000
0000
0013
0200
0000
0310
0001
2000
0000
0000
3010
0200
0000
0301
1000
,
0020
0000
0000
0130
0002
0000
1003
0100
0020
0000
0000
0031
2000
0000
3010
0100
,
0002
0000
0000
0013
0200
0000
2300
0000
3002
0000
0000
0000
0203
0000
0310
1000
,
0001
0000
0000
0000
0000
0000
1000
0000
0100
0000
0000
0000
0010
0000
0000
0000
0000
0000
0001
0000
1000
0000
0000
0000
0010
0000
0000
0000
1000
0000
0001
1000
,
0001
0000
0000
0000
0100
0000
0001
0000
1000
0000
0000
0000
0100
0000
0000
0000
0000
0000
0010
0000
0001
0000
0000
0000
0100
0000
0000
0000
0010
0000
1000
0001
,
1000
0000
0100
0000
0010
0000
0001
0000
1000
0000
0001
0000
0100
0000
0010
1000
0010
0000
1000
0000
0001
0000
0010
0000
0100
0000
0010
0000
0001
0000
1000
0000
,
0010
0100
0010
0000
1000
0000
0001
0000
0010
0000
0100
0000
1000
0000
0001
0000
0100
0000
0010
0000
0100
0000
0001
0000
1000
0000
0000
0000
0100
0000
0000
0000
,
110M
0000
0000
0000
1000
0000
0010
0000
0000
0000
0000
0000
0100
0000
0000
0000
0010
1000
0010
0000
1000
0000
0001
0000
0010
0000
0000
0000
0100
0000
0000
0000
10M0
0000
0000
0000
0001
0000
0000
0000
1000
0000
0000
0000
0100
0000
0000
0000
0020
0000
0000
0000
0000
0000
0000
0000
0000
0000
0000
0000
0030
0000
0000
0000
,
0001
1000
0010
0000
0010
0000
0200
0300
0001
1000
0100
0010
000M
0010
1000
0000
,
0001
1000
0100
0010
000M
0010
1000
0001
0010
0000
0010
0100
1000
0000
0001
0000
,
0200
0010
0000
0000
0302
0000
1003
0010
1000
0001
0010
0100
M000
0100
0001
0000
,
1000
0001
0010
0100
M000
0100
0001
1000
0100
0010
0001
0100
0020
0000
0000
0030
,
1000
0001
0010
0000
0010
0000
0200
0300
1000
0001
0100
0010
000M
0010
0001
0000
,
1000
0001
0100
0010
000M
0010
0001
1000
0010
0000
1000
0001
0010
0000
0100
1000
,
0001
0100
0010
1000
0100
1000
0001
0010
0100
1000
0010
0100
M000
0100
1000
0000
,
0001
1000
0010
0100
M000
0100
1000
0001
0010
0100
1000
0001
0200
0000
0000
0300
,
0001
1000
0010
0000
0010
0000
0200
0300
0001
1000
0100
0010
000M
0010
1000
0000
,
0001
1000
0100
0010
000M
0010
1000
0001
0100
0000
0010
1000
0001
0000
1000
0000
,
0200
0010
0000
0000
2300
0000
3100
0010
0001
1000
0010
0100
M000
0100
1000
0000
,
0001
1000
0010
0100
M000
0100
1000
0001
0100
0010
1000
0100
0020
0000
0000
0030
,
0001
1000
0010
0000
0010
0000
0200
0300
0001
1000
0100
0010
000M
0010
1000
0000
,
0001
1000
0100
0010
000M
0010
1000
0001
0010
0000
0001
1000
0100
0000
0010
0100
,
1000
0001
0100
0010
0100
0001
0010
0100
1000
0000
0000
1000
0000
0000
1000
0000
,
0000
1000
0000
0000
1000
0000
0000
0000
0000
0000
0000
0000
0000
0000
0000
0000
;

//---------------dance-single - Benpai----------------
#NOTEDATA:;
#CHARTNAME:Benpai SH;
#STEPSTYPE:dance-single;
#DESCRIPTION:Benpai;
#CHARTSTYLE:;
#DIFFICULTY:Hard;
#METER:8;
#RADARVALUES:0.461935,0.502634,0.007451,0.908969,0.309198,434.000000,433.000000,1.000000,122.000000,2.000000,0.000000,7.000000,0.000000,0.000000,0.461935,0.502634,0.007451,0.908969,0.309198,434.000000,433.000000,1.000000,122.000000,2.000000,0.000000,7.000000,0.000000,0.000000;
#CREDIT:Benpai;
#DISPLAYBPM:59.000000:118.000000;
#NOTES:
// measure 0
0000
0000
0000
0000
,  // measure 1
0000
0000
0000
0000
,  // measure 2
0000
0000
0000
0000
,  // measure 3
0000
0000
0000
0000
,  // measure 4
0001
0000
1000
0000
0100
0000
1000
0000
0020
0000
0000
0000
0130
0000
0000
0001
,  // measure 5
1000
0000
0000
1000
0000
0000
1000
0000
0100
0000
0010
0000
0001
0000
1000
0000
,  // measure 6
0002
0000
0000
0000
0203
0000
0000
0000
0320
0000
0000
0000
2030
0000
0000
3001
,  // measure 7
0100
0000
0001
0000
0000
0000
0001
0000
0020
0000
0000
0000
0430
0000
0000
0300
,  // measure 8
1000
0000
0001
0000
2000
0000
0000
0000
3020
0000
0000
0000
0230
0000
0000
0301
,  // measure 9
1000
0000
0100
0010
0200
2300
3002
0203
,  // measure 10
0320
0000
0000
0000
2030
0000
3002
0000
0023
0000
0000
0000
0230
0000
0000
1300
,  // measure 11
0001
0000
0000
0001
0000
0000
0020
0000
0230
0000
0000
0000
2300
0000
0000
0000
,  // measure 12
3010
0000
0010
0000
1000
0000
0001
0000
0020
0000
0000
0000
0230
0000
0000
1300
,  // measure 13
0001
0000
0100
0001
1000
0000
0001
0000
0010
0000
0100
0000
0010
0000
0001
1000
,  // measure 14
0010
0000
0010
0000
0100
0000
0100
0001
1000
0000
1000
0000
0100
0000
0100
0000
,  // measure 15
0010
0001
1000
0000
0000
0000
1000
0000
0020
0000
0000
0000
0130
0000
0001
0000
,  // measure 16
1000
0000
0100
0010
0000
0000
0001
0000
0100
0000
0010
1000
0000
0000
0001
0000
,  // measure 17
0100
0000
0001
0010
0200
0000
0000
0300
0000
1000
0001
0000
0001
0000
0200
0300
,  // measure 18
0001
0000
0010
0100
0000
0000
1000
0000
0010
0000
0100
0001
0000
0000
1000
0000
,  // measure 19
0100
0000
0010
0000
0100
0000
1000
0000
0002
0000
0000
0000
0203
0000
0310
1000
,  // measure 20
0001
0000
1000
0100
0000
0000
0010
0000
0001
0000
1000
0010
0000
0000
0100
0000
,  // measure 21
0001
0000
1000
0100
0020
0000
0000
0030
0000
0100
0010
0000
0010
0000
0002
0003
,  // measure 22
1000
0000
0010
0100
0000
0000
0001
0000
1000
0000
0100
0010
0000
0000
0100
0000
,  // measure 23
1000
0000
0002
0003
0100
0000
0002
0003
0040
0000
0000
0000
0230
0000
1300
0001
,  // measure 24
0100
0000
0001
0000
0020
0000
0000
0000
0230
0000
0000
0000
2300
0000
0000
3001
,  // measure 25
0000
0000
0000
0000
0100
0010
1000
0001
,  // measure 26
0020
0000
0000
0000
0130
0000
1000
0000
0020
0000
0000
0000
0230
0000
0000
0301
,  // measure 27
1000
0000
0000
0020
0230
0000
0301
0000
,  // measure 28
1000
0000
0100
0000
1000
0000
0001
0000
0020
0000
0000
0000
0230
0000
0000
1300
,  // measure 29
0000
0000
0000
0000
0001
0100
0010
0100
,  // measure 30
0002
0000
0000
0000
2003
0000
0000
0000
3200
0000
0000
0000
2300
0000
0000
3010
,  // measure 31
0100
0000
0001
0000
0000
0000
0001
0000
0020
0000
0000
0000
0230
0000
0310
0001
,  // measure 32
2000
0000
3020
0000
0230
0000
0000
0000
0302
0000
0000
0000
2003
0000
0000
3100
,  // measure 33
0010
0000
0000
0001
0000
0001
1000
0000
0020
0000
0230
0000
0302
0000
0023
0000
,  // measure 34
0230
0000
0000
0000
2300
0000
3002
0000
0203
0000
0000
0000
0302
0000
0000
1003
,  // measure 35
0010
0000
0000
0100
0000
0100
0002
0000
2003
0000
0000
0000
3100
0000
0000
0000
,  // measure 36
0020
0000
0032
0000
2003
0000
3002
0000
0203
0000
0000
0000
0320
0000
0000
1030
,  // measure 37
0002
2003
3200
2300
3002
0203
0320
2030
,  // measure 38
3002
0000
0000
0000
0023
0000
0000
0000
0230
0000
0000
0000
2300
0000
0000
3100
,  // measure 39
1000
0000
0002
0000
0103
0000
0002
0000
0023
0000
0000
0000
0230
0000
0310
0001
,  // measure 40
2000
0000
0000
0000
3002
0000
0103
0010
2000
0000
0000
0000
3200
0000
0310
0001
,  // measure 41
0200
0000
0000
0000
0320
0000
1030
0001
0020
0000
0000
0000
0230
0000
0000
0300
,  // measure 42
1200
0000
0000
0000
0320
0000
0031
1000
0020
0000
0000
0000
0230
0000
0310
1000
,  // measure 43
0002
0000
0023
0230
2300
0000
3002
0000
,  // measure 44
1003
0000
0000
0010
0000
0000
0100
0000
0000
0001
1000
0000
0100
0000
0010
0004
,  // measure 45
1003
0000
0010
0100
0000
0000
0001
0000
0000
1000
0001
0000
0010
0000
0100
4000
,  // measure 46
3001
0000
0001
0000
0100
0000
0100
0010
1000
0000
1000
0000
0100
0000
0100
0000
,  // measure 47
0040
0000
0031
0000
1000
0010
0100
0000
0002
0000
0000
0000
2003
0000
3100
0000
,  // measure 48
001M
0000
0000
0100
0000
0000
1000
0000
0001
0000
0000
0100
0000
0000
0010
0000
100M
0000
0000
0000
0001
0000
1000
0000
0200
0000
0000
0000
0000
0000
0300
0000
,  // measure 49
0000
1000
0001
0000
0001
0000
0200
0300
0010
0000
1000
0001
0000
0000
0010
0000
,  // measure 50
0100
0000
1000
0001
0000
0000
0100
0000
0010
0000
1000
0000
0001
0000
1000
0000
,  // measure 51
0200
0000
0000
0000
0320
0000
0130
1000
0001
0000
0100
0010
0000
0000
1000
0000
,  // measure 52
0001
0000
1000
0100
0000
0000
0010
0000
0001
0000
1000
0010
0200
0000
0000
0300
,  // measure 53
0000
0010
1000
0000
1000
0000
0002
0003
0100
0000
0001
0010
0000
0000
0100
0000
,  // measure 54
1000
0000
0001
0100
0000
0000
0010
0000
0100
0000
0001
0000
1000
0000
0100
0000
,  // measure 55
0040
0000
0000
0000
0032
0000
1003
0000
0001
0000
0010
0100
0000
0000
1000
0000
,  // measure 56
0010
0000
0100
0001
0000
0000
1000
0000
0010
0000
1000
0100
0020
0000
0000
0030
,  // measure 57
0000
0001
1000
0000
1000
0000
0020
0030
1000
0000
0100
0010
0000
0000
0001
0000
,  // measure 58
0100
0000
0010
1000
0000
0000
0001
0000
0010
0000
0100
0000
0010
0000
0001
0000
,  // measure 59
2000
0000
0000
0000
3020
0000
0130
0001
1000
0000
0001
0010
0000
0000
0100
0000
,  // measure 60
1000
0000
0001
0100
0000
0000
0010
0000
1000
0000
0001
0010
0200
0000
0000
0300
,  // measure 61
0000
0010
0100
0000
0100
0000
2000
3000
0001
0000
0100
0010
0000
0000
1000
0000
,  // measure 62
0001
0000
0010
0100
0000
0000
0010
0000
0001
0000
2000
3000
0010
0000
0200
0300
,  // measure 63
0004
0000
0000
0000
0023
0000
0130
1000
0001
0000
0000
0001
0000
0000
0001
0000
,  // measure 64
0000
0001
0000
0000
0001
0000
0000
0000
0000
0000
0000
0000
0000
0000
0000
0000
;

//---------------dance-single - Benpai----------------
#NOTEDATA:;
#CHARTNAME:Benpai SN;
#STEPSTYPE:dance-single;
#DESCRIPTION:Benpai;
#CHARTSTYLE:;
#DIFFICULTY:Beginner;
#METER:1;
#RADARVALUES:0.068119,0.118278,0.000000,0.000000,0.000000,64.000000,64.000000,0.000000,0.000000,0.000000,0.000000,0.000000,0.000000,0.000000,0.068119,0.118278,0.000000,0.000000,0.000000,64.000000,64.000000,0.000000,0.000000,0.000000,0.000000,0.000000,0.000000,0.000000;
#CREDIT:Benpai;
#DISPLAYBPM:59.000000:118.000000;
#NOTES:
0000
0000
0000
0000
,
0000
0000
0000
0000
,
0000
0000
0000
0000
,
0000
0000
0000
0000
,
0000
0000
0000
0000
,
0000
0000
0000
0000
,
0000
0000
0000
0000
,
0000
0000
0000
0000
,
0001
0000
0000
0000
,
0100
0000
0000
0000
,
0010
0000
0000
0000
,
0100
0000
0000
0000
,
0001
0000
0000
0000
,
1000
0000
0000
0000
,
0100
0000
0000
0000
,
1000
0000
0000
0001
,
0001
0000
0000
0000
,
0100
0000
0000
0000
,
0001
0000
0000
0000
,
0010
0000
0000
0000
,
0100
0000
0000
0000
,
1000
0000
0000
0000
,
0001
0000
0000
0000
,
0100
0000
0000
0000
,
0010
0000
0000
0000
,
1000
0000
0000
0000
,
0100
0000
0000
0000
,
1000
0000
0000
0000
,
0001
0000
0000
0000
,
0100
0000
0000
0000
,
0010
0000
0000
0000
,
1000
0000
0001
0001
,
0001
0000
0000
0000
,
0010
0000
0000
0000
,
0100
0000
0000
0000
,
1000
0000
0000
0000
,
1000
0000
0000
0000
,
0010
0000
0000
0000
,
0100
0000
0000
0000
,
0001
0000
0001
0001
,
0001
0000
0000
0000
,
0010
0000
0000
0000
,
0100
0000
0000
0000
,
0100
0000
0000
0000
,
1000
0000
0000
0000
,
0001
0000
0000
0000
,
0100
0000
0100
0000
,
0010
0000
1000
0000
,
0001
0000
0001
0000
,
0000
0000
1000
0000
,
0000
0000
0010
0000
,
0000
0000
0100
0000
,
0000
0000
0001
0000
,
0000
0000
0100
0000
,
0000
0000
0010
0000
,
0000
0000
1000
0000
,
0000
0000
0100
0000
,
0000
0000
1000
0000
,
0000
0000
0001
0000
,
0000
0000
0100
0000
,
0000
0000
0010
0000
,
0000
0000
1000
0000
,
0000
0000
0001
0000
,
0000
0000
0100
0000
;

//---------------dance-single - Benpai----------------
#NOTEDATA:;
#CHARTNAME:Benpai SE;
#STEPSTYPE:dance-single;
#DESCRIPTION:Benpai;
#CHARTSTYLE:;
#DIFFICULTY:Easy;
#METER:3;
#RADARVALUES:0.138368,0.263284,0.014901,0.089407,0.000000,130.000000,128.000000,2.000000,12.000000,0.000000,0.000000,0.000000,0.000000,0.000000,0.138368,0.263284,0.014901,0.089407,0.000000,130.000000,128.000000,2.000000,12.000000,0.000000,0.000000,0.000000,0.000000,0.000000;
#CREDIT:Benpai;
#DISPLAYBPM:59.000000:118.000000;
#NOTES:
// measure 0
0000
0000
0000
0000
,  // measure 1
0000
0000
0000
0000
,  // measure 2
0000
0000
0000
0000
,  // measure 3
0000
0000
0000
0000
,  // measure 4
0000
0000
0000
0000
,  // measure 5
0000
0000
0000
0000
,  // measure 6
0000
0000
0000
0000
,  // measure 7
0000
0000
0000
0000
,  // measure 8
0001
0000
0100
0000
,  // measure 9
0001
0000
1000
0100
,  // measure 10
1000
0000
0010
0000
,  // measure 11
0100
0000
0001
0001
,  // measure 12
1000
0000
0100
0000
,  // measure 13
1000
0000
0001
0000
,  // measure 14
0010
0000
0100
0000
,  // measure 15
1000
0000
0000
0010
,  // measure 16
0100
0000
0100
0000
,  // measure 17
0001
0010
0000
0000
,  // measure 18
0100
0000
0100
0000
,  // measure 19
1000
0000
0002
0203
,  // measure 20
0310
0000
0010
0000
,  // measure 21
1000
0001
0000
0000
,  // measure 22
0010
0000
0010
0000
,  // measure 23
0100
0000
0020
0032
,  // measure 24
1003
0000
0000
0000
,  // measure 25
1000
0000
0001
0100
,  // measure 26
0010
0000
0000
0000
,  // measure 27
0100
0000
0000
0000
,  // measure 28
0001
0000
1000
0000
,  // measure 29
0100
0000
0010
0001
,  // measure 30
1000
0000
0010
0100
,  // measure 31
0001
0000
0010
0100
,  // measure 32
0010
0000
0001
0000
,  // measure 33
1000
0000
0100
0010
,  // measure 34
0001
0000
1000
0000
,  // measure 35
0100
0000
0000
0000
,  // measure 36
0010
0000
0001
0000
,  // measure 37
1000
0000
0010
1000
,  // measure 38
0001
0000
0010
0000
,  // measure 39
0100
0000
0010
0001
,  // measure 40
1000
0000
1000
0000
,  // measure 41
0010
0000
0010
0000
,  // measure 42
0100
0000
0100
0000
,  // measure 43
0001
0000
0001
0000
,  // measure 44
1000
0000
0100
0000
,  // measure 45
1000
0000
0010
0000
,  // measure 46
0100
0100
0001
0001
,  // measure 47
1000
0100
0010
0001
,  // measure 48
1001
0100
0110
0000
,  // measure 49
0000
0000
0001
0000
,  // measure 50
0001
0000
0020
0230
,  // measure 51
1300
0000
0010
0000
,  // measure 52
0010
0000
1000
0001
,  // measure 53
0000
0000
1000
0000
,  // measure 54
1000
0000
0020
0230
,  // measure 55
0301
0000
1000
0000
,  // measure 56
1000
0000
0100
0010
,  // measure 57
0000
0000
0001
0000
,  // measure 58
0001
0000
0200
0320
,  // measure 59
1030
0000
0100
0000
,  // measure 60
0100
0000
0010
0001
,  // measure 61
0000
0000
1000
0000
,  // measure 62
1000
0000
0200
0320
,  // measure 63
0031
0000
1000
0000
,  // measure 64
0000
1000
0000
0000
;

//---------------dance-single - Benpai----------------
#NOTEDATA:;
#CHARTNAME:Benpai SM;
#STEPSTYPE:dance-single;
#DESCRIPTION:Benpai;
#CHARTSTYLE:;
#DIFFICULTY:Medium;
#METER:5;
#RADARVALUES:0.310795,0.331178,0.022352,0.476836,0.081956,292.000000,289.000000,3.000000,64.000000,1.000000,0.000000,0.000000,0.000000,0.000000,0.310795,0.331178,0.022352,0.476836,0.081956,292.000000,289.000000,3.000000,64.000000,1.000000,0.000000,0.000000,0.000000,0.000000;
#CREDIT:Benpai;
#DISPLAYBPM:59.000000:118.000000;
#NOTES:
// measure 0
0000
0000
0000
0000
,  // measure 1
0000
0000
0000
0000
,  // measure 2
0000
0000
0000
0000
,  // measure 3
0000
0000
0000
0000
,  // measure 4
0001
0100
0020
1030
,  // measure 5
0001
0000
0000
0000
1000
0000
0010
0100
,  // measure 6
0002
2003
3020
0230
,  // measure 7
0301
0000
0020
0230
,  // measure 8
1300
0001
0010
0100
,  // measure 9
1000
0000
0000
0010
0000
0000
0000
0100
,  // measure 10
0002
1003
0200
2300
,  // measure 11
3001
0000
0000
0000
,  // measure 12
0010
0000
0100
1000
0002
0000
0103
0000
,  // measure 13
0010
0000
1000
0001
0020
0000
0130
0000
,  // measure 14
1000
0100
0010
0001
,  // measure 15
1000
0010
0000
0010
0200
0000
0301
1000
,  // measure 16
0001
0000
0000
0010
0000
0000
0010
0000
0100
0000
0000
1000
0000
0000
1000
0000
,  // measure 17
0001
0000
0100
0000
0020
0000
0000
0030
0000
0000
1000
0000
1000
0000
0002
0003
,  // measure 18
1000
0000
0000
0100
0000
0000
0100
0000
0010
0000
0000
0001
0000
0000
0001
0000
,  // measure 19
0100
0010
0100
0000
0002
0000
1003
0000
,  // measure 20
0100
0000
0000
0010
0000
0000
0010
0000
0001
0000
0000
1000
0000
0000
1000
0000
,  // measure 21
0010
0000
0100
0000
0002
0000
0000
0003
0000
0000
1000
0000
1000
0000
0200
0300
,  // measure 22
1000
0000
0000
0001
0000
0000
0001
0000
0100
0000
0000
0010
0000
0000
0010
0000
,  // measure 23
1000
0000
0002
0003
1000
0000
0002
0003
0020
0000
0000
0000
0130
0000
1000
0000
,  // measure 24
0001
0100
0010
1000
,  // measure 25
0100
0000
0000
0000
1000
0000
0001
0100
,  // measure 26
0020
1030
0200
0320
,  // measure 27
0031
0000
0000
0010
0200
0000
1300
0000
,  // measure 28
0001
0100
0020
2030
,  // measure 29
3001
0000
0000
0000
1000
0000
0100
0010
,  // measure 30
0002
2003
3020
0230
,  // measure 31
0301
1000
0000
1000
0200
0000
0310
0000
,  // measure 32
0001
0100
0010
1000
,  // measure 33
0100
0000
0000
0000
1000
0000
0010
0100
,  // measure 34
0002
1003
0200
0320
,  // measure 35
0031
0000
0000
2000
3002
0000
0103
0000
,  // measure 36
0010
1000
0100
0010
,  // measure 37
0001
0000
0100
0000
0010
0000
1000
0001
,  // measure 38
0020
0230
0320
0032
,  // measure 39
1003
0010
0000
0010
0200
0000
0301
0000
,  // measure 40
1002
0103
0020
1030
,  // measure 41
1200
0000
0000
0310
0002
0000
0103
0000
,  // measure 42
0020
0130
0002
1003
,  // measure 43
2100
0000
3100
0010
0002
0000
0203
0000
,  // measure 44
0310
1000
0010
1000
,  // measure 45
0001
0100
0001
0100
,  // measure 46
0010
0000
1000
0001
0010
0000
0100
0000
,  // measure 47
1000
0001
0100
0010
2000
0000
3001
0000
,  // measure 48
0010
0000
0000
0000
0010
0000
0000
0000
M100
0000
1000
0000
0002
0000
0000
0003
,  // measure 49
0000
0000
0100
0000
0100
0000
0020
0030
1000
0000
0000
0001
0000
0000
0001
0000
,  // measure 50
0010
0000
0000
0100
0000
0000
0100
0000
0010
0000
0001
0000
1000
0000
1000
0000
,  // measure 51
0020
0000
0000
0000
0130
0000
0000
0000
0010
0000
0000
1000
0000
0000
1000
0000
,  // measure 52
0001
0000
0000
0010
0000
0000
0010
0000
0100
0000
0010
0000
0002
0000
0000
0003
,  // measure 53
0000
0000
1000
0000
1000
0000
0002
0003
0100
0000
0000
0010
0000
0000
0010
0000
,  // measure 54
1000
0000
0000
0100
0000
0000
0100
0000
0010
0000
0000
0000
0001
0000
0100
0000
,  // measure 55
0020
0000
0000
0000
1030
0000
0000
0000
0100
0000
0000
0010
0000
0000
0010
0000
,  // measure 56
0001
0000
0000
1000
0000
0000
1000
0000
0001
0000
0100
0000
0020
0000
0000
0030
,  // measure 57
0000
0000
0100
0000
0100
0000
0002
0003
1000
0000
0000
0010
0000
0000
0010
0000
,  // measure 58
0100
0000
0000
0001
0000
0000
0001
0000
0010
0000
0100
0000
0010
0000
0000
0000
,  // measure 59
0002
0000
0000
0000
1003
0000
0000
0000
0010
0000
0000
0100
0000
0000
0100
0000
,  // measure 60
0001
0000
0000
1000
0000
0000
1000
0000
0100
0000
0010
0000
0002
0000
0000
0003
,  // measure 61
0000
0000
1000
0000
1000
0000
0020
0030
0100
0000
0000
0010
0000
0000
0010
0000
,  // measure 62
1000
0000
0000
0001
0000
0000
0001
0000
0010
0000
0100
0000
1000
0000
0001
0000
,  // measure 63
0200
0310
1000
0000
;
