#TITLE:Levitate;
#SUBTITLE:;
#ARTIST:Rootkit;
#TITLETRANSLIT:;
#SUBTITLETRANSLIT:;
#ARTISTTRANSLIT:;
#GENRE:;
#CREDIT:;
#BANNER:levibn.png;
#BACKGROUND:levibg.png;
#LYRICSPATH:;
#CDTITLE:maxx-cdtitle.png;
#MUSIC:Levitate.ogg;
#OFFSET:0.469000;
#SAMPLESTART:46.674000;
#SAMPLELENGTH:15.238000;
#SELECTABLE:YES;
#BPMS:0.000000=125.999992
;
#STOPS:
;
#BGCHANGES:;
#KEYSOUNDS:;
#ATTACKS:;

//---------------dance-single - Maxx (Feraligatr Revision)----------------
#NOTES:
     dance-single:
     Maxx (Feraligatr Revision):
     Challenge:
     10:
     0.556643,0.823832,0.064942,0.343263,0.565920,420.000000,413.000000,7.000000,37.000000,0.000000,0.000000,0.556643,0.823832,0.064942,0.343263,0.565920,420.000000,413.000000,7.000000,37.000000,0.000000,0.000000:
// measure 0
0000
0000
0000
0000
,  // measure 1
0000
0000
0000
0000
,  // measure 2
0000
0000
0000
0000
,  // measure 3
0000
0000
0000
0000
,  // measure 4
0000
0000
0000
0000
0000
0000
0000
2000
,  // measure 5
0000
3002
0000
0000
0000
0003
0200
0000
0000
0300
0020
0000
0000
0030
2000
0000
,  // measure 6
0000
3002
0000
0000
0000
0003
0200
0000
0000
0300
0020
0000
0000
0030
2000
0000
,  // measure 7
0000
3200
0000
0000
0000
0300
0020
0000
0000
0030
0002
0000
0000
0003
2000
0000
,  // measure 8
3000
0020
0000
0000
0000
0030
0200
0000
0001
0000
0310
0000
2000
0000
0000
0000
,  // measure 9
3002
0000
0023
0000
0030
0000
0001
1000
,  // measure 10
0010
0100
0002
0000
0003
0000
0001
1000
,  // measure 11
0100
0010
0001
0100
0010
0100
0001
0010
,  // measure 12
0001
0010
0100
1000
0001
0100
0002
0000
,  // measure 13
2003
0000
3020
0000
0030
0000
1000
0001
,  // measure 14
0010
0001
0100
0000
0000
0000
0010
1000
,  // measure 15
0010
0100
0001
0010
0001
1000
0010
1000
,  // measure 16
0001
1000
0100
0000
0000
0000
2000
0000
,  // measure 17
3002
0000
0000
0000
0013
0000
0200
0000
0000
2300
0000
0000
3010
0000
0100
0000
,  // measure 18
0010
0000
1000
0000
0100
0000
0020
0000
0000
0032
0000
0000
1003
0000
0010
0000
,  // measure 19
1000
0001
0010
0100
0010
0001
0100
0010
,  // measure 20
1000
0001
1000
0100
0010
0100
1000
0010
,  // measure 21
1000
0010
0100
0001
0100
0001
1000
0100
,  // measure 22
1000
0000
0000
0000
0000
0000
0000
0000
0000
0000
0000
0000
0000
0000
0000
0000
0000
0000
0000
0000
0000
0000
0000
0000
0100
0000
0000
0000
0000
0000
0000
0000
0000
0000
0000
0000
0000
0000
0000
0000
0000
0000
0000
0000
0000
0000
0000
0000
0010
0000
0000
0000
0000
0000
0000
0000
0000
0000
0000
0000
0000
0000
0000
0000
0000
0000
0000
0000
0000
0000
0000
0000
0001
0000
0000
0000
0000
0000
0000
0000
0000
0000
0000
0000
0000
0000
0000
0000
0000
0000
0000
0000
0000
0000
0000
0000
0010
0000
0000
0000
0000
0000
0000
0000
0000
0000
0000
0000
0000
0000
0000
0000
0000
0000
0000
0000
0000
0000
0000
0000
0001
0000
0000
0000
0000
0000
0000
0000
0000
0000
0000
0000
0000
0000
0000
0000
0000
0000
0000
0000
0000
0000
0000
0000
1000
0000
0000
0000
0000
0000
0000
0000
0000
0000
0000
0000
0000
0000
0010
0000
0000
0000
0000
0000
0000
0000
0000
0000
1000
0000
0000
0000
0000
0000
0000
0000
0000
0000
0000
0000
0000
0000
0001
0000
0000
0000
0000
0000
0000
0000
0000
0000
,  // measure 23
0100
0000
0000
0000
0000
0000
0000
0000
0000
0000
0000
0000
0000
0000
0001
0000
0000
0000
0000
0000
0000
0000
0000
0000
1000
0000
0000
0000
0000
0000
0000
0000
0000
0000
0000
0000
0000
0000
0100
0000
0000
0000
0000
0000
0000
0000
0000
0000
0010
0000
0000
0000
0000
0000
0000
0000
0000
0000
0000
0000
0000
0000
0001
0000
0000
0000
0000
0000
0000
0000
0000
0000
1000
0000
0000
0000
0000
0000
0000
0000
0000
0000
0000
0000
0000
0000
0010
0000
0000
0000
0000
0000
0000
0000
0000
0000
0100
0000
0000
0000
0000
0000
0000
0000
0000
0000
0000
0000
0000
0000
0010
0000
0000
0000
0000
0000
0000
0000
0000
0000
1000
0000
0000
0000
0000
0000
0000
0000
0000
0000
0000
0000
0000
0000
0001
0000
0000
0000
0000
0000
0000
0000
0000
0000
0010
0000
0000
0000
0000
0000
0000
0000
0000
0000
0000
0000
0100
0000
0000
0000
0000
0000
0000
0000
0000
0000
0000
0000
1000
0000
0000
0000
0000
0000
0000
0000
0000
0000
0000
0000
0100
0000
0000
0000
0000
0000
0000
0000
0000
0000
0000
0000
,  // measure 24
0010
0001
0100
0010
1000
0010
0100
0001
2000
3000
0001
0010
0200
0000
0000
1300
,  // measure 25
0001
0000
0000
0001
0100
0100
1000
0001
0100
0100
1000
1000
0010
0000
0400
0000
,  // measure 26
0001
0000
0000
0000
0000
0000
0000
0000
0000
0000
0000
0000
0000
0000
0000
0000
0000
0000
0000
0000
0000
0000
0000
0000
0000
0000
0000
0000
0000
0000
0000
0000
0000
0000
0000
0000
0000
0000
0000
0000
0000
0000
0000
0000
0000
0000
0000
0000
0310
0000
0000
0000
0000
0000
0000
0000
0000
0000
0000
0000
0000
0000
0000
0000
0000
0010
0000
0000
0000
0000
0000
0000
1000
0000
0000
0000
0000
0000
0000
0000
0000
0000
0000
0000
0000
0000
0000
0000
0000
0000
0000
0000
0000
0000
0000
0000
1400
0000
0000
0000
0000
0000
0000
0000
0000
0000
0000
0000
0000
0000
0000
0000
0000
0000
0000
0000
0000
0000
0000
0000
0000
0000
0000
0000
0000
0000
0000
0000
0000
0000
0000
0000
0300
0000
0000
0000
0000
0000
0000
0000
0000
0000
0000
0000
0020
0000
0000
0000
0000
0000
0000
0000
0000
0000
0000
0000
0000
0000
0000
0000
0000
0000
0000
0000
0000
0000
0000
0000
0000
0000
0000
0000
0000
0000
0000
0000
0000
0000
0000
0000
0031
0000
0000
0000
0000
0000
0000
0000
0000
0000
0000
0000
,  // measure 27
1000
0000
0000
0001
0010
0010
1000
0001
0010
0010
1000
1000
0100
0000
0040
0000
,  // measure 28
0001
0000
0000
0000
0000
0000
0000
0000
0000
0000
0000
0000
0000
0000
0000
0000
0000
0000
0000
0000
0000
0000
0000
0000
0000
0000
0000
0000
0000
0000
0000
0000
0000
0000
0000
0000
0000
0000
0000
0000
0000
0000
0000
0000
0000
0000
0000
0000
0130
0000
0000
0000
0000
0000
0000
0000
0000
0000
0000
0000
0000
0000
0000
0000
0000
0100
0000
0000
0000
0000
0000
0000
1000
0000
0000
0000
0000
0000
0000
0000
0000
0000
0000
0000
0000
0000
0000
0000
0000
0000
0000
0000
0000
0000
0000
0000
1040
0000
0000
0000
0000
0000
0000
0000
0000
0000
0000
0000
0000
0000
0000
0000
0000
0000
0000
0000
0000
0000
0000
0000
0000
0000
0000
0000
0000
0000
0000
0000
0000
0000
0000
0000
0030
0000
0000
0000
0000
0000
0000
0000
0000
0000
0000
0000
0200
0000
0000
0000
0000
0000
0000
0000
0000
0000
0000
0000
0000
0000
0000
0000
0000
0000
0000
0000
0000
0000
0000
0000
0000
0000
0000
0000
0000
0000
0000
0000
0000
0000
0000
0000
0301
0000
0000
0000
0000
0000
0000
0000
0000
0000
0000
0000
,  // measure 29
1000
0000
0000
1000
0010
0010
0001
1000
0010
0010
0001
0001
0100
0000
0040
0000
,  // measure 30
1000
0000
0000
0000
0000
0000
0000
0000
0000
0000
0000
0000
0000
0000
0000
0000
0000
0000
0000
0000
0000
0000
0000
0000
0000
0000
0000
0000
0000
0000
0000
0000
0000
0000
0000
0000
0000
0000
0000
0000
0000
0000
0000
0000
0000
0000
0000
0000
0130
0000
0000
0000
0000
0000
0000
0000
0000
0000
0000
0000
0000
0000
0000
0000
0000
0100
0000
0000
0000
0000
0000
0000
0001
0000
0000
0000
0000
0000
0000
0000
0000
0000
0000
0000
0000
0000
0000
0000
0000
0000
0000
0000
0000
0000
0000
0000
0041
0000
0000
0000
0000
0000
0000
0000
0000
0000
0000
0000
0000
0000
0000
0000
0000
0000
0000
0000
0000
0000
0000
0000
0000
0000
0000
0000
0000
0000
0000
0000
0000
0000
0000
0000
0030
0000
0000
0000
0000
0000
0000
0000
0000
0000
0000
0000
0200
0000
0000
0000
0000
0000
0000
0000
0000
0000
0000
0000
0000
0000
0000
0000
0000
0000
0000
0000
0000
0000
0000
0000
0000
0000
0000
0000
0000
0000
0000
0000
0000
0000
0000
0000
1300
0000
0000
0000
0000
0000
0000
0000
0000
0000
0000
0000
,  // measure 31
0001
0000
0000
1000
0100
0100
0001
1000
0100
0100
0001
0001
0040
0000
0000
0000
,  // measure 32
0001
0000
0000
0000
0000
0000
0000
0000
0000
0000
0000
0000
0000
0000
0000
0000
0000
0000
0000
0000
0000
0000
0000
0000
0000
0000
0000
0000
0000
0000
0000
0000
0000
0000
0000
0000
0000
0000
0000
0000
0000
0000
0000
0000
0000
0000
0000
0000
0130
0000
0000
0000
0000
0000
0000
0000
0000
0000
0000
0000
0000
0000
1000
0000
0000
0000
0000
0000
0000
0000
0000
0000
0010
0000
0000
0000
0000
0000
0000
0000
0000
0000
0000
0000
0000
0000
0000
0000
0000
0000
0000
0000
0000
0000
0000
0000
0100
0000
0000
0000
0000
0000
0000
0000
0000
0000
0000
0000
0000
0000
0001
0000
0000
0000
0000
0000
0000
0000
0000
0000
0010
0000
0000
0000
0000
0000
0000
0000
0000
0000
0000
0000
0000
0000
0001
0000
0000
0000
0000
0000
0000
0000
0000
0000
0200
0000
0000
0000
0000
0000
0000
0000
0000
0000
0000
0000
0000
0000
0000
0000
0000
0000
0000
0000
0000
0000
0000
0000
0000
0000
0000
0000
0000
0000
0000
0000
0000
0000
0000
0000
0301
0000
0000
0000
0000
0000
0000
0000
0000
0000
0000
0000
,  // measure 33
1000
0000
0000
0001
0010
0010
1000
1000
0010
0010
0001
0001
0100
0000
0040
0000
,  // measure 34
0100
0000
0000
0000
0000
0000
0000
0000
1030
0000
0000
0000
0000
0001
0000
0000
0100
0000
0000
0000
0000
0100
0000
0000
1000
0000
0000
0000
0000
0000
0000
0000
1040
0000
0000
0000
0000
0000
0000
0000
0000
0000
0000
0000
0030
0000
0000
0000
0200
0000
0000
0000
0000
0000
0000
0000
0000
0000
0000
0000
0301
0000
0000
0000
,  // measure 35
1000
0000
0000
0001
0100
0100
1000
1000
0100
0100
0001
0001
0040
0000
0000
0000
,  // measure 36
0001
0000
0000
0000
0000
0000
0000
0000
0130
0000
0000
0000
0000
1000
0000
0000
0010
0000
0000
0000
0000
0010
0000
0000
0001
0000
0000
0000
0000
0000
0000
0000
0104
0000
0000
0000
0003
0000
0000
0000
0100
0000
0000
0000
0000
0010
0000
0000
2000
0000
0000
0000
0000
0000
0000
0000
0000
0000
0000
0000
3001
0000
0000
0000
,  // measure 37
0010
0000
0000
0001
0100
0100
1000
1000
0100
0100
0001
0001
0010
0000
0400
0000
,  // measure 38
0010
0000
0000
0000
0000
0000
0000
0000
1300
0000
0000
0000
0000
0001
0000
0000
0010
0000
0000
0000
0000
0010
0000
0000
1000
0000
0000
0000
0000
0000
0000
0000
1400
0000
0000
0000
0000
0000
0000
0000
0000
0000
0000
0000
0300
0000
0000
0000
0020
0000
0000
0000
0000
0000
0000
0000
0000
0000
0000
0000
0031
0000
0000
0000
,  // measure 39
1000
0000
0000
1000
0010
0010
0001
0001
0010
0010
1000
1000
0004
0000
0000
0003
,  // measure 40
4000
0000
0000
0000
0000
0000
0000
0000
0000
0000
0000
0000
0000
0000
0000
0000
0000
0000
0000
0000
0000
0000
0000
0000
0000
0000
0000
0000
0000
0000
0000
0000
0000
0000
0000
0000
3000
0000
0000
0000
0000
0000
0000
0000
0000
0000
0000
0000
0001
0000
0000
0000
0000
0000
0000
0000
0000
0000
0000
0000
0000
0000
1000
0000
0000
0000
0000
0000
0000
0000
0000
0000
0100
0000
0000
0000
0000
0000
0000
0000
0000
0000
0000
0000
0000
0000
0000
0000
0010
0000
0000
0000
0000
0000
0000
0000
0001
0000
0000
0000
0000
0000
0000
0000
0000
0000
0000
0000
0000
0000
0000
0000
0000
0000
0000
0000
0000
0000
0000
0000
1000
0000
0000
0000
0000
0000
0000
0000
0000
0000
0000
0000
0000
0000
0000
0000
0000
0000
0000
0000
0000
0000
0000
0000
4100
0000
0000
0000
0000
0000
0000
0000
0000
0000
0000
0000
0000
0000
0000
0000
0000
0000
0000
0000
0000
0000
0000
0000
0000
0000
0000
0000
0000
0000
0000
0000
0000
0000
0000
0000
0000
0000
0000
0000
0000
0000
0000
0000
0000
0000
0000
0000
,  // measure 41
0001
0000
0000
0000
0000
0000
0000
0000
3100
0000
0000
0000
0000
1000
0000
0000
0010
0000
0000
0000
0000
0010
0000
0000
0004
0000
0000
0000
0000
0000
0000
0000
1000
0000
0000
0000
0000
0000
0000
0000
0103
0000
0000
0000
0000
0001
0000
0000
0010
0000
0000
0000
0000
0000
0000
0000
0100
0000
0000
0000
0000
0000
0000
0000
,  // measure 42
1000
0000
0001
0100
0100
1000
0001
0100
0100
1000
0001
0010
0100
0000
0100
0000
,  // measure 43
1000
0000
0000
0000
0000
0000
0000
0000
1000
0000
0000
0000
0000
0001
0000
0000
0010
0000
0000
0000
0000
0010
0000
0000
1000
0000
0000
0000
0000
0000
0000
0000
0100
0000
0000
0000
0000
0000
0000
0000
0100
0000
0000
0000
0000
1000
0000
0000
0001
0000
0000
0000
0000
0000
0000
0000
0001
0000
0000
0000
0000
0000
0000
0000
,  // measure 44
0100
0000
0000
0000
0000
0000
0000
0000
0000
0000
0000
0000
0001
0000
0000
0000
0000
0000
1000
0000
0000
0000
0000
0000
0001
0000
0000
0000
0000
0000
0000
0000
0000
0000
0000
0000
0100
0000
0000
0000
0000
0000
0000
0000
0000
0000
0000
0000
0010
0000
0000
0000
0000
0000
0000
0000
0000
0000
0000
0000
1000
0000
0000
0000
0000
0000
0000
0000
0000
0000
0000
0000
0001
0000
0000
0000
0000
0000
0000
0000
0000
0000
0000
0000
0000
0000
0000
0000
0000
0000
0000
0000
0000
0000
0000
0000
0001
0000
0000
0000
0000
0000
0000
0000
0000
0000
0000
0000
0000
0000
0000
0000
0000
0000
0000
0000
0000
0000
0000
0000
0010
0000
0000
0000
0000
0000
0000
0000
0000
0000
0000
0000
0000
0000
0100
0000
0000
0000
0000
0000
0000
0000
0000
0000
4000
0000
0000
0000
0000
0000
0000
0000
0000
0000
0000
0000
0000
0000
0000
0000
0000
0000
0000
0000
0000
0000
0000
0000
0000
0000
0000
0000
0000
0000
0000
0000
0000
0000
0000
0000
0000
0000
0000
0000
0000
0000
0000
0000
0000
0000
0000
0000
,  // measure 45
0001
0000
0000
0000
0000
0000
0000
0000
3100
0000
0000
0000
0000
1000
0000
0000
0010
0000
0000
0000
0000
0010
0000
0000
0004
0000
0000
0000
0000
0000
0000
0000
0100
0000
0000
0000
0000
0000
0000
0000
1003
0000
0000
0000
0000
0001
0000
0000
0010
0000
0000
0000
0000
0000
0000
0000
0010
0000
0000
0000
0000
0000
0000
0000
,  // measure 46
0001
0000
0001
1000
0010
0010
0001
1000
0010
0010
0001
0010
0100
0000
0100
0000
,  // measure 47
1000
0000
0000
0000
0000
0000
0000
0000
1000
0000
0000
0000
0000
0001
0000
0000
0100
0000
0000
0000
0000
0100
0000
0000
1000
0000
0000
0000
0000
0000
0000
0000
0001
0000
0000
0000
0000
0000
0000
0000
0100
0000
0000
0000
0000
0010
0000
0000
1000
0000
0000
0000
0000
0000
0000
0000
0100
0000
0000
0000
0000
0000
0000
0000
,  // measure 48
0010
0000
0000
0000
0000
0000
0000
0000
0000
0000
0000
0000
0000
0000
0000
0000
0000
0000
0000
0000
0000
0000
0000
0000
0001
0000
0000
0000
0000
0000
0000
0000
0000
0000
0000
0000
0000
0000
0000
0000
0000
0000
0000
0000
0000
0000
0000
0000
0100
0000
0000
0000
0000
0000
0000
0000
0000
0000
0000
0000
0000
0000
0000
0010
0000
0000
0000
0000
0000
0000
0000
0000
1000
0000
0000
0000
0000
0000
0000
0000
0000
0000
0000
0000
0000
0000
0000
0000
0000
0000
0000
0000
0000
0000
0000
0000
0100
0000
0000
0000
0000
0000
0000
0000
0000
0000
0000
0000
0000
0000
0010
0000
0000
0000
0000
0000
0000
0000
0000
0000
0000
0000
0000
0000
0000
0000
0000
0000
0000
0000
0000
0000
0000
0000
0000
0001
0000
0000
0000
0000
0000
0000
0000
0000
1000
0000
0000
0000
0000
0000
0000
0000
0000
0000
0000
0000
0000
0000
0000
0000
0000
0000
0000
0000
0000
0000
0000
0000
0000
0000
0000
0000
0000
0000
0000
0000
0000
0000
0000
0000
0000
0000
0000
0000
0000
0000
0000
0000
0000
0000
0000
0000
,  // measure 49
0001
0000
0000
0000
0000
0000
0000
0000
0000
0000
0000
0000
0000
0000
0000
0000
0000
1000
0000
0000
0000
0000
0000
0000
0000
0000
0000
0000
0000
0000
0000
0000
0000
0000
0000
0000
0000
0000
0000
0000
0000
0000
0000
0000
0000
0000
0000
0000
0000
0000
0000
0000
0000
0000
0000
0000
0000
0000
0000
0000
0000
0000
0000
0000
0000
0000
0000
0000
0000
0000
0000
0000
0000
0000
0000
0000
0000
0000
0000
0000
0000
0000
0000
0000
0000
0000
0000
0000
0000
0000
0000
0000
0000
0000
0000
0000
0001
0000
0000
0000
0000
0000
0000
0000
0000
0000
0000
0000
0000
0000
0000
0000
0000
0000
0000
0000
0000
0000
0000
0000
0000
0000
0000
0000
0000
0000
0000
0000
0000
0000
0000
0000
0000
0000
0000
0000
0000
0000
0000
0000
0000
0000
0000
0000
0000
0000
0000
0000
0000
0000
0000
0000
0000
0000
0000
0000
0000
0000
0000
0000
0000
0000
0000
0000
0000
0000
0000
0000
0000
0000
0000
0000
0000
0000
0000
0000
0000
0000
0000
0000
0000
0000
0000
0000
0000
0000
0000
0000
0000
0000
0000
0000
,  // measure 50
0001
0000
0000
0000
0000
0000
0000
0000
0000
0000
0000
0000
0000
0000
0000
0000
0000
1000
0000
0000
0000
0000
0000
0000
0000
0000
0000
0000
0000
0000
0000
0000
0000
0000
0000
0000
0000
0000
0000
0000
0000
0000
0000
0000
0000
0000
0000
0000
0000
0000
0000
0000
0000
0000
0000
0000
0000
0000
0000
0000
0000
0000
0000
0000
0000
0000
0000
0000
0000
0000
0000
0000
0000
0000
0000
0000
0000
0000
0000
0000
0000
0000
0000
0000
0000
0000
0000
0000
0000
0000
0000
0000
0000
0000
0000
0000
0001
0000
0000
0000
0000
0000
0000
0000
0000
0000
0000
0000
0000
0000
0000
0000
0000
0000
0000
0000
0000
0000
0000
0000
0000
0000
0000
0000
0000
0000
0000
0000
0000
0000
0000
0000
0000
0000
0000
0000
0000
0000
0000
0000
0000
0000
0000
0000
0000
0000
0000
0000
0000
0000
0000
0000
0000
0000
0000
0000
0000
0000
0000
0000
0000
0000
0000
0000
0000
0000
0000
0000
0000
0000
0000
0000
0000
0000
0000
0000
0000
0000
0000
0000
0000
0000
0000
0000
0000
0000
0000
0000
0000
0000
0000
0000
,  // measure 51
0001
0000
0000
0000
0000
0000
0000
0000
0000
0000
0000
0000
0000
0000
0000
0000
0000
1000
0000
0000
0000
0000
0000
0000
0000
0000
0000
0000
0000
0000
0000
0000
0000
0000
0000
0000
0000
0000
0000
0000
0000
0000
0000
0000
0000
0000
0000
0000
0000
0000
0000
0000
0000
0000
0000
0000
0000
0000
0000
0000
0000
0000
0000
0000
0000
0000
0000
0000
0000
0000
0000
0000
0000
0000
0000
0000
0000
0000
0000
0000
0000
0000
0000
0000
0000
0000
0000
0000
0000
0000
0000
0000
0000
0000
0000
0000
0001
0000
0000
0000
0000
0000
0000
0000
0000
0000
0000
0000
0000
0000
0000
0000
0000
0000
0000
0000
0000
0000
0000
0000
0000
0000
0000
0000
0000
0000
0000
0000
0000
0000
0000
0000
0000
0000
0000
0000
0000
0000
0000
0000
0000
0000
0000
0000
0000
0000
0000
0000
0000
0000
0000
0000
0000
0000
0000
0000
0000
0000
0000
0000
0000
0000
0000
0000
0000
0000
0000
0000
0000
0000
0000
0000
0000
0000
0000
0000
0000
0000
0000
0000
0000
0000
0000
0000
0000
0000
0000
0000
0000
0000
0000
0000
,  // measure 52
0001
0000
0000
0000
0000
0000
0000
0000
0000
0000
0000
0000
0000
0000
0000
0000
0000
1000
0000
0000
0000
0000
0000
0000
0000
0000
0000
0000
0000
0000
0000
0000
0000
0000
0000
0000
0000
0000
0000
0000
0000
0000
0000
0000
0000
0000
0000
0000
0000
0000
0000
0000
0000
0000
0000
0000
0000
0000
0000
0000
0000
0000
0000
0000
0000
0000
0000
0000
0000
0000
0000
0000
0000
0000
0000
0000
0000
0000
0000
0000
0000
0000
0000
0000
0000
0000
0000
0000
0000
0000
0000
0000
0000
0000
0000
0000
0100
0000
0000
0000
0000
0000
0000
0000
0000
0000
0000
0000
0000
0000
0000
0000
0000
0000
0000
0000
0000
0000
0000
0000
0000
0000
0000
0000
0000
0000
0040
0000
0000
0000
0000
0000
0000
0000
0000
0000
0000
0030
0000
0000
0000
0000
0000
0000
0000
0000
0000
0000
0000
0000
0000
0000
0000
0000
0000
0000
0000
0000
0000
0000
0000
0000
0000
0000
0000
0000
0000
0000
0000
0000
0000
0000
0000
0000
0000
0000
0000
0000
0000
0000
0000
0000
0000
0000
0000
0000
0000
0000
0000
0000
0000
0000
,  // measure 53
0001
0000
0000
0000
0000
0000
0000
0000
0000
0000
0000
0000
0000
0000
0000
0000
0000
1000
0000
0000
0000
0000
0000
0000
0000
0000
0000
0000
0000
0000
0000
0000
0000
0000
0000
0000
0000
0000
0000
0000
0000
0000
0000
0000
0000
0000
0000
0000
0000
0000
0000
0000
0000
0000
0000
0000
0000
0000
0000
0000
0000
0000
0000
0000
0000
0000
0000
0000
0000
0000
0000
0000
0000
0000
0000
0000
0000
0000
0000
0000
0000
0000
0000
0000
0000
0000
0000
0000
0000
0000
0000
0000
0000
0000
0000
0000
0001
0000
0000
0000
0000
0000
0000
0000
0000
0000
0000
0000
0000
0000
0000
0000
0000
0000
0000
0000
0000
0000
0000
0000
0000
0000
0000
0000
0000
0000
0000
0000
0000
0000
0000
0000
0000
0000
0000
0000
0000
0000
0000
0000
0000
0000
0000
0000
0000
0000
0000
0000
0000
0000
0000
0000
0000
0000
0000
0000
0000
0000
0000
0000
0000
0000
0000
0000
0000
0000
0000
0000
0000
0000
0000
0000
0000
0000
0000
0000
0000
0000
0000
0000
0000
0000
0000
0000
0000
0000
0000
0000
0000
0000
0000
0000
,  // measure 54
0001
0000
0000
0000
0000
0000
0000
0000
0000
0000
0000
0000
0000
0000
0000
0000
0000
1000
0000
0000
0000
0000
0000
0000
0000
0000
0000
0000
0000
0000
0000
0000
0000
0000
0000
0000
0000
0000
0000
0000
0000
0000
0000
0000
0000
0000
0000
0000
0000
0000
0000
0000
0000
0000
0000
0000
0000
0000
0000
0000
0000
0000
0000
0000
0000
0000
0000
0000
0000
0000
0000
0000
0000
0000
0000
0000
0000
0000
0000
0000
0000
0000
0000
0000
0000
0000
0000
0000
0000
0000
0000
0000
0000
0000
0000
0000
0001
0000
0000
0000
0000
0000
0000
0000
0000
0000
0000
0000
0000
0000
0000
0000
0000
0000
0000
0000
0000
0000
0000
0000
0000
0000
0000
0000
0000
0000
0000
0000
0000
0000
0000
0000
0000
0000
0000
0000
0000
0000
0000
0000
0000
0000
0000
0000
0000
0000
0000
0000
0000
0000
0000
0000
0000
0000
0000
0000
0000
0000
0000
0000
0000
0000
0000
0000
0000
0000
0000
0000
0000
0000
0000
0000
0000
0000
0000
0000
0000
0000
0000
0000
0000
0000
0000
0000
0000
0000
0000
0000
0000
0000
0000
0000
,  // measure 55
0001
0000
0000
0000
0000
0000
0000
0000
0000
0000
0000
0000
0000
0000
0000
0000
0000
1000
0000
0000
0000
0000
0000
0000
0000
0000
0000
0000
0000
0000
0000
0000
0000
0000
0000
0000
0000
0000
0000
0000
0000
0000
0000
0000
0000
0000
0000
0000
0000
0000
0000
0000
0000
0000
0000
0000
0000
0000
0000
0000
0000
0000
0000
0000
0000
0000
0000
0000
0000
0000
0000
0000
0000
0000
0000
0000
0000
0000
0000
0000
0000
0000
0000
0000
0000
0000
0000
0000
0000
0000
0000
0000
0000
0000
0000
0000
0001
0000
0000
0000
0000
0000
0000
0000
0000
0000
0000
0000
0000
0000
0000
0000
0000
0000
0000
0000
0000
0000
0000
0000
0000
0000
0000
0000
0000
0000
0000
0000
0000
0000
0000
0000
0000
0000
0000
0000
0000
0000
0000
0000
0000
0000
0000
0000
0000
0000
0000
0000
0000
0000
0000
0000
0000
0000
0000
0000
0000
0000
0000
0000
0000
0000
0000
0000
0000
0000
0000
0000
0000
0000
0000
0000
0000
0000
0000
0000
0000
0000
0000
0000
0000
0000
0000
0000
0000
0000
0000
0000
0000
0000
0000
0000
;

//---------------dance-single - Feraligatr----------------
#NOTES:
     dance-single:
     Feraligatr SH:
     Hard:
     8:
     0.465195,0.720853,0.148438,0.352541,0.338625,351.000000,335.000000,16.000000,38.000000,0.000000,0.000000,0.465195,0.720853,0.148438,0.352541,0.338625,351.000000,335.000000,16.000000,38.000000,0.000000,0.000000:
0000
0000
0000
0000
,
0000
0000
0000
0000
,
0000
0000
0000
0000
,
0000
0000
0000
0000
,
0000
0000
0000
0000
0000
0000
0000
2000
,
0000
3020
0000
0000
0000
0030
2000
0000
0000
3000
0020
0000
0000
0030
2000
0000
,
0000
3020
0000
0000
0000
0030
2000
0000
0000
3000
0020
0000
0000
0030
2000
0000
,
0000
3200
0000
0000
0000
0300
2000
0000
0000
3000
0200
0000
0000
0300
2000
0000
,
3000
0002
0000
0000
0000
0003
2000
0000
0000
0000
3010
0000
1010
0000
0000
0000
,
0001
0000
0010
0000
0000
0000
0001
0100
,
0010
1000
0100
0000
0000
0000
1000
0010
,
0100
0001
0010
0001
0100
0010
1000
0100
,
0010
0001
0100
0010
1000
0001
0100
0000
,
0001
0000
0010
0000
0000
0000
0100
1000
,
0010
0100
0010
0000
0000
0000
1000
0010
,
0100
0001
1000
0100
0010
0001
0100
0001
,
0010
0100
1000
0000
0000
0000
1001
0000
,
0101
0000
0110
0000
1010
0000
1001
0001
,
0010
0100
1000
0000
1001
0000
0101
0100
,
0010
1000
0100
0010
0001
0100
0001
0010
,
0100
1000
0010
0100
0010
1000
0100
0010
,
0001
0100
0010
0100
0001
1000
0100
1000
,
0010
0100
0010
1000
0001
0010
0100
1000
,
0001
0000
0100
0000
0001
0000
0010
0000
0100
0000
1000
0000
0001
0100
0001
1000
,
0100
0010
0001
1000
0001
0100
0010
1000
0100
0000
1000
0010
0200
0000
0000
0301
,
1000
0000
0000
0100
1000
0010
0100
0001
1000
0001
0010
0100
1000
0000
0004
0000
,
0000
0000
0000
0000
0203
0000
0000
0000
2300
0000
0000
3000
1200
0000
0000
0310
,
1000
0000
0001
0010
0001
0100
0010
1000
0001
1000
0100
0010
0001
0000
4000
0000
,
0000
0000
0000
0000
3020
0000
0000
0000
0032
0000
0000
0003
0021
0000
0000
0130
,
0001
0000
0000
0100
0001
0010
0100
1000
0001
1000
0010
0100
0001
0000
4000
0000
,
0000
0000
0000
0000
3200
0000
0000
0000
0302
0000
0000
0003
0201
0000
0000
0310
,
0001
0000
1000
0010
1000
0100
0010
0001
1000
0001
0100
0010
4000
0000
0000
0000
,
0000
0000
0000
0000
3200
0000
0301
0000
0100
0000
1000
0000
1020
0000
0000
0130
,
0001
0000
1000
0100
1000
0010
1000
0001
0010
0001
0100
0001
1000
0000
0040
0000
,
0000
0000
0000
0000
0230
0000
0000
0000
2300
0000
0000
3000
1200
0000
0000
0310
,
1000
0000
0001
0010
0001
0100
0001
1000
0100
1000
0010
1000
0004
0000
0000
0000
,
0000
0000
0000
0000
0023
0000
0000
0000
2030
3000
0010
0000
0021
0000
0000
0130
,
1000
0000
0001
0100
0001
0010
0001
1000
0010
1000
0100
1000
0001
0000
0400
0000
,
0000
0000
0000
0000
0320
0000
0000
0000
0032
0000
0000
0003
0021
0000
0000
0130
,
0001
0000
1000
0100
1000
0010
1000
0001
0010
0001
0100
0001
4000
0000
0000
0000
,
0000
0000
3200
0301
0100
1000
1001
0001
,
1000
0100
0010
0004
0000
0000
1003
0010
,
1000
0000
0001
0100
0001
0010
0100
1000
0001
1000
0010
0100
0001
0000
1000
0000
,
0001
0010
0001
1000
0010
0100
0001
0010
,
0100
0000
1000
0001
1000
0000
0010
0000
0100
0000
0000
0000
0001
0000
0000
0000
0010
0000
0000
0000
0001
0000
0000
0000
0100
0000
0000
0000
0010
0000
0000
0000
,
1000
0100
0010
0004
0000
0000
0103
0010
,
1000
0000
0001
0100
0001
0010
0001
1000
0010
1000
0100
1000
0001
0000
0100
0000
,
0001
1000
0001
0010
0100
1000
0010
0100
,
0001
0000
0010
0000
0100
0000
1000
0000
0000
0001
0000
0000
0200
0000
0000
0000
,
0000
0000
0000
0000
,
0000
0000
0000
0000
,
0000
0000
0000
0000
,
0000
0000
0000
0000
,
0000
0000
0000
0000
,
0000
0000
0000
0000
,
0000
0000
0300
0000
;

//---------------dance-single - Feraligatr----------------
#NOTES:
     dance-single:
     Feraligatr SM:
     Medium:
     6:
     0.361818,0.437661,0.074219,0.287599,0.037110,273.000000,265.000000,8.000000,31.000000,0.000000,0.000000,0.361818,0.437661,0.074219,0.287599,0.037110,273.000000,265.000000,8.000000,31.000000,0.000000,0.000000:
0000
0000
0000
0000
,
0000
0000
0000
0000
,
0000
0000
0000
0000
,
0000
0000
0000
0000
,
0000
0000
0000
0000
0000
0000
0000
2000
,
0000
3000
0000
0000
0000
0000
2000
0000
0000
0000
3000
0000
0000
0000
2000
0000
,
0000
3000
0000
0000
0000
0000
2000
0000
0000
0000
3000
0000
0000
0000
0200
0000
,
0000
0300
0000
0000
0000
0000
0200
0000
0000
0000
0300
0000
0000
0000
0020
0000
,
0000
0030
0000
0000
0000
0000
0020
0000
0001
0000
0030
0000
0001
0000
0000
0000
,
1000
0000
0010
0000
0000
0000
1000
0100
,
0010
0001
1000
0000
0000
0000
0001
0100
,
0001
1000
0100
0010
0001
1000
0010
0100
,
0001
1000
0100
1000
0001
0010
0100
0000
,
1000
0000
0010
0000
0000
0000
0100
0001
,
1000
0100
1000
0000
0000
0000
0001
0100
,
0010
1000
0001
0010
0100
0010
0001
1000
,
0010
0100
0001
0000
0000
0000
0100
0000
,
0001
0000
0010
0000
0100
0000
1000
0001
,
0100
0010
1000
0000
0001
0000
0010
0100
,
0010
0001
1000
0010
0100
0001
1000
0100
,
1000
0001
0100
0010
1000
0001
0100
0000
,
0001
0000
0010
0000
0100
0000
1000
0001
,
0100
0010
0100
0000
0001
0000
1000
0100
,
1000
0001
0100
0010
0100
0001
1000
0100
,
0010
0000
0001
0000
1000
0000
0000
0000
0010
0000
0100
0000
0102
0000
0000
1003
,
0000
0000
0001
0100
1000
0100
0001
0010
,
0010
0000
0010
0000
0020
0000
0000
0000
0230
0000
0000
0300
2100
0000
0000
3001
,
0000
0000
1000
0010
0001
0010
1000
0100
,
0100
0000
0100
0000
0200
0000
0000
0000
0320
0000
0000
0030
0012
0000
0000
1003
,
0000
0000
0001
0100
1000
0100
0001
0010
,
0010
0000
0010
0000
0020
0000
0000
0000
0230
0000
0000
0300
2100
0000
0000
3001
,
0000
0000
1000
0010
0001
0010
1000
1000
,
1000
0000
1000
0000
2000
0000
3100
0000
0010
0000
0001
0000
0201
0000
0000
0310
,
0000
0000
1000
0100
1000
0010
1000
0100
,
0010
0000
0001
0000
2000
0000
0000
0000
3020
0000
0000
0030
0201
0000
0000
0310
,
0000
0000
1000
0100
1000
0010
0100
0100
,
0100
0000
0100
0000
0200
0000
0000
0000
0302
0000
0013
0000
1200
0000
0000
0310
,
0000
0000
0001
0100
0001
0010
0001
0100
,
0010
0000
1000
0000
0002
0000
0000
0000
0023
0000
0000
0030
1200
0000
0000
0310
,
0000
0000
0001
0100
0001
0010
0001
0001
,
1000
1000
2000
3010
0100
0001
1000
0000
,
0100
0000
0010
0001
0001
0001
1000
0010
,
0100
0001
1000
0010
0001
0010
1000
0100
,
0010
0001
1000
0001
0100
0010
0100
0001
,
1000
0100
0010
0001
1000
0010
0100
0000
,
0001
0000
0010
0100
0100
0100
0010
0001
,
1000
0010
1000
0100
1000
0010
1000
0100
,
0010
0001
1000
0010
0100
0001
1000
0100
,
1000
0001
0100
0000
0010
0000
2000
0000
,
0000
0000
0000
0000
,
0000
0000
0000
0000
,
0000
0000
0000
0000
,
0000
0000
0000
0000
,
0000
0000
0000
0000
,
0000
0000
0000
0000
,
0000
0000
3000
0000
;

//---------------dance-single - Feraligatr----------------
#NOTES:
     dance-single:
     Feraligatr SE:
     Easy:
     3:
     0.257116,0.283192,0.027832,0.148438,0.000000,194.000000,191.000000,3.000000,16.000000,0.000000,0.000000,0.257116,0.283192,0.027832,0.148438,0.000000,194.000000,191.000000,3.000000,16.000000,0.000000,0.000000:
0000
0000
0000
0000
,
0000
0000
0000
0000
,
0000
0000
0000
0000
,
0000
0000
0000
0000
,
0000
0000
0000
0001
,
0010
0001
1000
0010
,
0100
0001
1000
0100
,
1000
0001
0100
0010
,
1000
0001
0010
0110
,
0100
0010
0000
0001
,
0100
0010
0100
0000
0000
0000
0001
0000
,
0001
1000
1000
0100
,
0010
0001
0010
0000
0001
0000
1000
0000
,
0100
0010
0000
0001
,
0100
0010
0100
0000
0000
0000
0001
0000
,
0001
1000
1000
0010
,
0100
0001
0100
0000
0000
0000
0001
0000
,
1000
0010
1000
0001
,
0010
0100
1000
0000
0001
0000
0100
0000
,
0010
1000
0001
0010
,
0100
1000
0001
0000
0100
0000
0010
0000
,
0100
0001
1000
0100
,
0010
0001
0010
0000
0100
0000
1000
0000
,
0001
0100
0010
1000
,
0100
0000
0010
0000
0001
0000
0000
0000
0000
0000
0000
0000
2001
0000
0000
3000
,
0000
0000
0001
0100
0001
0100
0010
0000
,
1000
0000
0000
0000
1000
0000
0000
0000
0200
0000
0000
0000
0320
0000
0000
0030
,
0000
0000
0001
1000
0001
1000
0010
0000
,
0100
0000
0000
0000
0100
0000
0000
0000
0002
0000
0000
0000
2003
0000
0000
3000
,
0100
0000
0010
0001
0010
0001
1000
0000
,
0010
0000
0000
0000
0010
0000
0000
0000
0200
0000
0000
0000
0302
0000
0000
0003
,
1000
0000
0001
0010
0001
0010
0100
0000
,
0100
0000
0000
0000
0200
0000
0000
0000
0300
0000
0000
0000
2100
0000
0000
3000
,
0000
0000
0001
0100
0001
0100
0010
0000
,
1000
0000
0000
0000
1000
0000
0000
0000
0200
0000
0000
0000
0320
0000
0000
0030
,
0000
0000
0001
1000
0001
1000
0010
0000
,
0100
0000
0000
0000
0100
0000
0000
0000
0001
0000
0010
0000
0200
0000
0000
0300
,
0000
0000
1000
0010
1000
0010
0100
0000
,
0001
0000
0000
0000
0001
0000
0000
0000
0020
0000
0000
0000
0230
0000
0000
0300
,
0000
0000
1000
0001
1000
0001
0100
0000
,
0100
0020
0030
1000
,
0100
0010
0001
1000
,
0010
0100
0001
0000
1000
0000
0100
0000
,
0010
0100
1000
0001
,
0100
0001
0100
0000
0010
0000
1000
0000
,
0001
0010
0100
1000
,
0001
0100
0001
0000
1000
0000
0100
0000
,
0010
0100
1000
0001
,
0100
0010
1000
0000
0000
0000
0002
0000
,
0000
0000
0000
0000
,
0000
0000
0000
0000
,
0000
0000
0000
0000
,
0000
0000
0000
0000
,
0000
0000
0000
0000
,
0000
0000
0000
0000
,
0000
0000
0003
0000
;

//---------------dance-single - Feraligatr----------------
#NOTES:
     dance-single:
     Feraligatr SN:
     Beginner:
     2:
     0.189524,0.257447,0.074219,0.009277,0.000000,143.000000,135.000000,8.000000,1.000000,0.000000,0.000000,0.189524,0.257447,0.074219,0.009277,0.000000,143.000000,135.000000,8.000000,1.000000,0.000000,0.000000:
0000
0000
0000
0000
,
0000
0000
0000
0000
,
0000
0000
0000
0000
,
0000
0000
0000
0000
,
0000
0000
0000
1000
,
0000
0001
0000
0100
,
0000
0010
0000
0100
,
0000
0001
0000
1000
,
0000
0100
0000
0010
,
0010
0010
0000
0001
,
0000
0001
0000
1000
,
1000
0001
0001
0100
,
0100
0010
0000
1000
,
1000
0010
0000
0001
,
0000
0001
0000
1000
,
1000
0100
0100
0010
,
0010
0001
0000
1000
,
0001
0010
0000
0100
,
0100
0100
0000
1000
,
1000
0001
0001
0100
,
0100
0010
1000
0001
,
0100
0010
0000
1000
,
1000
1000
0000
0001
,
0010
0001
0010
0100
,
1000
0100
1000
1001
,
0000
1000
1000
0001
,
0001
0010
0000
0110
,
0000
0001
0001
1000
,
1000
0010
0000
1001
,
0000
0001
0001
1000
,
1000
0100
0000
0110
,
0000
0001
0001
1000
,
1000
0010
0000
0110
,
0000
0100
0100
0001
,
0001
0010
0000
0110
,
0000
0100
0100
1000
,
1000
0001
0000
1001
,
0000
0001
0001
0100
,
0100
0010
0000
0110
,
0000
0100
0100
0001
,
0001
1000
0000
0001
,
0100
0010
0000
1000
,
1000
1000
0000
0001
,
0001
0010
0010
0100
,
0100
1000
0000
0001
,
0100
0010
0000
1000
,
1000
1000
0000
0001
,
0001
0010
0010
0100
,
0100
1000
0000
0002
,
0000
0000
0000
0000
,
0000
0000
0000
0000
,
0000
0000
0000
0000
,
0000
0000
0000
0000
,
0000
0000
0000
0000
,
0000
0000
0000
0000
,
0000
0000
0003
0000
;
