#TITLE:Legend of Coda;
#SUBTITLE:;
#ARTIST:JKuch;
#TITLETRANSLIT:;
#SUBTITLETRANSLIT:;
#ARTISTTRANSLIT:;
#GENRE:Electronic;
#CREDIT:Benpai & Feraligatr;
#BANNER:Legend of Coda-bn.png;
#BACKGROUND:Legend of Coda-bg.png;
#LYRICSPATH:;
#CDTITLE:bengatr-cd.png;
#MUSIC:Legend of Coda.ogg;
#OFFSET:0.009000;
#SAMPLESTART:32.533001;
#SAMPLELENGTH:18.306000;
#SELECTABLE:YES;
#DISPLAYBPM:118.000000;
#BPMS:0.000000=118.000000
,184.000000=88.500000
,184.500000=177.000000
,185.000000=118.000000
,200.000000=170.000000
,201.000000=118.000000
;
#STOPS:68.000000=0.508000,
71.000000=0.509000,
83.000000=0.254000,
86.500000=0.255000,
200.000000=0.020000,
200.125000=0.019000,
200.250000=0.020000,
200.375000=0.019000,
200.500000=0.020000,
200.625000=0.019000,
200.750000=0.020000,
200.875000=0.019000
;
#BGCHANGES:;
#KEYSOUNDS:;
#ATTACKS:;

//---------------dance-single - Benpai & Feraligatr----------------
#NOTES:
     dance-single:
     Benpai & Feraligatr:
     Challenge:
     10:
     0.604911,0.701660,0.218750,0.390625,0.742188,542.000000,514.000000,28.000000,50.000000,21.000000,0.000000,0.604911,0.701660,0.218750,0.390625,0.742188,542.000000,514.000000,28.000000,50.000000,21.000000,0.000000:
0000
0000
0000
0000
,
0000
0000
0000
0000
,
0000
0000
0000
0000
,
0000
0000
0000
0000
,
0000
0000
0000
0000
,
0000
0000
0000
0000
,
1000
1000
0001
0001
0100
0100
0010
0010
,
1000
1000
0100
0100
0010
0010
10M1
0001
,
0101
0000
0000
0000
0100
0010
1000
0001
0000
0100
0001
0000
1000
0100
1000
0020
,
0000
0030
0100
0010
1000
0001
0010
0100
0000
1000
0100
0000
1000
0001
0100
0000
,
1040
0000
0000
0030
0100
0010
1000
0100
0000
0010
0100
0000
1000
0010
1000
0200
,
0000
0300
0010
0001
1000
0001
0100
0010
0000
0000
1000
0000
1000
0000
0100
1000
,
0010
0000
0100
0000
0001
1000
0100
0010
0000
0001
0010
0000
0100
1000
0001
0200
,
0000
0300
0010
0100
0001
1000
0001
0010
0100
1000
0001
0000
0100
0010
1000
0001
,
0100
0000
000M
0000
1000
0100
0010
1000
0000
0001
1000
0000
0100
0010
0100
1000
,
0002
0003
0002
0003
0002
0003
0002
0003
,
0101
0000
0000
0100
0000
0000
0100
0000
0000
0000
0010
0000
002M
000M
000M
003M
,
2020
3030
0000
0000
0000
0000
0000
0000
0000
0000
0000
0000
0000
0000
0000
0000
1000
0000
0000
0000
0001
0000
0000
0000
0010
0000
0000
0000
0100
0000
0000
0000
0010
0000
0000
0000
0001
0000
0000
0000
0100
0000
0000
0000
0000
0000
0000
0000
M220
0330
0000
0000
0000
0000
0000
0000
0000
0000
0000
0000
0000
0000
0000
0000
,
0100
0010
1000
0100
0010
0000
0001
0000
2001
0000
0000
0000
3020
0000
0000
0000
,
0130
0000
0001
1000
0000
1000
0100
0000
0021
0000
0000
0000
0230
0000
0000
0000
,
1300
0000
0000
0000
0000
0000
0000
0000
0001
0000
0000
0000
0100
0000
0000
0000
0000
0000
0000
0000
0100
0000
0000
0000
0010
0000
0000
0000
0000
0000
0000
0000
2010
0000
0000
0000
0000
0000
0000
0000
0000
0000
0000
0000
0000
0000
0000
0000
30M2
0003
0000
0000
0000
0000
0000
0000
1000
0000
0000
0000
0100
0000
0000
0000
,
1000
0000
0000
0000
0001
0000
0000
0000
0010
0000
0000
0000
0010
0000
0000
0000
0100
0000
0000
0000
0100
0000
0000
0000
2000
0000
0000
0000
0000
0000
0000
0000
0000
0000
0000
0000
0000
0000
0000
0000
302M
0030
0000
0000
0000
0000
0000
0000
0100
0000
0000
0000
0001
0000
0000
0000
1000
0000
0000
0000
0001
0000
0000
0000
,
0020
0000
0000
0030
0210
0000
1300
0001
0000
1000
0001
0100
0010
1000
0001
0100
,
0000
0010
1000
0001
0000
1000
0100
0010
0000
0100
1000
0001
0100
0010
1000
0001
,
0020
0000
0000
0030
0220
0000
0330
0000
0100
1000
0100
1000
0010
0100
0010
0100
,
0010
0100
0001
1000
0100
0000
0010
0001
1000
0010
0100
0001
0010
0100
0010
0001
,
0200
0000
0310
0000
2020
0000
3030
0000
0010
1000
0010
1000
0100
0010
0001
1000
,
0000
0001
1000
0001
0100
0000
0010
0100
0001
1000
0100
1000
0010
0100
0001
1000
,
0200
0000
0000
0300
0220
0000
0330
0000
0010
0001
0010
0001
0100
0010
1000
0001
,
0100
0001
1000
0100
0010
0000
0100
1000
0001
0100
0010
1000
0100
0000
1000
0001
,
0020
0000
0030
0000
0220
0000
0330
0000
0100
1000
0100
1000
0010
0100
0001
1000
,
0001
0100
0010
1000
0001
0010
0100
0010
0001
1000
0010
1000
0100
0010
0100
1000
,
0010
0000
0100
0000
0201
0000
0000
0000
0320
0000
0000
0000
1030
0001
1000
0001
,
1000
0001
1000
0001
0010
0000
0000
0000
0100
0000
0000
0000
1000
0000
0000
0000
,
0001
0100
0001
0100
0040
0000
0030
0000
1000
0000
1000
0000
0100
0000
0010
0000
,
0001
0000
0010
0000
4002
3000
0000
0000
0000
0000
0000
0000
0000
0000
0000
0000
,
0000
0000
0403
0300
0010
1000
0100
1000
,
0001
0100
0010
1000
0400
0000
0000
0000
0310
0000
0100
1000
0001
0000
0100
0001
,
1000
0000
0000
0001
0000
0000
0010
0000
0000
0100
0000
0000
4000
0000
0000
0000
0000
0000
3000
0000
0000
0000
0000
0000
0010
0000
0000
0000
0000
0000
0100
0000
0000
0000
0001
0000
1000
0000
0000
0000
0000
0000
0100
0000
0000
1000
0000
0000
,
0001
0000
0000
0100
0000
0000
0001
0000
0000
1000
0000
0000
0400
0000
0000
0000
0000
0000
0300
0000
0000
0000
0000
0000
0010
0000
0000
0000
0000
0000
0100
0000
0000
0000
1000
0000
0010
0000
0000
0000
0000
0000
0100
0000
0000
0000
0000
0000
,
0001
0000
0010
0000
0140
0000
0030
0000
0001
0000
1000
0001
0010
0000
0100
0000
,
1000
0001
1000
0010
0400
0000
0300
0000
0010
0000
1000
0000
0001
0000
0100
0001
,
1000
0000
0000
0001
0000
0000
0010
0000
0000
0000
0000
0000
0410
0000
0000
0000
0000
0000
0300
0000
0000
0000
0000
0000
1000
0000
0000
0000
0000
0000
0001
0000
0000
0000
1000
0000
0100
0000
0000
0000
0000
0000
0010
0000
0000
0000
0000
0000
,
0100
1000
0001
0100
0020
0000
0000
1030
0001
0000
0010
0000
0000
0100
0000
1000
,
0001
0100
0001
1000
0200
0000
0000
0300
0110
0000
0010
0000
0001
1000
0001
1000
,
0001
0100
0010
1000
0400
0000
0000
0000
0340
0000
0000
0000
0034
0000
0000
0000
,
M2M3
0000
0000
0300
0110
0000
0000
0000
0010
0000
0000
1000
0100
M00M
0100
0001
,
0000
0000
0100
0000
2010
0000
0000
3000
1002
0000
0003
0001
2000
0000
0001
0000
,
3200
0000
0000
0300
0410
0000
0300
0000
1000
0000
0001
1000
010M
000M
001M
000M
,
010M
0010
0001
1000
0040
0000
0000
0000
0430
0000
0000
0000
0304
0000
0000
0000
,
0023
0000
0000
0030
0110
0000
0000
0000
0010
0000
0000
0001
0010
M00M
0010
1000
,
0000
0010
0102
0000
1000
0000
0000
0000
,
1003
0000
0000
0000
1001
0000
0000
0000
1000
0100
1000
0001
0000
0000
0001
0000
,
0200
0000
0000
0310
1000
0000
0001
1000
0100
1000
0001
0010
0000
0100
0010
0000
,
0001
0000
1000
0000
1040
0000
0000
0030
0100
0010
1000
0001
0000
0100
0001
0000
,
1000
0100
1000
0020
0000
0030
0100
0001
1000
0100
0010
0001
0000
0000
0001
0000
,
1000
0000
0010
0000
0101
0000
0100
0000
0010
0100
0001
1000
0000
0100
1000
0000
,
0001
0100
0001
0020
0000
0030
0100
1000
0001
0100
0010
1000
0200
0000
1300
0000
,
0001
1000
0001
0010
0100
0000
00M0
0000
0001
0100
0010
0001
0000
0001
1000
0000
,
0100
0010
0001
1000
0010
0100
0001
1000
0100
0000
0010
0100
1000
0001
0100
0000
;

//---------------dance-single - Feraligatr----------------
#NOTES:
     dance-single:
     Feraligatr SH:
     Hard:
     9:
     0.531250,0.678271,0.164063,0.476563,0.582031,476.000000,455.000000,21.000000,61.000000,1.000000,0.000000,0.531250,0.678271,0.164063,0.476563,0.582031,476.000000,455.000000,21.000000,61.000000,1.000000,0.000000:
// measure 0
0000
0000
0000
0000
,  // measure 1
0000
0000
0000
0000
,  // measure 2
0000
0000
0000
0000
,  // measure 3
0000
0000
0000
0000
,  // measure 4
0000
0000
0000
0000
,  // measure 5
0000
0000
0000
0000
,  // measure 6
0001
0100
0001
0100
0010
1000
0010
1000
,  // measure 7
0001
0010
0001
0010
0100
1000
0010
0100
,  // measure 8
0101
0000
0000
0000
0001
1000
0100
0010
0000
0100
0010
0000
0001
1000
0001
0020
,  // measure 9
0000
0030
0001
1000
0010
0100
0010
1000
0000
0010
1000
0000
0001
0000
0000
0000
,  // measure 10
0021
0000
0000
0000
0130
1000
0001
0100
0000
0001
0100
0000
0001
1000
0001
0020
,  // measure 11
0000
0030
0100
1000
0001
1000
0010
0100
0000
0000
0001
0000
0001
0000
0000
0000
,  // measure 12
0021
0000
0000
0000
0130
1000
0001
0100
0000
0001
0100
0000
0010
1000
0001
0020
,  // measure 13
0000
0030
0100
1000
0001
1000
0010
0100
0000
0010
0100
0000
0001
1000
0001
1000
,  // measure 14
0100
0000
0000
0000
0010
0100
1000
0001
0000
1000
0001
0000
1000
0010
0100
0001
,  // measure 15
2000
3000
2000
3000
2000
3000
2000
3000
,  // measure 16
1100
0000
0000
0100
0000
0000
0100
0000
0000
0000
0100
0000
0200
0000
0000
0300
,  // measure 17
2002
3003
0000
0000
0000
0000
0000
0000
0000
0000
0000
0000
0000
0000
0000
0000
1000
0000
0000
0000
0100
0000
0000
0000
1000
0000
0000
0000
0001
0000
0000
0000
0000
0000
0000
0000
0100
0000
0000
0000
0010
0000
0000
0000
0000
0000
0000
0000
2020
3030
0000
0000
0000
0000
0000
0000
0000
0000
0000
0000
0000
0000
0000
0000
,  // measure 18
1000
0001
0010
0100
1000
0000
0000
0000
2001
0000
0000
3000
2000
0000
0000
0000
,  // measure 19
3100
0000
0010
0001
0000
0001
0000
0000
0021
0000
0000
0000
0230
0000
0000
0000
,  // measure 20
2300
0000
0000
0000
0000
0000
0000
0000
0000
0000
0000
0000
0000
0000
0000
0000
3020
0000
0000
0000
0000
0000
0000
0000
0000
0000
0000
0000
0030
0000
0000
0000
0210
0000
0000
0000
0000
0000
0000
0000
0000
0000
0000
0000
0000
0000
0000
0000
0302
0003
0000
0000
0000
0000
0000
0000
0100
0000
0000
0000
0001
0000
0000
0000
,  // measure 21
1000
0000
0000
0000
0100
0000
0000
0000
0010
0000
0000
0000
0001
0000
0000
0000
0010
0000
0000
0000
0001
0000
0000
0000
2000
0000
0000
0000
0000
0000
0000
0000
0000
0000
0000
0000
0000
0000
0000
0000
3020
0030
0000
0000
0000
0000
0000
0000
1000
0000
0000
0000
0001
0000
0000
0000
1000
0000
0000
0000
0100
0000
0000
0000
,  // measure 22
0020
0000
0000
0000
0031
0000
1000
0001
0000
1000
0001
1000
0010
0100
0001
1000
,  // measure 23
0000
0100
0010
0001
0000
1000
0100
1000
0000
0001
0100
0001
1000
0000
0000
0000
,  // measure 24
0200
0000
0000
0300
0220
0000
0330
0000
0001
1000
0001
1000
0040
0400
0000
0000
,  // measure 25
0030
0300
0001
1000
0100
0000
0010
0001
1000
0000
0001
0100
0010
0000
1000
0001
,  // measure 26
0020
0000
0130
0000
2200
0000
3300
0000
1000
0001
1000
0001
0100
0010
0100
0000
,  // measure 27
0000
0001
1000
0001
0000
0000
0010
0100
1000
0001
0100
0001
1000
0000
0010
1000
,  // measure 28
0200
0000
0000
0300
0220
0000
0330
0000
1000
0001
1000
0001
0100
0010
1000
0000
,  // measure 29
0001
0100
0010
1000
0000
0000
0001
1000
0001
0010
0100
0010
0001
0000
1000
0001
,  // measure 30
0200
0000
0300
0000
0220
0000
0330
0000
0001
1000
0001
1000
0010
0100
0001
1000
,  // measure 31
0001
0010
0100
1000
0000
0001
0100
0001
1000
0100
0010
0001
1000
0010
0100
0010
,  // measure 32
1000
0100
1200
0000
0320
0000
0034
0000
,  // measure 33
0000
1003
0010
0100
,  // measure 34
0001
1000
0001
1000
0100
0000
0000
0000
0100
0000
0100
0000
1000
0000
0010
0000
,  // measure 35
0100
0010
2000
0000
0000
0000
0000
0000
,  // measure 36
0000
0000
3200
0300
0001
0100
1000
0010
,  // measure 37
0100
0001
1000
0001
0200
0000
0000
0000
1300
0000
0100
0000
0001
0000
1000
0000
,  // measure 38
0001
0010
0100
1000
0020
0000
0030
0000
0001
0000
0010
0000
1000
0000
0001
0000
,  // measure 39
1000
0100
0020
0030
1000
0010
0001
0100
,  // measure 40
0010
1000
0200
0300
0001
0100
1000
0010
,  // measure 41
0100
0001
1000
0001
0200
0000
0300
0000
1000
0000
0100
0000
0001
0000
0010
0000
,  // measure 42
0100
1000
0020
0030
0001
0010
1000
0100
,  // measure 43
0010
0000
0001
0000
0200
0000
0000
0310
1000
0000
0001
0000
0000
0010
0000
0100
,  // measure 44
1000
0001
0100
0010
2000
0000
0000
3000
0100
0000
0010
0000
0004
0000
0000
0000
,  // measure 45
1003
0010
0100
0001
4000
0000
0000
0000
3400
0000
0000
0000
0340
0000
0000
0000
,  // measure 46
M032
0000
0000
0003
0101
0000
0000
0000
0100
0000
0000
0010
0100
0000
0001
0010
,  // measure 47
0000
0100
2000
0000
3020
0000
0230
0000
,  // measure 48
0302
0000
0203
0300
1000
0100
0004
0000
,  // measure 49
1003
0100
0010
0001
4000
0000
0000
0000
3040
0000
0000
0000
0430
0000
0000
0000
,  // measure 50
0302
0000
0000
0003
0011
0000
0000
0000
0010
0000
0000
0100
0010
0000
0001
0100
,  // measure 51
0000
0010
2010
0000
0001
0000
0000
0000
,  // measure 52
3001
0000
0000
0000
1001
0000
0000
0000
1000
0100
1000
0001
0000
0000
0001
0000
,  // measure 53
0100
0000
0000
0000
0110
0000
0010
1000
0001
1000
0100
0010
0000
0100
0010
0000
,  // measure 54
0001
0000
1000
0000
2010
0000
0000
0000
3010
0100
0001
1000
0000
0001
1000
0000
,  // measure 55
0001
0100
0001
2000
0000
3000
0100
0010
0100
1000
0001
0100
0000
0000
0100
0000
,  // measure 56
0010
0000
0000
0000
1020
0000
0000
0000
1030
0001
1000
0100
0000
1000
0100
0000
,  // measure 57
0010
0001
1000
0020
0000
0030
0100
0001
1000
0100
0010
0001
0000
0010
0001
0000
,  // measure 58
1000
0001
1000
0001
0100
0000
0000
0000
0010
0100
0001
1000
0000
0001
1000
0000
,  // measure 59
0100
0010
0001
1000
0010
0100
0001
0000
0000
0000
1000
0100
1000
0100
0010
0000
;

//---------------dance-single - Feraligatr----------------
#NOTES:
     dance-single:
     Feraligatr SM:
     Medium:
     6:
     0.333705,0.374219,0.125000,0.218750,0.054688,299.000000,283.000000,16.000000,28.000000,0.000000,0.000000,0.333705,0.374219,0.125000,0.218750,0.054688,299.000000,283.000000,16.000000,28.000000,0.000000,0.000000:
// measure 0
0000
0000
0000
0000
,  // measure 1
0000
0000
0000
0000
,  // measure 2
0000
0000
0000
0000
,  // measure 3
0000
0000
0000
0000
,  // measure 4
0000
0000
0000
0000
,  // measure 5
0000
0000
0000
0000
,  // measure 6
0001
1000
0001
1000
,  // measure 7
0100
0000
0010
0000
0100
0000
1000
0010
,  // measure 8
0110
0000
0000
0000
0100
0000
0001
1000
0000
0000
1000
0000
0100
0000
0010
0000
,  // measure 9
0001
0000
0000
0000
1000
0000
0010
0100
0000
0000
0100
0000
0001
0000
0000
0000
,  // measure 10
0021
0000
0000
0000
0130
0000
1000
0001
0000
0000
0001
0000
0100
0000
0010
0000
,  // measure 11
1000
0000
0000
0000
0001
0000
0010
0100
0000
0000
1000
0000
1000
0000
0000
0000
,  // measure 12
1002
0000
0000
0000
0103
0000
0010
1000
0000
0000
1000
0000
0001
0000
0010
0000
,  // measure 13
0100
0000
0000
0000
1000
0000
0001
0100
0000
0000
0100
0000
0010
0000
1000
0000
,  // measure 14
0001
0000
0000
0000
0010
0000
0100
1000
0000
0000
1000
0000
0001
0000
0100
0000
,  // measure 15
0040
0000
0000
0000
0000
0000
0000
0000
0000
0000
0000
0000
0000
0000
0000
0030
,  // measure 16
1000
0000
0000
0001
0000
0000
1000
0000
0000
0000
0001
0000
1000
0000
0000
0000
,  // measure 17
0110
0100
0010
1001
,  // measure 18
0001
0000
0000
0000
0010
0000
0000
0000
2100
0000
0000
3000
2000
0000
0000
3000
,  // measure 19
2000
0000
0000
3000
2000
0000
0000
0000
3020
0000
0000
0000
0230
0000
0000
0000
,  // measure 20
0302
0000
0000
0000
2003
0000
0000
3000
1100
0000
0000
0000
0001
0000
0000
0000
,  // measure 21
0000
0000
0000
0101
0000
1000
0000
0000
,  // measure 22
0000
0000
0001
0100
0001
0000
1000
0100
,  // measure 23
1000
0000
0001
0100
0010
1000
0100
0010
,  // measure 24
0001
1001
4000
3040
,  // measure 25
0000
0030
0100
0000
0100
0000
0101
0000
,  // measure 26
0002
1003
1001
0000
0004
0000
0013
0100
,  // measure 27
1000
0001
0200
0000
0320
0000
2030
0000
,  // measure 28
3200
0000
0000
0300
0022
0000
0033
0000
0004
0000
0000
0000
1003
0000
0010
0000
,  // measure 29
1000
0001
0010
0000
0010
0000
0110
0000
,  // measure 30
2000
0000
0000
3000
2002
0000
3003
0000
0004
0000
0000
0000
0103
0000
0010
0000
,  // measure 31
1000
0001
0010
0000
0100
0000
1000
0001
,  // measure 32
1000
0010
0100
0000
0100
0000
0004
0000
,  // measure 33
0000
1003
1000
1100
,  // measure 34
0100
0100
0010
0000
0010
0010
0001
0100
,  // measure 35
0010
0100
0002
0000
0000
0000
0000
0000
,  // measure 36
0000
0000
1003
0000
0001
0010
0100
1000
,  // measure 37
0001
0100
0010
0000
1000
0100
0010
0001
,  // measure 38
0100
0010
1000
0000
0001
0010
0100
1000
,  // measure 39
0001
0100
0010
0000
1000
0100
0010
0001
,  // measure 40
0100
0010
1000
0000
0001
0010
0100
1000
,  // measure 41
0001
0100
0010
0000
1000
0100
0010
0001
,  // measure 42
0100
0010
1000
0000
0001
0010
0100
1000
,  // measure 43
0001
0100
0010
0000
0000
0000
0000
0000
,  // measure 44
0000
0000
1000
0000
0001
0010
0100
1000
,  // measure 45
0010
1000
0400
0000
0340
0000
0034
0000
,  // measure 46
2003
3010
0010
0100
,  // measure 47
0001
2000
3200
0320
,  // measure 48
0032
0000
1003
0000
0001
0100
0010
1000
,  // measure 49
0100
0010
0004
0000
0403
0000
0340
0000
,  // measure 50
2030
3001
0001
0010
,  // measure 51
0000
0200
1000
0000
,  // measure 52
1300
0001
0000
0000
,  // measure 53
0000
0000
0000
0000
1001
0000
0000
0000
1000
0000
0100
0010
0000
0000
0010
0000
,  // measure 54
0001
0000
1000
0000
0010
0000
0000
0000
0100
0000
0001
1000
0000
0000
1000
0000
,  // measure 55
0001
0000
0010
0000
0100
0000
0000
0000
1000
0000
0001
0100
0000
0000
0100
0000
,  // measure 56
0010
0000
1000
0000
0001
0000
0000
0000
0010
0000
0100
1000
0000
0000
1000
0000
,  // measure 57
0001
0000
0100
0000
0010
0000
0000
0000
0100
0000
0001
1000
0000
0000
1000
0000
,  // measure 58
0100
0000
0010
0000
0001
0000
0000
0000
1000
0000
0010
0100
0000
0000
0100
0000
,  // measure 59
0001
1000
0100
0000
0100
1000
0001
0100
;

//---------------dance-single - Feraligatr----------------
#NOTES:
     dance-single:
     Feraligatr SE:
     Easy:
     4:
     0.181920,0.233398,0.054688,0.156250,0.000000,163.000000,156.000000,7.000000,20.000000,0.000000,0.000000,0.181920,0.233398,0.054688,0.156250,0.000000,163.000000,156.000000,7.000000,20.000000,0.000000,0.000000:
// measure 0
0000
0000
0000
0000
,  // measure 1
0000
0000
0000
0000
,  // measure 2
0000
0000
0000
0000
,  // measure 3
0000
0000
0000
0000
,  // measure 4
0000
0000
0000
0000
,  // measure 5
0000
0000
0000
0000
,  // measure 6
1000
0000
0001
0000
,  // measure 7
1000
0000
0001
0010
,  // measure 8
0110
0100
1000
0000
,  // measure 9
0001
0100
0010
0000
,  // measure 10
1000
0001
0010
0000
,  // measure 11
0100
1000
0001
0000
,  // measure 12
1000
0010
0100
0000
,  // measure 13
0010
1000
0001
0000
,  // measure 14
0010
0100
1000
0000
,  // measure 15
0002
0000
0000
0000
,  // measure 16
1003
0000
0000
0000
,  // measure 17
1001
1000
0010
0110
,  // measure 18
0100
0001
2000
0000
,  // measure 19
0001
0000
3200
0320
,  // measure 20
0032
1003
1010
0001
,  // measure 21
0000
0000
0000
0011
0000
1000
0000
0000
,  // measure 22
0000
0001
0001
0010
,  // measure 23
0010
0100
0100
1000
,  // measure 24
1000
1001
0002
1000
,  // measure 25
0000
0103
0100
0010
,  // measure 26
0000
2000
3100
0010
,  // measure 27
0001
0001
0000
1000
,  // measure 28
0010
0110
2000
0001
,  // measure 29
0000
3010
0010
0100
,  // measure 30
0000
0002
0103
0010
,  // measure 31
1000
0001
0010
0100
,  // measure 32
0100
1000
1000
0001
,  // measure 33
0000
0100
0000
0010
,  // measure 34
0000
1000
1000
1000
,  // measure 35
0100
0010
0000
0000
,  // measure 36
0000
0001
0000
1000
,  // measure 37
0010
0100
0000
0001
,  // measure 38
0010
0100
0000
1000
,  // measure 39
0010
0100
0000
0001
,  // measure 40
0010
0100
0000
1000
,  // measure 41
0001
0100
0000
0001
,  // measure 42
1000
0100
0000
1000
,  // measure 43
0001
0100
0000
0000
,  // measure 44
0000
0001
1000
0100
,  // measure 45
0010
0002
0000
2003
,  // measure 46
3020
0130
0000
0100
,  // measure 47
0000
0002
0023
0230
,  // measure 48
2300
3001
0000
0100
,  // measure 49
0010
2000
0000
3200
,  // measure 50
0320
0031
0000
0001
,  // measure 51
0000
2000
0000
0000
,  // measure 52
3100
1000
0000
0000
,  // measure 53
0000
0001
0100
0010
,  // measure 54
0000
1000
0001
0010
,  // measure 55
0000
0100
1000
0001
,  // measure 56
0000
0100
0010
1000
,  // measure 57
0000
0001
0010
0100
,  // measure 58
0000
1000
0001
0100
,  // measure 59
0000
0010
0100
0001
;

//---------------dance-single - Feraligatr----------------
#NOTES:
     dance-single:
     Feraligatr SN:
     Beginner:
     1:
     0.094866,0.185937,0.078125,0.015625,0.000000,85.000000,75.000000,10.000000,2.000000,0.000000,0.000000,0.094866,0.185937,0.078125,0.015625,0.000000,85.000000,75.000000,10.000000,2.000000,0.000000,0.000000:
// measure 0
0000
0000
0000
0000
,  // measure 1
0000
0000
0000
0000
,  // measure 2
0000
0000
0000
0000
,  // measure 3
0000
0000
0000
0000
,  // measure 4
0000
0000
0000
0000
,  // measure 5
0000
0000
0000
0000
,  // measure 6
1000
0000
0000
0000
,  // measure 7
0001
0000
0000
0010
,  // measure 8
0110
0000
0000
0000
,  // measure 9
1000
0000
0000
0000
,  // measure 10
0001
0000
0000
0000
,  // measure 11
0100
0000
0000
0000
,  // measure 12
0010
0000
0000
0000
,  // measure 13
0100
0000
0000
0000
,  // measure 14
0001
0000
0000
0000
,  // measure 15
1000
0000
0000
0000
,  // measure 16
0001
0000
0000
0000
,  // measure 17
1001
0000
0000
0110
,  // measure 18
0000
0000
1000
0000
,  // measure 19
0000
0000
0000
0000
,  // measure 20
0000
0000
0110
0000
,  // measure 21
0000
0000
0000
1001
0000
0000
0000
0000
,  // measure 22
0000
1000
0000
0000
,  // measure 23
0000
0100
0000
0000
,  // measure 24
0000
0110
0000
0000
,  // measure 25
0000
0001
0001
0001
,  // measure 26
0000
1001
0000
0000
,  // measure 27
0000
0010
0010
0010
,  // measure 28
0000
0110
0000
0000
,  // measure 29
0000
1000
1000
0001
,  // measure 30
0001
1001
0000
0000
,  // measure 31
0000
0100
0100
0010
,  // measure 32
0010
0110
0000
0000
,  // measure 33
0000
1000
0000
0000
,  // measure 34
0000
0001
0000
0000
,  // measure 35
0000
0020
0000
0000
,  // measure 36
0000
0031
0000
0000
,  // measure 37
0000
1000
0000
0000
,  // measure 38
0000
0010
0000
0000
,  // measure 39
0000
0100
0000
0000
,  // measure 40
0000
0001
0000
0000
,  // measure 41
0000
1000
0000
0000
,  // measure 42
0000
0100
0000
0000
,  // measure 43
0000
0010
0000
0000
,  // measure 44
0000
0100
0000
0000
,  // measure 45
0000
1000
1000
1000
,  // measure 46
1000
0001
0000
0000
,  // measure 47
0000
0100
0010
1000
,  // measure 48
0001
1000
0000
0000
,  // measure 49
0000
0100
0100
0100
,  // measure 50
0100
0010
0000
0000
,  // measure 51
0000
0002
0000
0000
,  // measure 52
0003
1000
0000
0000
,  // measure 53
0000
0010
0000
0000
,  // measure 54
0000
0100
0000
0000
,  // measure 55
0000
0001
0000
0000
,  // measure 56
0000
1000
0000
0000
,  // measure 57
0000
0100
0000
0000
,  // measure 58
0000
0010
0000
0000
,  // measure 59
0000
0001
0001
0000
;
